  0
SECTION
  2
HEADER
  9
$ACADVER
  1
AC1015
  9
$ACADMAINTVER
 70
    20
  9
$DWGCODEPAGE
  3
ANSI_1252
  9
$INSBASE
 10
0.0
 20
0.0
 30
0.0
  9
$EXTMIN
 10
490.4887180291249
 20
425.7180207704114
 30
0.0
  9
$EXTMAX
 10
526.4887180291249
 20
451.3829069769142
 30
0.0
  9
$LIMMIN
 10
0.0
 20
0.0
  9
$LIMMAX
 10
12.0
 20
9.0
  9
$ORTHOMODE
 70
     1
  9
$REGENMODE
 70
     1
  9
$FILLMODE
 70
     1
  9
$QTEXTMODE
 70
     0
  9
$MIRRTEXT
 70
     0
  9
$LTSCALE
 40
1.0
  9
$ATTMODE
 70
     1
  9
$TEXTSIZE
 40
0.2
  9
$TRACEWID
 40
0.05
  9
$TEXTSTYLE
  7
Standard
  9
$CLAYER
  8
viewport
  9
$CELTYPE
  6
ByLayer
  9
$CECOLOR
 62
   256
  9
$CELTSCALE
 40
1.0
  9
$DISPSILH
 70
     0
  9
$DIMSCALE
 40
1.0
  9
$DIMASZ
 40
0.18
  9
$DIMEXO
 40
0.0625
  9
$DIMDLI
 40
0.38
  9
$DIMRND
 40
0.0
  9
$DIMDLE
 40
0.0
  9
$DIMEXE
 40
0.18
  9
$DIMTP
 40
0.0
  9
$DIMTM
 40
0.0
  9
$DIMTXT
 40
0.18
  9
$DIMCEN
 40
0.09
  9
$DIMTSZ
 40
0.0
  9
$DIMTOL
 70
     0
  9
$DIMLIM
 70
     0
  9
$DIMTIH
 70
     1
  9
$DIMTOH
 70
     1
  9
$DIMSE1
 70
     0
  9
$DIMSE2
 70
     0
  9
$DIMTAD
 70
     0
  9
$DIMZIN
 70
     0
  9
$DIMBLK
  1

  9
$DIMASO
 70
     1
  9
$DIMSHO
 70
     1
  9
$DIMPOST
  1

  9
$DIMAPOST
  1

  9
$DIMALT
 70
     0
  9
$DIMALTD
 70
     2
  9
$DIMALTF
 40
25.4
  9
$DIMLFAC
 40
1.0
  9
$DIMTOFL
 70
     0
  9
$DIMTVP
 40
0.0
  9
$DIMTIX
 70
     0
  9
$DIMSOXD
 70
     0
  9
$DIMSAH
 70
     0
  9
$DIMBLK1
  1

  9
$DIMBLK2
  1

  9
$DIMSTYLE
  2
Standard
  9
$DIMCLRD
 70
     0
  9
$DIMCLRE
 70
     0
  9
$DIMCLRT
 70
     0
  9
$DIMTFAC
 40
1.0
  9
$DIMGAP
 40
0.09
  9
$DIMJUST
 70
     0
  9
$DIMSD1
 70
     0
  9
$DIMSD2
 70
     0
  9
$DIMTOLJ
 70
     1
  9
$DIMTZIN
 70
     0
  9
$DIMALTZ
 70
     0
  9
$DIMALTTZ
 70
     0
  9
$DIMUPT
 70
     0
  9
$DIMDEC
 70
     4
  9
$DIMTDEC
 70
     4
  9
$DIMALTU
 70
     2
  9
$DIMALTTD
 70
     2
  9
$DIMTXSTY
  7
Standard
  9
$DIMAUNIT
 70
     0
  9
$DIMADEC
 70
     0
  9
$DIMALTRND
 40
0.0
  9
$DIMAZIN
 70
     0
  9
$DIMDSEP
 70
    46
  9
$DIMATFIT
 70
     3
  9
$DIMFRAC
 70
     0
  9
$DIMLDRBLK
  1

  9
$DIMLUNIT
 70
     2
  9
$DIMLWD
 70
    -2
  9
$DIMLWE
 70
    -2
  9
$DIMTMOVE
 70
     0
  9
$LUNITS
 70
     2
  9
$LUPREC
 70
     0
  9
$SKETCHINC
 40
0.1
  9
$FILLETRAD
 40
0.0
  9
$AUNITS
 70
     0
  9
$AUPREC
 70
     0
  9
$MENU
  1
.
  9
$ELEVATION
 40
0.0
  9
$PELEVATION
 40
0.0
  9
$THICKNESS
 40
0.0
  9
$LIMCHECK
 70
     0
  9
$CHAMFERA
 40
0.0
  9
$CHAMFERB
 40
0.0
  9
$CHAMFERC
 40
0.0
  9
$CHAMFERD
 40
0.0
  9
$SKPOLY
 70
     0
  9
$TDCREATE
 40
2453600.466110498
  9
$TDUCREATE
 40
2453600.757777164
  9
$TDUPDATE
 40
2454918.367048426
  9
$TDUUPDATE
 40
2454918.658715093
  9
$TDINDWG
 40
0.3148442014
  9
$TDUSRTIMER
 40
0.3148440162
  9
$USRTIMER
 70
     1
  9
$ANGBASE
 50
0.0
  9
$ANGDIR
 70
     0
  9
$PDMODE
 70
     0
  9
$PDSIZE
 40
0.0
  9
$PLINEWID
 40
0.1
  9
$SPLFRAME
 70
     0
  9
$SPLINETYPE
 70
     6
  9
$SPLINESEGS
 70
     8
  9
$HANDSEED
  5
1E1A
  9
$SURFTAB1
 70
     6
  9
$SURFTAB2
 70
     6
  9
$SURFTYPE
 70
     6
  9
$SURFU
 70
     6
  9
$SURFV
 70
     6
  9
$UCSBASE
  2

  9
$UCSNAME
  2

  9
$UCSORG
 10
0.0
 20
0.0
 30
0.0
  9
$UCSXDIR
 10
1.0
 20
0.0
 30
0.0
  9
$UCSYDIR
 10
0.0
 20
1.0
 30
0.0
  9
$UCSORTHOREF
  2

  9
$UCSORTHOVIEW
 70
     0
  9
$UCSORGTOP
 10
0.0
 20
0.0
 30
0.0
  9
$UCSORGBOTTOM
 10
0.0
 20
0.0
 30
0.0
  9
$UCSORGLEFT
 10
0.0
 20
0.0
 30
0.0
  9
$UCSORGRIGHT
 10
0.0
 20
0.0
 30
0.0
  9
$UCSORGFRONT
 10
0.0
 20
0.0
 30
0.0
  9
$UCSORGBACK
 10
0.0
 20
0.0
 30
0.0
  9
$PUCSBASE
  2

  9
$PUCSNAME
  2

  9
$PUCSORG
 10
0.0
 20
0.0
 30
0.0
  9
$PUCSXDIR
 10
1.0
 20
0.0
 30
0.0
  9
$PUCSYDIR
 10
0.0
 20
1.0
 30
0.0
  9
$PUCSORTHOREF
  2

  9
$PUCSORTHOVIEW
 70
     0
  9
$PUCSORGTOP
 10
0.0
 20
0.0
 30
0.0
  9
$PUCSORGBOTTOM
 10
0.0
 20
0.0
 30
0.0
  9
$PUCSORGLEFT
 10
0.0
 20
0.0
 30
0.0
  9
$PUCSORGRIGHT
 10
0.0
 20
0.0
 30
0.0
  9
$PUCSORGFRONT
 10
0.0
 20
0.0
 30
0.0
  9
$PUCSORGBACK
 10
0.0
 20
0.0
 30
0.0
  9
$USERI1
 70
     0
  9
$USERI2
 70
     0
  9
$USERI3
 70
     0
  9
$USERI4
 70
     0
  9
$USERI5
 70
     0
  9
$USERR1
 40
0.0
  9
$USERR2
 40
0.0
  9
$USERR3
 40
0.0
  9
$USERR4
 40
0.0
  9
$USERR5
 40
0.0
  9
$WORLDVIEW
 70
     1
  9
$SHADEDGE
 70
     3
  9
$SHADEDIF
 70
    70
  9
$TILEMODE
 70
     1
  9
$MAXACTVP
 70
    48
  9
$PINSBASE
 10
0.0
 20
0.0
 30
0.0
  9
$PLIMCHECK
 70
     0
  9
$PEXTMIN
 10
-0.0000000000000036
 20
-0.0000000000000053
 30
0.0
  9
$PEXTMAX
 10
35.89887642704369
 20
23.87040884869793
 30
0.0
  9
$PLIMMIN
 10
-0.7505951290640816
 20
-0.3004913953895802
  9
$PLIMMAX
 10
35.24940583211947
 20
23.69950764342686
  9
$UNITMODE
 70
     0
  9
$VISRETAIN
 70
     1
  9
$PLINEGEN
 70
     0
  9
$PSLTSCALE
 70
     1
  9
$TREEDEPTH
 70
  3020
  9
$CMLSTYLE
  2
Standard
  9
$CMLJUST
 70
     0
  9
$CMLSCALE
 40
1.0
  9
$PROXYGRAPHICS
 70
     1
  9
$MEASUREMENT
 70
     0
  9
$CELWEIGHT
370
    -1
  9
$ENDCAPS
280
     0
  9
$JOINSTYLE
280
     0
  9
$LWDISPLAY
290
     0
  9
$INSUNITS
 70
     1
  9
$HYPERLINKBASE
  1

  9
$STYLESHEET
  1

  9
$XEDIT
290
     1
  9
$CEPSNTYPE
380
     0
  9
$PSTYLEMODE
290
     1
  9
$FINGERPRINTGUID
  2
{52406B91-991D-4BD4-AD1C-95D999BEA0E7}
  9
$VERSIONGUID
  2
{14FE3948-4006-4C8B-B275-67FBEAEA59A3}
  9
$EXTNAMES
290
     1
  9
$PSVPSCALE
 40
0.0
  9
$OLESTARTUP
290
     0
  0
ENDSEC
  0
SECTION
  2
CLASSES
  0
CLASS
  1
ACDBDICTIONARYWDFLT
  2
AcDbDictionaryWithDefault
  3
ObjectDBX Classes
 90
        0
280
     0
281
     0
  0
CLASS
  1
ACDBPLACEHOLDER
  2
AcDbPlaceHolder
  3
ObjectDBX Classes
 90
        0
280
     0
281
     0
  0
CLASS
  1
LAYOUT
  2
AcDbLayout
  3
ObjectDBX Classes
 90
        0
280
     0
281
     0
  0
CLASS
  1
PLOTSETTINGS
  2
AcDbPlotSettings
  3
ObjectDBX Classes
 90
        0
280
     0
281
     0
  0
CLASS
  1
DICTIONARYVAR
  2
AcDbDictionaryVar
  3
ObjectDBX Classes
 90
        0
280
     0
281
     0
  0
CLASS
  1
SORTENTSTABLE
  2
AcDbSortentsTable
  3
ObjectDBX Classes
 90
        0
280
     0
281
     0
  0
CLASS
  1
TABLESTYLE
  2
AcDbTableStyle
  3
ObjectDBX Classes
 90
     4095
280
     0
281
     0
  0
CLASS
  1
DIMASSOC
  2
AcDbDimAssoc
  3
"AcDbDimAssoc|Product Desc:     AcDim ARX App For Dimension|Company:          Autodesk, Inc.|WEB Address:      www.autodesk.com"
 90
        0
280
     0
281
     0
  0
CLASS
  1
MATERIAL
  2
AcDbMaterial
  3
ObjectDBX Classes
 90
     1024
280
     0
281
     0
  0
CLASS
  1
VISUALSTYLE
  2
AcDbVisualStyle
  3
ObjectDBX Classes
 90
     4095
280
     0
281
     0
  0
ENDSEC
  0
SECTION
  2
TABLES
  0
TABLE
  2
VPORT
  5
8
330
0
100
AcDbSymbolTable
 70
     1
  0
VPORT
  5
1DB5
330
8
100
AcDbSymbolTableRecord
100
AcDbViewportTableRecord
  2
*Active
 70
     0
 10
0.0
 20
0.0
 11
1.0
 21
1.0
 12
510.2283142074259
 22
439.9276358431457
 13
0.0
 23
0.0
 14
0.5
 24
0.5
 15
0.5
 25
0.5
 16
0.0
 26
0.0
 36
1.0
 17
0.0
 27
0.0
 37
0.0
 40
29.23963437776627
 41
1.644662921348314
 42
50.0
 43
0.0
 44
0.0
 50
0.0
 51
0.0
 71
     0
 72
  1000
 73
     1
 74
     3
 75
     0
 76
     0
 77
     0
 78
     0
281
     0
 65
     1
110
0.0
120
0.0
130
0.0
111
1.0
121
0.0
131
0.0
112
0.0
122
1.0
132
0.0
 79
     0
146
0.0
  0
ENDTAB
  0
TABLE
  2
LTYPE
  5
5
330
0
100
AcDbSymbolTable
 70
     5
  0
LTYPE
  5
14
330
5
100
AcDbSymbolTableRecord
100
AcDbLinetypeTableRecord
  2
ByBlock
 70
     0
  3

 72
    65
 73
     0
 40
0.0
  0
LTYPE
  5
15
330
5
100
AcDbSymbolTableRecord
100
AcDbLinetypeTableRecord
  2
ByLayer
 70
     0
  3

 72
    65
 73
     0
 40
0.0
  0
LTYPE
  5
16
330
5
100
AcDbSymbolTableRecord
100
AcDbLinetypeTableRecord
  2
Continuous
 70
     0
  3
Solid line
 72
    65
 73
     0
 40
0.0
  0
LTYPE
  5
DE4
330
5
100
AcDbSymbolTableRecord
100
AcDbLinetypeTableRecord
  2
DASHED
 70
     0
  3
-- -- -- -- -- -- -- -- -- --
 72
    65
 73
     2
 40
3.0
 49
2.0
 74
     0
 49
-1.0
 74
     0
  0
LTYPE
  5
DE5
330
5
100
AcDbSymbolTableRecord
100
AcDbLinetypeTableRecord
  2
CENTER
 70
     0
  3
--- - --- - --- - --- - --- -
 72
    65
 73
     4
 40
6.0
 49
3.0
 74
     0
 49
-1.0
 74
     0
 49
1.0
 74
     0
 49
-1.0
 74
     0
  0
LTYPE
  5
1BEE
330
5
100
AcDbSymbolTableRecord
100
AcDbLinetypeTableRecord
  2
HIDDEN
 70
     0
  3
Hidden __ __ __ __ __ __ __ __ __ __ __ __ __ __
 72
    65
 73
     2
 40
1.905
 49
1.27
 74
     0
 49
-0.635
 74
     0
  0
LTYPE
  5
1BEF
330
5
100
AcDbSymbolTableRecord
100
AcDbLinetypeTableRecord
  2
PHANTOM
 70
     0
  3
Phantom ______  __  __  ______  __  __  ______
 72
    65
 73
     6
 40
2.5
 49
1.25
 74
     0
 49
-0.25
 74
     0
 49
0.25
 74
     0
 49
-0.25
 74
     0
 49
0.25
 74
     0
 49
-0.25
 74
     0
  0
ENDTAB
  0
TABLE
  2
LAYER
  5
2
102
{ACAD_XDICTIONARY
360
DDE
102
}
330
0
100
AcDbSymbolTable
 70
     9
  0
LAYER
  5
10
330
2
100
AcDbSymbolTableRecord
100
AcDbLayerTableRecord
  2
0
 70
     0
 62
     7
  6
Continuous
370
    -3
390
F
  0
LAYER
  5
60
330
2
100
AcDbSymbolTableRecord
100
AcDbLayerTableRecord
  2
Title Block
 70
     0
 62
     7
  6
Continuous
370
    -3
390
F
  0
LAYER
  5
BE4
330
2
100
AcDbSymbolTableRecord
100
AcDbLayerTableRecord
  2
viewport
 70
     0
 62
     7
  6
Continuous
370
    -3
390
F
  0
LAYER
  5
DE6
330
2
100
AcDbSymbolTableRecord
100
AcDbLayerTableRecord
  2
PIC05
 70
     0
 62
     7
  6
Continuous
370
    -3
390
F
  0
LAYER
  5
F32
330
2
100
AcDbSymbolTableRecord
100
AcDbLayerTableRecord
  2
Defpoints
 70
     0
 62
     7
  6
Continuous
290
     0
370
    -3
390
F
  0
LAYER
  5
1175
330
2
100
AcDbSymbolTableRecord
100
AcDbLayerTableRecord
  2
G__TOTO
 70
     0
 62
     7
  6
Continuous
370
    -3
390
F
  0
LAYER
  5
128B
330
2
100
AcDbSymbolTableRecord
100
AcDbLayerTableRecord
  2
PIC01
 70
     0
 62
     7
  6
Continuous
370
    -3
390
F
  0
LAYER
  5
1BF0
330
2
100
AcDbSymbolTableRecord
100
AcDbLayerTableRecord
  2
GRS_GAMBAR
 70
     0
 62
     7
  6
Continuous
370
    -3
390
F
  0
LAYER
  5
1CC7
330
2
100
AcDbSymbolTableRecord
100
AcDbLayerTableRecord
  2
DIM
 70
     0
 62
     4
  6
Continuous
370
    -3
390
F
  0
ENDTAB
  0
TABLE
  2
STYLE
  5
3
330
0
100
AcDbSymbolTable
 70
     4
  0
STYLE
  5
11
330
3
100
AcDbSymbolTableRecord
100
AcDbTextStyleTableRecord
  2
Standard
 70
     0
 40
0.0
 41
1.0
 50
0.0
 71
     0
 42
0.2
  3
ARIAL.TTF
  4

1001
ACAD
1000
Arial
1071
       34
  0
STYLE
  5
61
330
3
100
AcDbSymbolTableRecord
100
AcDbTextStyleTableRecord
  2
Roman
 70
     0
 40
0.0
 41
1.0
 50
0.0
 71
     0
 42
0.065
  3
romans
  4

  0
STYLE
  5
DE7
330
3
100
AcDbSymbolTableRecord
100
AcDbTextStyleTableRecord
  2
BIGFONT
 70
     0
 40
0.0
 41
1.0
 50
0.0
 71
     0
 42
3.0
  3
txt
  4
bigfont
  0
STYLE
  5
1BF1
330
3
100
AcDbSymbolTableRecord
100
AcDbTextStyleTableRecord
  2
BLACK
 70
     0
 40
0.4
 41
1.0
 50
0.0
 71
     0
 42
0.4
  3
ARIAL.TTF
  4

1001
ACAD
1000
Arial
1071
       34
  0
ENDTAB
  0
TABLE
  2
VIEW
  5
6
330
0
100
AcDbSymbolTable
 70
     0
  0
ENDTAB
  0
TABLE
  2
UCS
  5
7
330
0
100
AcDbSymbolTable
 70
     0
  0
ENDTAB
  0
TABLE
  2
APPID
  5
9
330
0
100
AcDbSymbolTable
 70
    10
  0
APPID
  5
12
330
9
100
AcDbSymbolTableRecord
100
AcDbRegAppTableRecord
  2
ACAD
 70
     0
  0
APPID
  5
C96
330
9
100
AcDbSymbolTableRecord
100
AcDbRegAppTableRecord
  2
CONTENTBLOCKDESCRIPTION
 70
     0
  0
APPID
  5
C97
330
9
100
AcDbSymbolTableRecord
100
AcDbRegAppTableRecord
  2
CONTENTBLOCKICON
 70
     0
  0
APPID
  5
DE9
330
9
100
AcDbSymbolTableRecord
100
AcDbRegAppTableRecord
  2
DCO15
 70
     0
  0
APPID
  5
1BB7
330
9
100
AcDbSymbolTableRecord
100
AcDbRegAppTableRecord
  2
ACAD_EXEMPT_FROM_CAD_STANDARDS
 70
     0
  0
APPID
  5
1BF3
330
9
100
AcDbSymbolTableRecord
100
AcDbRegAppTableRecord
  2
ACAD_PSEXT
 70
     0
  0
APPID
  5
1BF4
330
9
100
AcDbSymbolTableRecord
100
AcDbRegAppTableRecord
  2
ACAD_DSTYLE_DIMEXT_LENGTH
 70
     0
  0
APPID
  5
1BF5
330
9
100
AcDbSymbolTableRecord
100
AcDbRegAppTableRecord
  2
ACAD_DSTYLE_DIMEXT_ENABLED
 70
     0
  0
APPID
  5
1BF6
330
9
100
AcDbSymbolTableRecord
100
AcDbRegAppTableRecord
  2
ACAD_DSTYLE_DIMJOGGED_JOGANGLE_SYMBOL
 70
     0
  0
APPID
  5
1BF7
330
9
100
AcDbSymbolTableRecord
100
AcDbRegAppTableRecord
  2
ACAD_DSTYLE_DIMARC_LENGTH_SYMBOL
 70
     0
  0
ENDTAB
  0
TABLE
  2
DIMSTYLE
  5
A
330
0
100
AcDbSymbolTable
 70
     3
100
AcDbDimStyleTable
 71
     1
340
27
  0
DIMSTYLE
105
27
102
{ACAD_REACTORS
330
1C18
330
1C1B
330
1C1E
102
}
330
A
100
AcDbSymbolTableRecord
100
AcDbDimStyleTableRecord
  2
Standard
 70
     0
340
11
  0
DIMSTYLE
105
DE8
330
A
100
AcDbSymbolTableRecord
100
AcDbDimStyleTableRecord
  2
ISO-25
 70
     0
 41
3.0
 42
1.0
 43
5.0
 44
1.5
 73
     0
 74
     0
 77
     1
 78
     8
140
3.0
141
2.0
145
1.0
147
1.0
171
     0
340
11
  0
DIMSTYLE
105
1BF2
330
A
100
AcDbSymbolTableRecord
100
AcDbDimStyleTableRecord
  2
COPY_OF_STANDARD
 70
     0
  3
mm
  4
"
 41
3.0
 42
2.0
 43
9.5
 44
1.0
 73
     0
 74
     0
 77
     1
140
3.0
141
2.0
143
0.03937
144
6.0
170
     1
171
     3
271
     0
272
     0
273
     7
274
     3
340
11
  0
ENDTAB
  0
TABLE
  2
BLOCK_RECORD
  5
1
330
0
100
AcDbSymbolTable
 70
    13
  0
BLOCK_RECORD
  5
1F
102
{ACAD_XDICTIONARY
360
C39
102
}
330
1
100
AcDbSymbolTableRecord
100
AcDbBlockTableRecord
  2
*Model_Space
340
22
  0
BLOCK_RECORD
  5
43C
102
{ACAD_XDICTIONARY
360
C58
102
}
330
1
100
AcDbSymbolTableRecord
100
AcDbBlockTableRecord
  2
*Paper_Space
340
43B
  0
BLOCK_RECORD
  5
2B
330
1
100
AcDbSymbolTableRecord
100
AcDbBlockTableRecord
  2
ANSI A title block (portrait)
340
0
310
2800000020000000200000000100080000000000000400000000000000000000000000000000000000000000000080000080000000808000800000008000800080800000C0C0C000C0DCC000F0CAA6000020400000206000002080000020A0000020C0000020E00000400000004020000040400000406000004080000040A0
310
000040C0000040E00000600000006020000060400000606000006080000060A0000060C0000060E00000800000008020000080400000806000008080000080A0000080C0000080E00000A0000000A0200000A0400000A0600000A0800000A0A00000A0C00000A0E00000C0000000C0200000C0400000C0600000C0800000C0
310
A00000C0C00000C0E00000E0000000E0200000E0400000E0600000E0800000E0A00000E0C00000E0E00040000000400020004000400040006000400080004000A0004000C0004000E00040200000402020004020400040206000402080004020A0004020C0004020E000404000004040200040404000404060004040800040
310
40A0004040C0004040E00040600000406020004060400040606000406080004060A0004060C0004060E00040800000408020004080400040806000408080004080A0004080C0004080E00040A0000040A0200040A0400040A0600040A0800040A0A00040A0C00040A0E00040C0000040C0200040C0400040C0600040C08000
310
40C0A00040C0C00040C0E00040E0000040E0200040E0400040E0600040E0800040E0A00040E0C00040E0E00080000000800020008000400080006000800080008000A0008000C0008000E00080200000802020008020400080206000802080008020A0008020C0008020E00080400000804020008040400080406000804080
310
008040A0008040C0008040E00080600000806020008060400080606000806080008060A0008060C0008060E00080800000808020008080400080806000808080008080A0008080C0008080E00080A0000080A0200080A0400080A0600080A0800080A0A00080A0C00080A0E00080C0000080C0200080C0400080C0600080C0
310
800080C0A00080C0C00080C0E00080E0000080E0200080E0400080E0600080E0800080E0A00080E0C00080E0E000C0000000C0002000C0004000C0006000C0008000C000A000C000C000C000E000C0200000C0202000C0204000C0206000C0208000C020A000C020C000C020E000C0400000C0402000C0404000C0406000C0
310
408000C040A000C040C000C040E000C0600000C0602000C0604000C0606000C0608000C060A000C060C000C060E000C0800000C0802000C0804000C0806000C0808000C080A000C080C000C080E000C0A00000C0A02000C0A04000C0A06000C0A08000C0A0A000C0A0C000C0A0E000C0C00000C0C02000C0C04000C0C06000
310
C0C08000C0C0A000F0FBFF00A4A0A000808080000000FF0000FF000000FFFF00FF000000FF00FF00FFFF0000FFFFFF00FFFFFFFFFFFFFFFFFFFFFFFFFFFFFFFFFFFFFFFFFFFFFFFFFFFFFFFFFFFFFFFFFFFFFFFFFF00000000000000000000000000000000000000000000FFFFFFFFFFFFFFFFFFFF00000000000000000000
310
000000000000000000000000FFFFFFFFFFFFFFFFFFFF0000FF00000000000000000000000000000000000000FFFFFFFFFFFFFFFFFFFF0000FF00000000000000000000000000000000000000FFFFFFFFFFFFFFFFFFFF0000FF00FFFFFFFFFF00000000000000000000000000FFFFFFFFFFFFFFFFFFFF0000FF00FFFFFFFFFF
310
00FFFFFFFFFFFFFFFFFFFF0000FFFFFFFFFFFFFFFFFFFF0000FF00000000000000000000000000000000000000FFFFFFFFFFFFFFFFFFFF0000FFFFFFFFFFFFFFFFFFFFFFFFFFFFFFFFFFFF0000FFFFFFFFFFFFFFFFFFFF0000FFFFFFFFFFFFFFFFFFFFFFFFFFFFFFFFFFFF0000FFFFFFFFFFFFFFFFFFFF0000FFFFFFFFFFFF
310
FFFFFFFFFFFFFFFFFFFFFFFF0000FFFFFFFFFFFFFFFFFFFF0000FFFFFFFFFFFFFFFFFFFFFFFFFFFFFFFFFFFF0000FFFFFFFFFFFFFFFFFFFF0000FFFFFFFFFFFFFFFFFFFFFFFFFFFFFFFFFFFF0000FFFFFFFFFFFFFFFFFFFF0000FFFFFFFFFFFFFFFFFFFFFFFFFFFFFFFFFFFF0000FFFFFFFFFFFFFFFFFFFF0000FFFFFFFFFF
310
FFFFFFFFFFFFFFFFFFFFFFFFFF0000FFFFFFFFFFFFFFFFFFFF0000FFFFFFFFFFFFFFFFFFFFFFFFFFFFFFFFFFFF0000FFFFFFFFFFFFFFFFFFFF0000FFFFFFFFFFFFFFFFFFFFFFFFFFFFFFFFFFFF0000FFFFFFFFFFFFFFFFFFFF0000FFFFFFFFFFFFFFFFFFFFFFFFFFFFFFFFFFFF0000FFFFFFFFFFFFFFFFFFFF0000FFFFFFFF
310
FFFFFFFFFFFFFFFFFFFFFFFFFFFF0000FFFFFFFFFFFFFFFFFFFF0000FFFFFFFFFFFFFFFFFFFFFFFFFFFFFFFFFFFF0000FFFFFFFFFFFFFFFFFFFF0000FFFFFFFFFFFFFFFFFFFFFFFFFFFFFFFFFFFF0000FFFFFFFFFFFFFFFFFFFF0000FFFFFFFFFFFFFFFFFFFFFFFFFFFFFFFFFFFF0000FFFFFFFFFFFFFFFFFFFF0000FFFFFF
310
FFFFFFFFFFFFFFFFFFFFFFFFFFFFFF0000FFFFFFFFFFFFFFFFFFFF0000FFFFFFFFFFFFFFFFFFFFFFFFFFFFFFFFFFFF0000FFFFFFFFFFFFFFFFFFFF0000FFFFFFFFFFFFFFFFFFFFFFFFFFFFFFFFFFFF0000FFFFFFFFFFFFFFFFFFFF0000FFFFFFFFFFFFFFFFFFFFFFFFFFFFFFFFFFFF0000FFFFFFFFFFFFFFFFFFFF0000FFFF
310
FF00FFFFFFFFFFFFFFFFFFFFFFFFFFFF0000FFFFFFFFFFFFFFFFFFFF0000FFFFFF00FFFFFFFFFFFFFFFFFFFFFFFFFFFF0000FFFFFFFFFFFFFFFFFFFF0000FFFFFF0000000000000000000000000000000000FFFFFFFFFFFFFFFFFFFF00000000000000000000000000000000000000000000FFFFFFFFFFFFFFFFFFFF000000
310
00000000000000000000000000000000000000FFFFFFFFFFFFFFFFFFFFFFFFFFFFFFFFFFFFFFFFFFFFFFFFFFFFFFFFFFFFFFFFFFFFFFFFFF
1001
ACAD
1000
DesignCenter Data
1002
{
1070
     1
1070
     1
1002
}
  0
BLOCK_RECORD
  5
75
330
1
100
AcDbSymbolTableRecord
100
AcDbBlockTableRecord
  2
ANSI A title block
340
0
310
2800000020000000200000000100080000000000000400000000000000000000000000000000000000000000000080000080000000808000800000008000800080800000C0C0C000C0DCC000F0CAA6000020400000206000002080000020A0000020C0000020E00000400000004020000040400000406000004080000040A0
310
000040C0000040E00000600000006020000060400000606000006080000060A0000060C0000060E00000800000008020000080400000806000008080000080A0000080C0000080E00000A0000000A0200000A0400000A0600000A0800000A0A00000A0C00000A0E00000C0000000C0200000C0400000C0600000C0800000C0
310
A00000C0C00000C0E00000E0000000E0200000E0400000E0600000E0800000E0A00000E0C00000E0E00040000000400020004000400040006000400080004000A0004000C0004000E00040200000402020004020400040206000402080004020A0004020C0004020E000404000004040200040404000404060004040800040
310
40A0004040C0004040E00040600000406020004060400040606000406080004060A0004060C0004060E00040800000408020004080400040806000408080004080A0004080C0004080E00040A0000040A0200040A0400040A0600040A0800040A0A00040A0C00040A0E00040C0000040C0200040C0400040C0600040C08000
310
40C0A00040C0C00040C0E00040E0000040E0200040E0400040E0600040E0800040E0A00040E0C00040E0E00080000000800020008000400080006000800080008000A0008000C0008000E00080200000802020008020400080206000802080008020A0008020C0008020E00080400000804020008040400080406000804080
310
008040A0008040C0008040E00080600000806020008060400080606000806080008060A0008060C0008060E00080800000808020008080400080806000808080008080A0008080C0008080E00080A0000080A0200080A0400080A0600080A0800080A0A00080A0C00080A0E00080C0000080C0200080C0400080C0600080C0
310
800080C0A00080C0C00080C0E00080E0000080E0200080E0400080E0600080E0800080E0A00080E0C00080E0E000C0000000C0002000C0004000C0006000C0008000C000A000C000C000C000E000C0200000C0202000C0204000C0206000C0208000C020A000C020C000C020E000C0400000C0402000C0404000C0406000C0
310
408000C040A000C040C000C040E000C0600000C0602000C0604000C0606000C0608000C060A000C060C000C060E000C0800000C0802000C0804000C0806000C0808000C080A000C080C000C080E000C0A00000C0A02000C0A04000C0A06000C0A08000C0A0A000C0A0C000C0A0E000C0C00000C0C02000C0C04000C0C06000
310
C0C08000C0C0A000F0FBFF00A4A0A000808080000000FF0000FF000000FFFF00FF000000FF00FF00FFFF0000FFFFFF00FFFFFFFFFFFFFFFFFFFFFFFFFFFFFFFFFFFFFFFFFFFFFFFFFFFFFFFFFFFFFFFFFFFFFFFFFFFFFFFFFFFFFFFFFFFFFFFFFFFFFFFFFFFFFFFFFFFFFFFFFFFFFFFFFFFFFFFFFFFFFFFFFFFFFFFFFFFFFF
310
FFFFFFFFFFFFFFFFFFFFFFFFFFFFFFFFFFFFFFFFFFFFFFFFFFFFFFFFFFFFFFFFFFFFFFFFFFFFFFFFFFFFFFFFFFFFFFFFFFFFFFFFFFFFFFFFFFFFFFFFFFFFFFFFFFFFFFFFFFFFFFFFFFFFFFFFFFFFFFFFFFFF000000000000000000000000000000000000000000000000000000000000FFFF00000000000000000000000000
310
0000000000000000000000000000000000FFFF0000FFFFFFFFFFFFFFFFFF00000000000000000000000000000000000000FFFF0000FFFFFFFFFFFFFFFFFF00FFFFFFFFFF00FFFFFFFFFFFFFFFFFFFF0000FFFF0000FFFFFFFFFFFFFFFFFF00FFFFFFFFFF00000000000000000000000000FFFF0000FFFFFFFFFFFFFFFFFF00
310
000000000000000000000000000000000000FFFF0000FFFFFFFFFFFFFFFFFFFFFFFFFFFFFFFFFFFFFFFFFFFFFFFFFFFF0000FFFF0000FFFFFFFFFFFFFFFFFFFFFFFFFFFFFFFFFFFFFFFFFFFFFFFFFFFF0000FFFF0000FFFFFFFFFFFFFFFFFFFFFFFFFFFFFFFFFFFFFFFFFFFFFFFFFFFF0000FFFF0000FFFFFFFFFFFFFFFFFF
310
FFFFFFFFFFFFFFFFFFFFFFFFFFFFFFFFFF0000FFFF0000FFFFFFFFFFFFFFFFFFFFFFFFFFFFFFFFFFFFFFFFFFFFFFFFFFFF0000FFFF0000FFFFFFFFFFFFFFFFFFFFFFFFFFFFFFFFFFFFFFFFFFFFFFFFFFFF0000FFFF0000FFFFFFFFFFFFFFFFFFFFFFFFFFFFFFFFFFFFFFFFFFFFFFFFFFFF0000FFFF0000FFFFFFFFFFFFFFFF
310
FFFFFFFFFFFFFFFFFFFFFFFFFFFFFFFFFFFF0000FFFF0000FFFFFFFFFFFFFFFFFFFFFFFFFFFFFFFFFFFFFFFFFFFFFFFFFFFF0000FFFF0000FFFFFFFFFFFFFFFFFFFFFFFFFFFFFFFFFFFFFFFFFFFFFFFFFFFF0000FFFF0000FFFFFFFFFFFFFFFFFFFFFFFFFFFFFFFFFFFFFFFFFFFFFFFFFFFF0000FFFF0000FFFFFFFFFFFFFF
310
FFFFFFFF00FFFFFFFFFFFFFFFFFFFFFFFFFFFF0000FFFF0000FFFFFFFFFFFFFFFFFFFFFF00FFFFFFFFFFFFFFFFFFFFFFFFFFFF0000FFFF0000FFFFFFFFFFFFFFFFFFFFFF0000000000000000000000000000000000FFFF000000000000000000000000000000000000000000000000000000000000FFFF0000000000000000
310
00000000000000000000000000000000000000000000FFFFFFFFFFFFFFFFFFFFFFFFFFFFFFFFFFFFFFFFFFFFFFFFFFFFFFFFFFFFFFFFFFFFFFFFFFFFFFFFFFFFFFFFFFFFFFFFFFFFFFFFFFFFFFFFFFFFFFFFFFFFFFFFFFFFFFFFFFFFFFFFFFFFFFFFFFFFFFFFFFFFFFFFFFFFFFFFFFFFFFFFFFFFFFFFFFFFFFFFFFFFFFFFFF
310
FFFFFFFFFFFFFFFFFFFFFFFFFFFFFFFFFFFFFFFFFFFFFFFFFFFFFFFFFFFFFFFFFFFFFFFFFFFFFFFFFFFFFFFFFFFFFFFFFFFFFFFFFFFFFFFF
1001
ACAD
1000
DesignCenter Data
1002
{
1070
     1
1070
     1
1002
}
  0
BLOCK_RECORD
  5
BF
330
1
100
AcDbSymbolTableRecord
100
AcDbBlockTableRecord
  2
ANSI B title block
340
0
310
2800000020000000200000000100080000000000000400000000000000000000000000000000000000000000000080000080000000808000800000008000800080800000C0C0C000C0DCC000F0CAA6000020400000206000002080000020A0000020C0000020E00000400000004020000040400000406000004080000040A0
310
000040C0000040E00000600000006020000060400000606000006080000060A0000060C0000060E00000800000008020000080400000806000008080000080A0000080C0000080E00000A0000000A0200000A0400000A0600000A0800000A0A00000A0C00000A0E00000C0000000C0200000C0400000C0600000C0800000C0
310
A00000C0C00000C0E00000E0000000E0200000E0400000E0600000E0800000E0A00000E0C00000E0E00040000000400020004000400040006000400080004000A0004000C0004000E00040200000402020004020400040206000402080004020A0004020C0004020E000404000004040200040404000404060004040800040
310
40A0004040C0004040E00040600000406020004060400040606000406080004060A0004060C0004060E00040800000408020004080400040806000408080004080A0004080C0004080E00040A0000040A0200040A0400040A0600040A0800040A0A00040A0C00040A0E00040C0000040C0200040C0400040C0600040C08000
310
40C0A00040C0C00040C0E00040E0000040E0200040E0400040E0600040E0800040E0A00040E0C00040E0E00080000000800020008000400080006000800080008000A0008000C0008000E00080200000802020008020400080206000802080008020A0008020C0008020E00080400000804020008040400080406000804080
310
008040A0008040C0008040E00080600000806020008060400080606000806080008060A0008060C0008060E00080800000808020008080400080806000808080008080A0008080C0008080E00080A0000080A0200080A0400080A0600080A0800080A0A00080A0C00080A0E00080C0000080C0200080C0400080C0600080C0
310
800080C0A00080C0C00080C0E00080E0000080E0200080E0400080E0600080E0800080E0A00080E0C00080E0E000C0000000C0002000C0004000C0006000C0008000C000A000C000C000C000E000C0200000C0202000C0204000C0206000C0208000C020A000C020C000C020E000C0400000C0402000C0404000C0406000C0
310
408000C040A000C040C000C040E000C0600000C0602000C0604000C0606000C0608000C060A000C060C000C060E000C0800000C0802000C0804000C0806000C0808000C080A000C080C000C080E000C0A00000C0A02000C0A04000C0A06000C0A08000C0A0A000C0A0C000C0A0E000C0C00000C0C02000C0C04000C0C06000
310
C0C08000C0C0A000F0FBFF00A4A0A000808080000000FF0000FF000000FFFF00FF000000FF00FF00FFFF0000FFFFFF00FFFFFFFFFFFFFFFFFFFFFFFFFFFFFFFFFFFFFFFFFFFFFFFFFFFFFFFFFFFFFFFFFFFFFFFFFFFFFFFFFFFFFFFFFFFFFFFFFFFFFFFFFFFFFFFFFFFFFFFFFFFFFFFFFFFFFFFFFFFFFFFFFFFFFFFFFFFFFF
310
FFFFFFFFFFFFFFFFFFFFFFFFFFFFFFFFFFFFFFFFFFFFFFFFFFFFFFFFFFFFFFFFFFFFFFFFFFFFFFFFFFFFFFFFFFFFFFFFFFFFFFFFFFFFFFFFFFFFFFFFFFFFFFFFFFFFFFFFFFFFFFFFFFFFFFFFFFFFFFFFFFFFFFFFFFFFFFFFFFFFFFFFFFFFFFFFFFFFFFFFFFFFFFFFFFFFFFFFFFFFFFFFFFFFFFFFFFFFFFFFFFFFFFFFFFFFFF
310
FFFFFFFFFFFFFFFFFFFFFFFFFFFFFFFFFFFFFF000000000000000000000000000000000000000000000000000000000000FFFF00FF00FFFFFFFFFFFFFFFFFFFFFFFFFF000000000000000000000000FF00FFFF00FF00FFFFFFFFFFFFFFFFFFFFFFFFFF00FFFFFF00FFFFFFFFFFFF00FF00FFFF00FF00FFFFFFFFFFFFFFFFFF
310
FFFFFFFF000000000000000000000000FF00FFFF00FF00FFFFFFFFFFFFFFFFFFFFFFFFFFFFFFFFFFFFFFFFFFFFFFFF00FF00FFFF00FF00FFFFFFFFFFFFFFFFFFFFFFFFFFFFFFFFFFFFFFFFFFFFFFFF00FF00FFFF00FF00FFFFFFFFFFFFFFFFFFFFFFFFFFFFFFFFFFFFFFFFFFFFFFFF00FF00FFFF00FF00FFFFFFFFFFFFFFFF
310
FFFFFFFFFFFFFFFFFFFFFFFFFFFFFFFF00FF00FFFF000000FFFFFFFFFFFFFFFFFFFFFFFFFFFFFFFFFFFFFFFFFFFFFFFF000000FFFF000000FFFFFFFFFFFFFFFFFFFFFFFFFFFFFFFFFFFFFFFFFFFFFFFF000000FFFF00FF00FFFFFFFFFFFFFFFFFFFFFFFFFFFFFFFFFFFFFFFFFFFFFFFF00FF00FFFF00FF00FFFFFFFFFFFFFF
310
FFFFFFFFFFFFFFFFFFFFFFFFFFFFFFFFFF00FF00FFFF00FF00FFFFFFFFFFFFFFFFFFFFFFFFFFFFFFFFFFFFFFFFFFFFFFFF00FF00FFFF00FF00FFFFFFFFFFFFFFFFFFFFFFFFFFFFFFFFFFFFFFFFFFFFFFFF00FF00FFFF00FF00FFFFFFFFFFFFFFFFFFFFFFFFFFFFFFFFFFFFFFFFFFFFFFFF00FF00FFFF00FF00FFFFFFFFFFFF
310
FFFFFFFFFFFFFFFFFF00FFFFFFFFFFFFFFFF00FF00FFFF00FF00FFFFFFFFFFFFFFFFFFFFFFFFFFFFFF00000000000000000000FF00FFFF000000000000000000000000000000000000000000000000000000000000FFFFFFFFFFFFFFFFFFFFFFFFFFFFFFFFFFFFFFFFFFFFFFFFFFFFFFFFFFFFFFFFFFFFFFFFFFFFFFFFFFFF
310
FFFFFFFFFFFFFFFFFFFFFFFFFFFFFFFFFFFFFFFFFFFFFFFFFFFFFFFFFFFFFFFFFFFFFFFFFFFFFFFFFFFFFFFFFFFFFFFFFFFFFFFFFFFFFFFFFFFFFFFFFFFFFFFFFFFFFFFFFFFFFFFFFFFFFFFFFFFFFFFFFFFFFFFFFFFFFFFFFFFFFFFFFFFFFFFFFFFFFFFFFFFFFFFFFFFFFFFFFFFFFFFFFFFFFFFFFFFFFFFFFFFFFFFFFFFFFF
310
FFFFFFFFFFFFFFFFFFFFFFFFFFFFFFFFFFFFFFFFFFFFFFFFFFFFFFFFFFFFFFFFFFFFFFFFFFFFFFFFFFFFFFFFFFFFFFFFFFFFFFFFFFFFFFFF
1001
ACAD
1000
DesignCenter Data
1002
{
1070
     1
1070
     1
1002
}
  0
BLOCK_RECORD
  5
10A
330
1
100
AcDbSymbolTableRecord
100
AcDbBlockTableRecord
  2
ANSI C Title Block
340
0
310
2800000020000000200000000100080000000000000400000000000000000000000000000000000000000000000080000080000000808000800000008000800080800000C0C0C000C0DCC000F0CAA6000020400000206000002080000020A0000020C0000020E00000400000004020000040400000406000004080000040A0
310
000040C0000040E00000600000006020000060400000606000006080000060A0000060C0000060E00000800000008020000080400000806000008080000080A0000080C0000080E00000A0000000A0200000A0400000A0600000A0800000A0A00000A0C00000A0E00000C0000000C0200000C0400000C0600000C0800000C0
310
A00000C0C00000C0E00000E0000000E0200000E0400000E0600000E0800000E0A00000E0C00000E0E00040000000400020004000400040006000400080004000A0004000C0004000E00040200000402020004020400040206000402080004020A0004020C0004020E000404000004040200040404000404060004040800040
310
40A0004040C0004040E00040600000406020004060400040606000406080004060A0004060C0004060E00040800000408020004080400040806000408080004080A0004080C0004080E00040A0000040A0200040A0400040A0600040A0800040A0A00040A0C00040A0E00040C0000040C0200040C0400040C0600040C08000
310
40C0A00040C0C00040C0E00040E0000040E0200040E0400040E0600040E0800040E0A00040E0C00040E0E00080000000800020008000400080006000800080008000A0008000C0008000E00080200000802020008020400080206000802080008020A0008020C0008020E00080400000804020008040400080406000804080
310
008040A0008040C0008040E00080600000806020008060400080606000806080008060A0008060C0008060E00080800000808020008080400080806000808080008080A0008080C0008080E00080A0000080A0200080A0400080A0600080A0800080A0A00080A0C00080A0E00080C0000080C0200080C0400080C0600080C0
310
800080C0A00080C0C00080C0E00080E0000080E0200080E0400080E0600080E0800080E0A00080E0C00080E0E000C0000000C0002000C0004000C0006000C0008000C000A000C000C000C000E000C0200000C0202000C0204000C0206000C0208000C020A000C020C000C020E000C0400000C0402000C0404000C0406000C0
310
408000C040A000C040C000C040E000C0600000C0602000C0604000C0606000C0608000C060A000C060C000C060E000C0800000C0802000C0804000C0806000C0808000C080A000C080C000C080E000C0A00000C0A02000C0A04000C0A06000C0A08000C0A0A000C0A0C000C0A0E000C0C00000C0C02000C0C04000C0C06000
310
C0C08000C0C0A000F0FBFF00A4A0A000808080000000FF0000FF000000FFFF00FF000000FF00FF00FFFF0000FFFFFF00FFFFFFFFFFFFFFFFFFFFFFFFFFFFFFFFFFFFFFFFFFFFFFFFFFFFFFFFFFFFFFFFFFFFFFFFFFFFFFFFFFFFFFFFFFFFFFFFFFFFFFFFFFFFFFFFFFFFFFFFFFFFFFFFFFFFFFFFFFFFFFFFFFFFFFFFFFFFFF
310
FFFFFFFFFFFFFFFFFFFFFFFFFFFFFFFFFFFFFFFFFFFFFFFFFFFFFFFFFFFFFFFFFFFFFFFFFFFFFFFFFFFFFFFFFFFFFFFFFFFFFFFFFFFFFFFFFFFFFFFFFFFFFFFFFFFFFFFFFFFFFFFFFFFFFFFFFFFFFFFFFFFF000000000000000000000000000000000000000000000000000000000000FFFF00000000000000000000000000
310
0000000000000000000000000000000000FFFF0000FFFFFFFFFFFFFFFFFFFFFFFFFFFFFFFFFFFF00000000000000000000FFFF0000FFFFFFFFFFFFFFFFFFFFFFFFFFFFFFFFFFFF00000000000000000000FFFF0000FFFFFFFFFFFFFFFFFFFFFFFFFFFFFFFFFFFFFFFFFFFFFFFFFFFF0000FFFF0000FFFFFFFFFFFFFFFFFFFF
310
FFFFFFFFFFFFFFFFFFFFFFFFFFFFFFFF0000FFFF0000FFFFFFFFFFFFFFFFFFFFFFFFFFFFFFFFFFFFFFFFFFFFFFFFFFFF0000FFFF0000FFFFFFFFFFFFFFFFFFFFFFFFFFFFFFFFFFFFFFFFFFFFFFFFFFFF0000FFFF0000FFFFFFFFFFFFFFFFFFFFFFFFFFFFFFFFFFFFFFFFFFFFFFFFFFFF0000FFFF0000FFFFFFFFFFFFFFFFFF
310
FFFFFFFFFFFFFFFFFFFFFFFFFFFFFFFFFF0000FFFF0000FFFFFFFFFFFFFFFFFFFFFFFFFFFFFFFFFFFFFFFFFFFFFFFFFFFF0000FFFF0000FFFFFFFFFFFFFFFFFFFFFFFFFFFFFFFFFFFFFFFFFFFFFFFFFFFF0000FFFF0000FFFFFFFFFFFFFFFFFFFFFFFFFFFFFFFFFFFFFFFFFFFFFFFFFFFF0000FFFF0000FFFFFFFFFFFFFFFF
310
FFFFFFFFFFFFFFFFFFFFFFFFFFFFFFFFFFFF0000FFFF0000FFFFFFFFFFFFFFFFFFFFFFFFFFFFFFFFFFFFFFFFFFFFFFFFFFFF0000FFFF0000FFFFFFFFFFFFFFFFFFFFFFFFFFFFFFFFFFFFFFFFFFFFFFFFFFFF0000FFFF0000FFFFFFFFFFFFFFFFFFFFFFFFFFFFFFFFFFFFFFFFFFFFFFFFFFFF0000FFFF0000FFFFFFFFFFFFFF
310
FFFFFFFFFFFFFFFFFFFFFFFFFFFFFFFFFFFFFF0000FFFF0000FFFFFFFFFFFFFFFFFFFFFFFFFFFFFFFFFFFFFFFFFFFFFFFFFFFF0000FFFF0000FFFFFFFFFFFFFFFFFFFFFFFFFFFFFFFFFFFFFF00FFFFFFFFFFFF0000FFFF000000000000000000000000000000000000000000000000000000000000FFFF0000000000000000
310
00000000000000000000000000000000000000000000FFFFFFFFFFFFFFFFFFFFFFFFFFFFFFFFFFFFFFFFFFFFFFFFFFFFFFFFFFFFFFFFFFFFFFFFFFFFFFFFFFFFFFFFFFFFFFFFFFFFFFFFFFFFFFFFFFFFFFFFFFFFFFFFFFFFFFFFFFFFFFFFFFFFFFFFFFFFFFFFFFFFFFFFFFFFFFFFFFFFFFFFFFFFFFFFFFFFFFFFFFFFFFFFFF
310
FFFFFFFFFFFFFFFFFFFFFFFFFFFFFFFFFFFFFFFFFFFFFFFFFFFFFFFFFFFFFFFFFFFFFFFFFFFFFFFFFFFFFFFFFFFFFFFFFFFFFFFFFFFFFFFF
1001
ACAD
1000
DesignCenter Data
1002
{
1070
     1
1070
     1
1002
}
  0
BLOCK_RECORD
  5
164
330
1
100
AcDbSymbolTableRecord
100
AcDbBlockTableRecord
  2
ANSI D Title Block
340
0
310
2800000020000000200000000100080000000000000400000000000000000000000000000000000000000000000080000080000000808000800000008000800080800000C0C0C000C0DCC000F0CAA6000020400000206000002080000020A0000020C0000020E00000400000004020000040400000406000004080000040A0
310
000040C0000040E00000600000006020000060400000606000006080000060A0000060C0000060E00000800000008020000080400000806000008080000080A0000080C0000080E00000A0000000A0200000A0400000A0600000A0800000A0A00000A0C00000A0E00000C0000000C0200000C0400000C0600000C0800000C0
310
A00000C0C00000C0E00000E0000000E0200000E0400000E0600000E0800000E0A00000E0C00000E0E00040000000400020004000400040006000400080004000A0004000C0004000E00040200000402020004020400040206000402080004020A0004020C0004020E000404000004040200040404000404060004040800040
310
40A0004040C0004040E00040600000406020004060400040606000406080004060A0004060C0004060E00040800000408020004080400040806000408080004080A0004080C0004080E00040A0000040A0200040A0400040A0600040A0800040A0A00040A0C00040A0E00040C0000040C0200040C0400040C0600040C08000
310
40C0A00040C0C00040C0E00040E0000040E0200040E0400040E0600040E0800040E0A00040E0C00040E0E00080000000800020008000400080006000800080008000A0008000C0008000E00080200000802020008020400080206000802080008020A0008020C0008020E00080400000804020008040400080406000804080
310
008040A0008040C0008040E00080600000806020008060400080606000806080008060A0008060C0008060E00080800000808020008080400080806000808080008080A0008080C0008080E00080A0000080A0200080A0400080A0600080A0800080A0A00080A0C00080A0E00080C0000080C0200080C0400080C0600080C0
310
800080C0A00080C0C00080C0E00080E0000080E0200080E0400080E0600080E0800080E0A00080E0C00080E0E000C0000000C0002000C0004000C0006000C0008000C000A000C000C000C000E000C0200000C0202000C0204000C0206000C0208000C020A000C020C000C020E000C0400000C0402000C0404000C0406000C0
310
408000C040A000C040C000C040E000C0600000C0602000C0604000C0606000C0608000C060A000C060C000C060E000C0800000C0802000C0804000C0806000C0808000C080A000C080C000C080E000C0A00000C0A02000C0A04000C0A06000C0A08000C0A0A000C0A0C000C0A0E000C0C00000C0C02000C0C04000C0C06000
310
C0C08000C0C0A000F0FBFF00A4A0A000808080000000FF0000FF000000FFFF00FF000000FF00FF00FFFF0000FFFFFF00FFFFFFFFFFFFFFFFFFFFFFFFFFFFFFFFFFFFFFFFFFFFFFFFFFFFFFFFFFFFFFFFFFFFFFFFFFFFFFFFFFFFFFFFFFFFFFFFFFFFFFFFFFFFFFFFFFFFFFFFFFFFFFFFFFFFFFFFFFFFFFFFFFFFFFFFFFFFFF
310
FFFFFFFFFFFFFFFFFFFFFFFFFFFFFFFFFFFFFFFFFFFFFFFFFFFFFFFFFFFFFFFFFFFFFFFFFFFFFFFFFFFFFFFFFFFFFFFFFFFFFFFFFFFFFFFFFFFFFFFFFFFFFFFFFFFFFFFFFFFFFFFFFFFFFFFFFFFFFFFFFFFFFFFFFFFFFFFFFFFFFFFFFFFFFFFFFFFFFFFFFFFFFFFFFFFFFFFFFFFFFFFFFFFF00000000000000000000000000
310
0000000000000000000000000000000000FFFF000000000000000000000000000000000000000000000000000000000000FFFF0000FFFFFFFFFFFFFFFFFFFFFFFFFFFFFFFFFFFFFF00FF00000000000000FFFF0000FFFFFFFFFFFFFFFFFFFFFFFFFFFFFFFFFFFFFF000000000000000000FFFF0000FFFFFFFFFFFFFFFFFFFF
310
FFFFFFFFFFFFFFFFFFFFFFFFFFFFFFFF0000FFFF0000FFFFFFFFFFFFFFFFFFFFFFFFFFFFFFFFFFFFFFFFFFFFFFFFFFFF0000FFFF0000FFFFFFFFFFFFFFFFFFFFFFFFFFFFFFFFFFFFFFFFFFFFFFFFFFFF0000FFFF0000FFFFFFFFFFFFFFFFFFFFFFFFFFFFFFFFFFFFFFFFFFFFFFFFFFFF0000FFFF0000FFFFFFFFFFFFFFFFFF
310
FFFFFFFFFFFFFFFFFFFFFFFFFFFFFFFFFF0000FFFF0000FFFFFFFFFFFFFFFFFFFFFFFFFFFFFFFFFFFFFFFFFFFFFFFFFFFF0000FFFF0000FFFFFFFFFFFFFFFFFFFFFFFFFFFFFFFFFFFFFFFFFFFFFFFFFFFF0000FFFF0000FFFFFFFFFFFFFFFFFFFFFFFFFFFFFFFFFFFFFFFFFFFFFFFFFFFF0000FFFF0000FFFFFFFFFFFFFFFF
310
FFFFFFFFFFFFFFFFFFFFFFFFFFFFFFFFFFFF0000FFFF0000FFFFFFFFFFFFFFFFFFFFFFFFFFFFFFFFFFFFFFFFFFFFFFFFFFFF0000FFFF0000FFFFFFFFFFFFFFFFFFFFFFFFFFFFFFFFFFFFFFFFFFFFFFFFFFFF0000FFFF0000FFFFFFFFFFFFFFFFFFFFFFFFFFFFFFFFFFFFFFFFFFFFFFFFFFFF0000FFFF0000FFFFFFFFFFFFFF
310
FFFFFFFFFFFFFFFFFFFFFFFFFFFFFFFFFFFFFF0000FFFF0000FFFFFFFFFFFFFFFFFFFFFFFFFFFFFFFFFFFFFFFF00FFFFFFFFFF0000FFFF000000000000000000000000000000000000000000000000000000000000FFFF000000000000000000000000000000000000000000000000000000000000FFFFFFFFFFFFFFFFFFFF
310
FFFFFFFFFFFFFFFFFFFFFFFFFFFFFFFFFFFFFFFFFFFFFFFFFFFFFFFFFFFFFFFFFFFFFFFFFFFFFFFFFFFFFFFFFFFFFFFFFFFFFFFFFFFFFFFFFFFFFFFFFFFFFFFFFFFFFFFFFFFFFFFFFFFFFFFFFFFFFFFFFFFFFFFFFFFFFFFFFFFFFFFFFFFFFFFFFFFFFFFFFFFFFFFFFFFFFFFFFFFFFFFFFFFFFFFFFFFFFFFFFFFFFFFFFFFFFF
310
FFFFFFFFFFFFFFFFFFFFFFFFFFFFFFFFFFFFFFFFFFFFFFFFFFFFFFFFFFFFFFFFFFFFFFFFFFFFFFFFFFFFFFFFFFFFFFFFFFFFFFFFFFFFFFFF
1001
ACAD
1000
DesignCenter Data
1002
{
1070
     1
1070
     1
1002
}
  0
BLOCK_RECORD
  5
1D5
330
1
100
AcDbSymbolTableRecord
100
AcDbBlockTableRecord
  2
ANSI E Title Block
340
0
310
2800000020000000200000000100080000000000000400000000000000000000000000000000000000000000000080000080000000808000800000008000800080800000C0C0C000C0DCC000F0CAA6000020400000206000002080000020A0000020C0000020E00000400000004020000040400000406000004080000040A0
310
000040C0000040E00000600000006020000060400000606000006080000060A0000060C0000060E00000800000008020000080400000806000008080000080A0000080C0000080E00000A0000000A0200000A0400000A0600000A0800000A0A00000A0C00000A0E00000C0000000C0200000C0400000C0600000C0800000C0
310
A00000C0C00000C0E00000E0000000E0200000E0400000E0600000E0800000E0A00000E0C00000E0E00040000000400020004000400040006000400080004000A0004000C0004000E00040200000402020004020400040206000402080004020A0004020C0004020E000404000004040200040404000404060004040800040
310
40A0004040C0004040E00040600000406020004060400040606000406080004060A0004060C0004060E00040800000408020004080400040806000408080004080A0004080C0004080E00040A0000040A0200040A0400040A0600040A0800040A0A00040A0C00040A0E00040C0000040C0200040C0400040C0600040C08000
310
40C0A00040C0C00040C0E00040E0000040E0200040E0400040E0600040E0800040E0A00040E0C00040E0E00080000000800020008000400080006000800080008000A0008000C0008000E00080200000802020008020400080206000802080008020A0008020C0008020E00080400000804020008040400080406000804080
310
008040A0008040C0008040E00080600000806020008060400080606000806080008060A0008060C0008060E00080800000808020008080400080806000808080008080A0008080C0008080E00080A0000080A0200080A0400080A0600080A0800080A0A00080A0C00080A0E00080C0000080C0200080C0400080C0600080C0
310
800080C0A00080C0C00080C0E00080E0000080E0200080E0400080E0600080E0800080E0A00080E0C00080E0E000C0000000C0002000C0004000C0006000C0008000C000A000C000C000C000E000C0200000C0202000C0204000C0206000C0208000C020A000C020C000C020E000C0400000C0402000C0404000C0406000C0
310
408000C040A000C040C000C040E000C0600000C0602000C0604000C0606000C0608000C060A000C060C000C060E000C0800000C0802000C0804000C0806000C0808000C080A000C080C000C080E000C0A00000C0A02000C0A04000C0A06000C0A08000C0A0A000C0A0C000C0A0E000C0C00000C0C02000C0C04000C0C06000
310
C0C08000C0C0A000F0FBFF00A4A0A000808080000000FF0000FF000000FFFF00FF000000FF00FF00FFFF0000FFFFFF00FFFFFFFFFFFFFFFFFFFFFFFFFFFFFFFFFFFFFFFFFFFFFFFFFFFFFFFFFFFFFFFFFFFFFFFFFFFFFFFFFFFFFFFFFFFFFFFFFFFFFFFFFFFFFFFFFFFFFFFFFFFFFFFFFFFFFFFFFFFFFFFFFFFFFFFFFFFFFF
310
FFFFFFFFFFFFFFFFFFFFFFFFFFFFFFFFFFFFFFFFFFFFFFFFFFFFFFFFFFFFFFFFFFFFFFFFFFFFFFFFFFFFFFFFFFFFFFFFFFFFFFFFFFFFFFFFFFFFFFFFFFFFFFFFFFFFFFFFFFFFFFFFFFFFFFFFFFFFFFFFFFFF000000000000000000000000000000000000000000000000000000000000FFFF0000FFFFFFFFFFFFFFFFFFFFFF
310
FFFFFFFFFFFFFFFFFFFF00000000000000FFFF0000FFFFFFFFFFFFFFFFFFFFFFFFFFFFFFFFFFFFFFFFFF00000000000000FFFF0000FFFFFFFFFFFFFFFFFFFFFFFFFFFFFFFFFFFFFFFFFFFFFFFFFFFF0000FFFF0000FFFFFFFFFFFFFFFFFFFFFFFFFFFFFFFFFFFFFFFFFFFFFFFFFFFF0000FFFF0000FFFFFFFFFFFFFFFFFFFF
310
FFFFFFFFFFFFFFFFFFFFFFFFFFFFFFFF0000FFFF0000FFFFFFFFFFFFFFFFFFFFFFFFFFFFFFFFFFFFFFFFFFFFFFFFFFFF0000FFFF0000FFFFFFFFFFFFFFFFFFFFFFFFFFFFFFFFFFFFFFFFFFFFFFFFFFFF0000FFFF0000FFFFFFFFFFFFFFFFFFFFFFFFFFFFFFFFFFFFFFFFFFFFFFFFFFFF0000FFFF0000FFFFFFFFFFFFFFFFFF
310
FFFFFFFFFFFFFFFFFFFFFFFFFFFFFFFFFF0000FFFF0000FFFFFFFFFFFFFFFFFFFFFFFFFFFFFFFFFFFFFFFFFFFFFFFFFFFF0000FFFF0000FFFFFFFFFFFFFFFFFFFFFFFFFFFFFFFFFFFFFFFFFFFFFFFFFFFF0000FFFF0000FFFFFFFFFFFFFFFFFFFFFFFFFFFFFFFFFFFFFFFFFFFFFFFFFFFF0000FFFF0000FFFFFFFFFFFFFFFF
310
FFFFFFFFFFFFFFFFFFFFFFFFFFFFFFFFFFFF0000FFFF0000FFFFFFFFFFFFFFFFFFFFFFFFFFFFFFFFFFFFFFFFFFFFFFFFFFFF0000FFFF0000FFFFFFFFFFFFFFFFFFFFFFFFFFFFFFFFFFFFFFFFFFFFFFFFFFFF0000FFFF0000FFFFFFFFFFFFFFFFFFFFFFFFFFFFFFFFFFFFFFFFFFFFFFFFFFFF0000FFFF0000FFFFFFFFFFFFFF
310
FFFFFFFFFFFFFFFFFFFFFFFFFFFFFFFFFFFFFF0000FFFF0000FFFFFFFFFFFFFFFFFFFFFFFFFFFFFFFFFFFFFFFFFFFFFFFFFFFF0000FFFF0000FFFFFFFFFFFFFFFFFFFFFFFFFFFFFFFFFFFFFFFFFFFFFFFFFFFF0000FFFF0000FFFFFFFFFFFFFFFFFFFFFFFFFFFFFFFFFFFFFFFFFFFF000000000000FFFF0000000000000000
310
00000000000000000000000000000000000000000000FFFFFFFFFFFFFFFFFFFFFFFFFFFFFFFFFFFFFFFFFFFFFFFFFFFFFFFFFFFFFFFFFFFFFFFFFFFFFFFFFFFFFFFFFFFFFFFFFFFFFFFFFFFFFFFFFFFFFFFFFFFFFFFFFFFFFFFFFFFFFFFFFFFFFFFFFFFFFFFFFFFFFFFFFFFFFFFFFFFFFFFFFFFFFFFFFFFFFFFFFFFFFFFFFF
310
FFFFFFFFFFFFFFFFFFFFFFFFFFFFFFFFFFFFFFFFFFFFFFFFFFFFFFFFFFFFFFFFFFFFFFFFFFFFFFFFFFFFFFFFFFFFFFFFFFFFFFFFFFFFFFFF
1001
ACAD
1000
DesignCenter Data
1002
{
1070
     1
1070
     1
1002
}
  0
BLOCK_RECORD
  5
256
330
1
100
AcDbSymbolTableRecord
100
AcDbBlockTableRecord
  2
Architectural Title Block
340
0
310
2800000020000000200000000100080000000000000400000000000000000000000000000000000000000000000080000080000000808000800000008000800080800000C0C0C000C0DCC000F0CAA6000020400000206000002080000020A0000020C0000020E00000400000004020000040400000406000004080000040A0
310
000040C0000040E00000600000006020000060400000606000006080000060A0000060C0000060E00000800000008020000080400000806000008080000080A0000080C0000080E00000A0000000A0200000A0400000A0600000A0800000A0A00000A0C00000A0E00000C0000000C0200000C0400000C0600000C0800000C0
310
A00000C0C00000C0E00000E0000000E0200000E0400000E0600000E0800000E0A00000E0C00000E0E00040000000400020004000400040006000400080004000A0004000C0004000E00040200000402020004020400040206000402080004020A0004020C0004020E000404000004040200040404000404060004040800040
310
40A0004040C0004040E00040600000406020004060400040606000406080004060A0004060C0004060E00040800000408020004080400040806000408080004080A0004080C0004080E00040A0000040A0200040A0400040A0600040A0800040A0A00040A0C00040A0E00040C0000040C0200040C0400040C0600040C08000
310
40C0A00040C0C00040C0E00040E0000040E0200040E0400040E0600040E0800040E0A00040E0C00040E0E00080000000800020008000400080006000800080008000A0008000C0008000E00080200000802020008020400080206000802080008020A0008020C0008020E00080400000804020008040400080406000804080
310
008040A0008040C0008040E00080600000806020008060400080606000806080008060A0008060C0008060E00080800000808020008080400080806000808080008080A0008080C0008080E00080A0000080A0200080A0400080A0600080A0800080A0A00080A0C00080A0E00080C0000080C0200080C0400080C0600080C0
310
800080C0A00080C0C00080C0E00080E0000080E0200080E0400080E0600080E0800080E0A00080E0C00080E0E000C0000000C0002000C0004000C0006000C0008000C000A000C000C000C000E000C0200000C0202000C0204000C0206000C0208000C020A000C020C000C020E000C0400000C0402000C0404000C0406000C0
310
408000C040A000C040C000C040E000C0600000C0602000C0604000C0606000C0608000C060A000C060C000C060E000C0800000C0802000C0804000C0806000C0808000C080A000C080C000C080E000C0A00000C0A02000C0A04000C0A06000C0A08000C0A0A000C0A0C000C0A0E000C0C00000C0C02000C0C04000C0C06000
310
C0C08000C0C0A000F0FBFF00A4A0A000808080000000FF0000FF000000FFFF00FF000000FF00FF00FFFF0000FFFFFF00FFFFFFFFFFFFFFFFFFFFFFFFFFFFFFFFFFFFFFFFFFFFFFFFFFFFFFFFFFFFFFFFFFFFFFFFFFFFFFFFFFFFFFFFFFFFFFFFFFFFFFFFFFFFFFFFFFFFFFFFFFFFFFFFFFFFFFFFFFFFFFFFFFFFFFFFFFFFFF
310
FFFFFFFFFFFFFFFFFFFFFFFFFFFFFFFFFFFFFFFFFFFFFFFFFFFFFFFFFFFFFFFFFFFFFFFFFFFFFFFFFFFFFFFFFFFFFFFFFFFFFFFFFFFFFFFFFFFFFFFFFFFFFFFFFFFFFFFFFFFFFFFFFFFFFFFFFFFFFFFFFFFFFFFFFFFFFFFFFFFFFFFFFFFFFFFFFFFFFFFFFFFFFFFFFFFFFFFFFFFFFFFFFFFF00000000000000000000000000
310
0000000000000000000000000000000000FFFF000000000000000000000000000000000000000000000000000000000000FFFF0000FFFFFFFFFFFFFFFFFFFFFFFFFFFFFFFFFFFFFFFFFFFF000000000000FFFF0000FFFFFFFFFFFFFFFFFFFFFFFFFFFFFFFFFFFFFFFFFFFF000000000000FFFF0000FFFFFFFFFFFFFFFFFFFF
310
FFFFFFFFFFFFFFFFFFFFFFFF000000000000FFFF0000FFFFFFFFFFFFFFFFFFFFFFFFFFFFFFFFFFFFFFFFFFFF0000FFFF0000FFFF0000FFFFFFFFFFFFFFFFFFFFFFFFFFFFFFFFFFFFFFFFFFFF000000000000FFFF0000FFFFFFFFFFFFFFFFFFFFFFFFFFFFFFFFFFFFFFFFFFFF000000000000FFFF0000FFFFFFFFFFFFFFFFFF
310
FFFFFFFFFFFFFFFFFFFFFFFFFF0000FFFF0000FFFF0000FFFFFFFFFFFFFFFFFFFFFFFFFFFFFFFFFFFFFFFFFFFF0000FFFF0000FFFF0000FFFFFFFFFFFFFFFFFFFFFFFFFFFFFFFFFFFFFFFFFFFF0000FFFF0000FFFF0000FFFFFFFFFFFFFFFFFFFFFFFFFFFFFFFFFFFFFFFFFFFF0000FFFF0000FFFF0000FFFFFFFFFFFFFFFF
310
FFFFFFFFFFFFFFFFFFFFFFFFFFFF0000FFFF0000FFFF0000FFFFFFFFFFFFFFFFFFFFFFFFFFFFFFFFFFFFFFFFFFFF0000FFFF0000FFFF0000FFFFFFFFFFFFFFFFFFFFFFFFFFFFFFFFFFFFFFFFFFFF0000FFFF0000FFFF0000FFFFFFFFFFFFFFFFFFFFFFFFFFFFFFFFFFFFFFFFFFFF0000FFFF0000FFFF0000FFFFFFFFFFFFFF
310
FFFFFFFFFFFFFFFFFFFFFFFFFFFFFF0000FFFF0000FFFF0000FFFFFFFFFFFFFFFFFFFFFFFFFFFFFFFFFFFFFFFFFFFF0000FFFF0000FFFF000000000000000000000000000000000000000000000000000000000000FFFF000000000000000000000000000000000000000000000000000000000000FFFFFFFFFFFFFFFFFFFF
310
FFFFFFFFFFFFFFFFFFFFFFFFFFFFFFFFFFFFFFFFFFFFFFFFFFFFFFFFFFFFFFFFFFFFFFFFFFFFFFFFFFFFFFFFFFFFFFFFFFFFFFFFFFFFFFFFFFFFFFFFFFFFFFFFFFFFFFFFFFFFFFFFFFFFFFFFFFFFFFFFFFFFFFFFFFFFFFFFFFFFFFFFFFFFFFFFFFFFFFFFFFFFFFFFFFFFFFFFFFFFFFFFFFFFFFFFFFFFFFFFFFFFFFFFFFFFFF
310
FFFFFFFFFFFFFFFFFFFFFFFFFFFFFFFFFFFFFFFFFFFFFFFFFFFFFFFFFFFFFFFFFFFFFFFFFFFFFFFFFFFFFFFFFFFFFFFFFFFFFFFFFFFFFFFF
1001
ACAD
1000
DesignCenter Data
1002
{
1070
     1
1070
     1
1002
}
  0
BLOCK_RECORD
  5
420
330
1
100
AcDbSymbolTableRecord
100
AcDbBlockTableRecord
  2
Generic 24in x 36in Title Block
340
0
310
2800000020000000200000000100080000000000000400000000000000000000000000000000000000000000000080000080000000808000800000008000800080800000C0C0C000C0DCC000F0CAA6000020400000206000002080000020A0000020C0000020E00000400000004020000040400000406000004080000040A0
310
000040C0000040E00000600000006020000060400000606000006080000060A0000060C0000060E00000800000008020000080400000806000008080000080A0000080C0000080E00000A0000000A0200000A0400000A0600000A0800000A0A00000A0C00000A0E00000C0000000C0200000C0400000C0600000C0800000C0
310
A00000C0C00000C0E00000E0000000E0200000E0400000E0600000E0800000E0A00000E0C00000E0E00040000000400020004000400040006000400080004000A0004000C0004000E00040200000402020004020400040206000402080004020A0004020C0004020E000404000004040200040404000404060004040800040
310
40A0004040C0004040E00040600000406020004060400040606000406080004060A0004060C0004060E00040800000408020004080400040806000408080004080A0004080C0004080E00040A0000040A0200040A0400040A0600040A0800040A0A00040A0C00040A0E00040C0000040C0200040C0400040C0600040C08000
310
40C0A00040C0C00040C0E00040E0000040E0200040E0400040E0600040E0800040E0A00040E0C00040E0E00080000000800020008000400080006000800080008000A0008000C0008000E00080200000802020008020400080206000802080008020A0008020C0008020E00080400000804020008040400080406000804080
310
008040A0008040C0008040E00080600000806020008060400080606000806080008060A0008060C0008060E00080800000808020008080400080806000808080008080A0008080C0008080E00080A0000080A0200080A0400080A0600080A0800080A0A00080A0C00080A0E00080C0000080C0200080C0400080C0600080C0
310
800080C0A00080C0C00080C0E00080E0000080E0200080E0400080E0600080E0800080E0A00080E0C00080E0E000C0000000C0002000C0004000C0006000C0008000C000A000C000C000C000E000C0200000C0202000C0204000C0206000C0208000C020A000C020C000C020E000C0400000C0402000C0404000C0406000C0
310
408000C040A000C040C000C040E000C0600000C0602000C0604000C0606000C0608000C060A000C060C000C060E000C0800000C0802000C0804000C0806000C0808000C080A000C080C000C080E000C0A00000C0A02000C0A04000C0A06000C0A08000C0A0A000C0A0C000C0A0E000C0C00000C0C02000C0C04000C0C06000
310
C0C08000C0C0A000F0FBFF00A4A0A000808080000000FF0000FF000000FFFF00FF000000FF00FF00FFFF0000FFFFFF00FFFFFFFFFFFFFFFFFFFFFFFFFFFFFFFFFFFFFFFFFFFFFFFFFFFFFFFFFFFFFFFFFFFFFFFFFFFFFFFFFFFFFFFFFFFFFFFFFFFFFFFFFFFFFFFFFFFFFFFFFFFFFFFFFFFFFFFFFFFFFFFFFFFFFFFFFFFFFF
310
FFFFFFFFFFFFFFFFFFFFFFFFFFFFFFFFFFFFFFFFFFFFFFFFFFFFFFFFFFFFFFFFFFFFFFFFFFFFFFFFFFFFFFFFFFFFFFFFFFFFFFFFFFFFFFFFFFFFFFFFFFFFFFFFFFFFFFFFFFFFFFFFFFFFFFFFFFFFFFFFFFFFFFFFFFFFFFFFFFFFFFFFFFFFFFFFFFFFFFFFFFFFFFFFFFFFFFFFFFFFFFFFFFFF000000FFFFFFFFFFFFFFFFFFFF
310
FFFFFFFFFFFFFFFFFFFFFFFFFFFF000000FFFF00FF00000000000000000000000000000000000000000000000000000000FFFF00FF00FFFFFFFFFFFFFFFFFFFFFFFFFFFFFFFFFFFFFFFFFFFFFFFF000000FFFF00FF00FFFFFFFFFFFFFFFFFFFFFFFFFFFFFFFFFFFFFFFFFFFFFFFF0000FFFFFFFFFF00FFFFFFFFFFFFFFFFFF
310
FFFFFFFFFFFFFFFFFFFFFFFFFFFFFF0000FFFFFF00FF00FFFFFFFFFFFFFFFFFFFFFFFFFFFFFFFFFFFFFFFFFFFFFFFF0000FFFFFF00FF00FFFFFFFFFFFFFFFFFFFFFFFFFFFFFFFFFFFFFFFFFFFFFFFF0000FFFFFFFFFF00FFFFFFFFFFFFFFFFFFFFFFFFFFFFFFFFFFFFFFFFFFFFFFFF0000FFFFFFFFFF00FFFFFFFFFFFFFFFF
310
FFFFFFFFFFFFFFFFFFFFFFFFFFFFFFFF0000FFFFFFFFFF00FFFFFFFFFFFFFFFFFFFFFFFFFFFFFFFFFFFFFFFFFFFFFFFF0000FFFFFFFFFF00FFFFFFFFFFFFFFFFFFFFFFFFFFFFFFFFFFFFFFFFFFFFFFFF0000FFFFFFFFFF00FFFFFFFFFFFFFFFFFFFFFFFFFFFFFFFFFFFFFFFFFFFFFFFF0000FFFFFFFFFF00FFFFFFFFFFFFFF
310
FFFFFFFFFFFFFFFFFFFFFFFFFFFFFFFFFF0000FFFFFFFFFF00FFFFFFFFFFFFFFFFFFFFFFFFFFFFFFFFFFFFFFFFFFFFFFFF0000FFFFFFFFFF00FFFFFFFFFFFFFFFFFFFFFFFFFFFFFFFFFFFFFFFFFFFFFFFF0000FFFFFFFFFF00FFFFFFFFFFFFFFFFFFFFFFFFFFFFFFFFFFFFFFFFFFFFFFFF0000FFFFFFFFFF00FFFFFFFFFFFF
310
FFFFFFFFFFFFFFFFFFFFFFFFFFFFFFFFFFFF0000FFFFFF00FF00FFFFFFFFFFFFFFFFFFFFFFFFFFFFFFFFFFFFFFFFFFFFFFFF000000FFFF00FF00000000000000000000000000000000000000000000000000000000FFFF000000FFFFFFFFFFFFFFFFFFFFFFFFFFFFFFFFFFFFFFFFFFFFFFFF000000FFFFFFFFFFFFFFFFFFFF
310
FFFFFFFFFFFFFFFFFFFFFFFFFFFFFFFFFFFFFFFFFFFFFFFFFFFFFFFFFFFFFFFFFFFFFFFFFFFFFFFFFFFFFFFFFFFFFFFFFFFFFFFFFFFFFFFFFFFFFFFFFFFFFFFFFFFFFFFFFFFFFFFFFFFFFFFFFFFFFFFFFFFFFFFFFFFFFFFFFFFFFFFFFFFFFFFFFFFFFFFFFFFFFFFFFFFFFFFFFFFFFFFFFFFFFFFFFFFFFFFFFFFFFFFFFFFFFF
310
FFFFFFFFFFFFFFFFFFFFFFFFFFFFFFFFFFFFFFFFFFFFFFFFFFFFFFFFFFFFFFFFFFFFFFFFFFFFFFFFFFFFFFFFFFFFFFFFFFFFFFFFFFFFFFFF
1001
ACAD
1000
DesignCenter Data
1002
{
1070
     1
1070
     1
1002
}
  0
BLOCK_RECORD
  5
1171
330
1
100
AcDbSymbolTableRecord
100
AcDbBlockTableRecord
  2
A$C25F94DAA
340
0
102
{BLKREFS
331
117C
102
}
  0
BLOCK_RECORD
  5
122D
330
1
100
AcDbSymbolTableRecord
100
AcDbBlockTableRecord
  2
SYM1
340
0
  0
BLOCK_RECORD
  5
1C24
330
1
100
AcDbSymbolTableRecord
100
AcDbBlockTableRecord
  2
*D10
340
0
  0
BLOCK_RECORD
  5
1C31
330
1
100
AcDbSymbolTableRecord
100
AcDbBlockTableRecord
  2
*D11
340
0
  0
BLOCK_RECORD
  5
1C3E
330
1
100
AcDbSymbolTableRecord
100
AcDbBlockTableRecord
  2
*D12
340
0
  0
ENDTAB
  0
ENDSEC
  0
SECTION
  2
BLOCKS
  0
BLOCK
  5
20
330
1F
100
AcDbEntity
  8
0
100
AcDbBlockBegin
  2
*Model_Space
 70
     0
 10
0.0
 20
0.0
 30
0.0
  3
*Model_Space
  1

  0
ENDBLK
  5
21
330
1F
100
AcDbEntity
  8
0
100
AcDbBlockEnd
  0
BLOCK
  5
444
330
43C
100
AcDbEntity
 67
     1
  8
0
100
AcDbBlockBegin
  2
*Paper_Space
 70
     0
 10
0.0
 20
0.0
 30
0.0
  3
*Paper_Space
  1

  0
ENDBLK
  5
445
330
43C
100
AcDbEntity
 67
     1
  8
0
100
AcDbBlockEnd
  0
BLOCK
  5
5E
330
2B
100
AcDbEntity
  8
0
100
AcDbBlockBegin
  2
ANSI A title block (portrait)
 70
     2
 10
0.0
 20
0.0
 30
0.0
  3
ANSI A title block (portrait)
  1

  4
ANSI A title block (portrait) and attributes
  0
ATTDEF
  5
2C
330
2B
100
AcDbEntity
  8
0
 62
     0
380
     1
100
AcDbText
 10
0.0
 20
10.55
 30
0.0
 40
0.15
  1

  7
Roman
100
AcDbAttributeDefinition
  3
Author:
  2
USER
 70
     8
  0
SOLID
  5
2D
330
2B
100
AcDbEntity
  8
Title Block
100
AcDbTrace
 10
3.849999999999993
 20
10.4
 30
0.0
 11
4.150000000000003
 21
10.4
 31
0.0
 12
4.0
 22
10.25
 32
0.0
 13
4.0
 23
10.25
 33
0.0
  0
TEXT
  5
2E
330
2B
100
AcDbEntity
  8
Title Block
100
AcDbText
 10
4.002000000000008
 20
9.840299999999999
 30
0.0
 40
0.065
  1
DESCRIPTION
  7
Roman
100
AcDbText
  0
TEXT
  5
2F
330
2B
100
AcDbEntity
  8
Title Block
100
AcDbText
 10
3.818900000000013
 20
0.7659000000000003
 30
0.0
 40
0.065
  1
FSCM NO.
  7
Roman
100
AcDbText
  0
SOLID
  5
30
330
2B
100
AcDbEntity
  8
Title Block
100
AcDbTrace
 10
3.849999999999993
 20
0.1
 30
0.0
 11
4.150000000000003
 21
0.1
 31
0.0
 12
4.0
 22
0.25
 32
0.0
 13
4.0
 23
0.25
 33
0.0
  0
LINE
  5
31
330
2B
100
AcDbEntity
  8
Title Block
100
AcDbLine
 10
2.120000000000004
 20
9.75
 30
0.0
 11
7.620000000000002
 21
9.75
 31
0.0
  0
LINE
  5
32
330
2B
100
AcDbEntity
  8
Title Block
100
AcDbLine
 10
2.120000000000004
 20
10.0
 30
0.0
 11
7.620000000000002
 21
10.0
 31
0.0
  0
LINE
  5
33
330
2B
100
AcDbEntity
  8
Title Block
100
AcDbLine
 10
3.370000000000004
 20
1.5
 30
0.0
 11
7.620000000000002
 21
1.5
 31
0.0
  0
LINE
  5
34
330
2B
100
AcDbEntity
  8
Title Block
100
AcDbLine
 10
3.370000000000004
 20
0.5
 30
0.0
 11
7.620000000000002
 21
0.5
 31
0.0
  0
LINE
  5
35
330
2B
100
AcDbEntity
  8
Title Block
100
AcDbLine
 10
1.370000000000004
 20
0.8799999999999997
 30
0.0
 11
7.620000000000002
 21
0.8799999999999997
 31
0.0
  0
LINE
  5
36
330
2B
100
AcDbEntity
  8
Title Block
100
AcDbLine
 10
1.370000000000004
 20
2.0
 30
0.0
 11
7.620000000000002
 21
2.0
 31
0.0
  0
LINE
  5
37
330
2B
100
AcDbEntity
  8
Title Block
100
AcDbLine
 10
7.620000000000002
 20
10.25
 30
0.0
 11
0.3799999999999954
 21
10.25
 31
0.0
  0
LINE
  5
38
330
2B
100
AcDbEntity
  8
Title Block
100
AcDbLine
 10
0.3799999999999954
 20
0.25
 30
0.0
 11
7.620000000000002
 21
0.25
 31
0.0
  0
LINE
  5
39
330
2B
100
AcDbEntity
  8
Title Block
100
AcDbLine
 10
8.0
 20
10.5
 30
0.0
 11
0.0
 21
10.5
 31
0.0
  0
LINE
  5
3A
330
2B
100
AcDbEntity
  8
Title Block
100
AcDbLine
 10
0.0
 20
0.0
 30
0.0
 11
8.0
 21
0.0
 31
0.0
  0
SOLID
  5
3B
330
2B
100
AcDbEntity
  8
Title Block
100
AcDbTrace
 10
0.2299999999999898
 20
5.099999999999997
 30
0.0
 11
0.2299999999999898
 21
5.4
 31
0.0
 12
0.3799999999999954
 22
5.25
 32
0.0
 13
0.3799999999999954
 23
5.25
 33
0.0
  0
LINE
  5
3C
330
2B
100
AcDbEntity
  8
Title Block
100
AcDbLine
 10
0.3799999999999954
 20
10.25
 30
0.0
 11
0.3799999999999954
 21
0.25
 31
0.0
  0
LINE
  5
3D
330
2B
100
AcDbEntity
  8
Title Block
100
AcDbLine
 10
0.0
 20
10.5
 30
0.0
 11
0.0
 21
0.0
 31
0.0
  0
LINE
  5
3E
330
2B
100
AcDbEntity
  8
Title Block
100
AcDbLine
 10
3.370000000000004
 20
0.25
 30
0.0
 11
3.370000000000004
 21
2.0
 31
0.0
  0
LINE
  5
3F
330
2B
100
AcDbEntity
  8
Title Block
100
AcDbLine
 10
1.370000000000004
 20
0.25
 30
0.0
 11
1.370000000000004
 21
2.0
 31
0.0
  0
LINE
  5
40
330
2B
100
AcDbEntity
  8
Title Block
100
AcDbLine
 10
1.370000000000004
 20
0.565
 30
0.0
 11
3.370000000000004
 21
0.565
 31
0.0
  0
LWPOLYLINE
  5
41
330
2B
100
AcDbEntity
  8
Title Block
100
AcDbPolyline
 90
        2
 70
     0
 43
0.02
 10
4.0
 20
0.0
 10
4.0
 20
0.1
  0
LINE
  5
42
330
2B
100
AcDbEntity
  8
Title Block
100
AcDbLine
 10
3.75
 20
0.5
 30
0.0
 11
3.75
 21
0.8799999999999997
 31
0.0
  0
TEXT
  5
43
330
2B
100
AcDbEntity
  8
Title Block
100
AcDbText
 10
3.422300000000006
 20
0.3425
 30
0.0
 40
0.065
  1
SCALE
  7
Roman
100
AcDbText
  0
TEXT
  5
44
330
2B
100
AcDbEntity
  8
Title Block
100
AcDbText
 10
3.457899999999995
 20
0.7659000000000003
 30
0.0
 40
0.065
  1
SIZE
  7
Roman
100
AcDbText
  0
LWPOLYLINE
  5
45
330
2B
100
AcDbEntity
  8
Title Block
100
AcDbPolyline
 90
        2
 70
     0
 43
0.02
 10
0.1299999999999954
 20
5.25
 10
0.2299999999999898
 20
5.25
  0
LINE
  5
46
330
2B
100
AcDbEntity
  8
Title Block
100
AcDbLine
 10
2.120000000000004
 20
10.25
 30
0.0
 11
2.120000000000004
 21
9.2027
 31
0.0
  0
TEXT
  5
47
330
2B
100
AcDbEntity
  8
Title Block
100
AcDbText
 10
2.228700000000003
 20
9.840299999999999
 30
0.0
 40
0.065
  1
ZONE
  7
Roman
100
AcDbText
  0
LINE
  5
48
330
2B
100
AcDbEntity
  8
Title Block
100
AcDbLine
 10
2.620000000000002
 20
9.75
 30
0.0
 11
2.620000000000002
 21
10.0
 31
0.0
  0
LWPOLYLINE
  5
49
330
2B
100
AcDbEntity
  8
Title Block
100
AcDbPolyline
 90
        2
 70
     0
 43
0.02
 10
4.0
 20
10.5
 10
4.0
 20
10.4
  0
LINE
  5
4A
330
2B
100
AcDbEntity
  8
Title Block
100
AcDbLine
 10
3.0
 20
9.75
 30
0.0
 11
3.0
 21
10.0
 31
0.0
  0
TEXT
  5
4B
330
2B
100
AcDbEntity
  8
Title Block
100
AcDbText
 10
2.70009999999999
 20
9.840299999999999
 30
0.0
 40
0.065
  1
REV
  7
Roman
100
AcDbText
  0
SOLID
  5
4C
330
2B
100
AcDbEntity
  8
Title Block
100
AcDbTrace
 10
7.770000000000008
 20
5.099999999999997
 30
0.0
 11
7.770000000000008
 21
5.4
 31
0.0
 12
7.620000000000002
 22
5.25
 32
0.0
 13
7.620000000000002
 23
5.25
 33
0.0
  0
LINE
  5
4D
330
2B
100
AcDbEntity
  8
Title Block
100
AcDbLine
 10
7.620000000000002
 20
0.25
 30
0.0
 11
7.620000000000002
 21
10.25
 31
0.0
  0
LINE
  5
4E
330
2B
100
AcDbEntity
  8
Title Block
100
AcDbLine
 10
8.0
 20
0.0
 30
0.0
 11
8.0
 21
10.5
 31
0.0
  0
LINE
  5
4F
330
2B
100
AcDbEntity
  8
Title Block
100
AcDbLine
 10
4.370000000000004
 20
0.25
 30
0.0
 11
4.370000000000004
 21
0.5
 31
0.0
  0
LINE
  5
50
330
2B
100
AcDbEntity
  8
Title Block
100
AcDbLine
 10
4.870000000000004
 20
0.5
 30
0.0
 11
4.870000000000004
 21
0.8799999999999997
 31
0.0
  0
TEXT
  5
51
330
2B
100
AcDbEntity
  8
Title Block
100
AcDbText
 10
4.941000000000001
 20
0.7659000000000003
 30
0.0
 40
0.065
  1
DWG NO.
  7
Roman
100
AcDbText
  0
TEXT
  5
52
330
2B
100
AcDbEntity
  8
Title Block
100
AcDbText
 10
5.922799999999995
 20
0.3425
 30
0.0
 40
0.065
  1
SHEET
  7
Roman
100
AcDbText
  0
LINE
  5
53
330
2B
100
AcDbEntity
  8
Title Block
100
AcDbLine
 10
5.870000000000002
 20
0.25
 30
0.0
 11
5.870000000000002
 21
0.5
 31
0.0
  0
TEXT
  5
54
330
2B
100
AcDbEntity
  8
Title Block
100
AcDbText
 10
7.320500000000008
 20
0.7659000000000003
 30
0.0
 40
0.065
  1
REV
  7
Roman
100
AcDbText
  0
LINE
  5
55
330
2B
100
AcDbEntity
  8
Title Block
100
AcDbLine
 10
7.240000000000008
 20
0.5
 30
0.0
 11
7.240000000000008
 21
0.8799999999999997
 31
0.0
  0
TEXT
  5
56
330
2B
100
AcDbEntity
  8
Title Block
100
AcDbText
 10
4.83019999999999
 20
10.0825
 30
0.0
 40
0.065
  1
REVISIONS
  7
Roman
100
AcDbText
  0
LINE
  5
57
330
2B
100
AcDbEntity
  8
Title Block
100
AcDbLine
 10
5.740000000000008
 20
9.75
 30
0.0
 11
5.740000000000008
 21
10.0
 31
0.0
  0
TEXT
  5
58
330
2B
100
AcDbEntity
  8
Title Block
100
AcDbText
 10
6.067700000000002
 20
9.840299999999999
 30
0.0
 40
0.065
  1
DATE
  7
Roman
100
AcDbText
  0
LINE
  5
59
330
2B
100
AcDbEntity
  8
Title Block
100
AcDbLine
 10
6.620000000000002
 20
9.75
 30
0.0
 11
6.620000000000002
 21
10.0
 31
0.0
  0
LWPOLYLINE
  5
5A
330
2B
100
AcDbEntity
  8
Title Block
100
AcDbPolyline
 90
        2
 70
     0
 43
0.02
 10
7.870000000000002
 20
5.25
 10
7.770000000000008
 20
5.25
  0
TEXT
  5
5B
330
2B
100
AcDbEntity
  8
Title Block
100
AcDbText
 10
6.861400000000002
 20
9.840299999999999
 30
0.0
 40
0.065
  1
APPROVED
  7
Roman
100
AcDbText
  0
ATTDEF
  5
5C
330
2B
100
AcDbEntity
  8
0
 62
     0
380
     1
100
AcDbText
 10
2.5
 20
10.55
 30
0.0
 40
0.15
  1

  7
Roman
100
AcDbAttributeDefinition
  3
Revision date:
  2
REVDATE
 70
     8
  0
ATTDEF
  5
5D
330
2B
100
AcDbEntity
  8
0
 62
     0
380
     1
100
AcDbText
 10
5.5
 20
10.55
 30
0.0
 40
0.15
  1

  7
Roman
100
AcDbAttributeDefinition
  3
File name
  2
FNAME
 70
     8
  0
ENDBLK
  5
5F
330
2B
100
AcDbEntity
  8
0
100
AcDbBlockEnd
  0
BLOCK
  5
AC
330
75
100
AcDbEntity
  8
0
100
AcDbBlockBegin
  2
ANSI A title block
 70
     2
 10
0.0
 20
0.0
 30
0.0
  3
ANSI A title block
  1

  4
ANSI A title block with attributes
  0
LWPOLYLINE
  5
76
102
{ACAD_REACTORS
330
77
102
}
330
75
100
AcDbEntity
  8
0
100
AcDbPolyline
 90
        9
 70
     1
 43
0.0
 10
0.25
 20
7.619999999999999
 10
4.75
 20
7.619999999999999
 10
4.75
 20
7.12
 10
10.25
 20
7.12
 10
10.25
 20
2.129999999999999
 10
4.0
 20
2.129999999999999
 10
3.999999999999998
 20
0.38
 10
0.25
 20
0.3800000000000008
 10
0.2500000000000004
 20
7.619999999999999
  0
VIEWPORT
  5
77
102
{ACAD_XDICTIONARY
360
1DDB
102
}
330
75
100
AcDbEntity
  8
0
100
AcDbViewport
 10
5.25
 20
3.999999999999998
 30
0.0
 40
10.0
 41
7.239999999999997
 69
     0
 12
6.0
 22
4.5
 13
0.0
 23
0.0
 14
0.5
 24
0.5
 15
0.5
 25
0.5
 16
0.0
 26
0.0
 36
1.0
 17
0.0
 27
0.0
 37
0.0
 42
50.0
 43
0.0
 44
0.0
 45
9.173076923076923
 50
0.0
 51
0.0
 72
   100
 90
    98368
340
76
  1

281
     0
 71
     1
 74
     0
110
0.0
120
0.0
130
0.0
111
1.0
121
0.0
131
0.0
112
0.0
122
1.0
132
0.0
 79
     0
146
0.0
  0
LINE
  5
78
330
75
100
AcDbEntity
  8
Title Block
100
AcDbLine
 10
4.75
 20
7.12
 30
0.0
 11
10.25
 21
7.12
 31
0.0
  0
LINE
  5
79
330
75
100
AcDbEntity
  8
Title Block
100
AcDbLine
 10
4.75
 20
7.37
 30
0.0
 11
10.25
 21
7.37
 31
0.0
  0
LINE
  5
7A
330
75
100
AcDbEntity
  8
Title Block
100
AcDbLine
 10
4.0
 20
1.01
 30
0.0
 11
10.25
 21
1.01
 31
0.0
  0
LINE
  5
7B
330
75
100
AcDbEntity
  8
Title Block
100
AcDbLine
 10
4.0
 20
0.695
 30
0.0
 11
6.0
 21
0.695
 31
0.0
  0
LINE
  5
7C
330
75
100
AcDbEntity
  8
Title Block
100
AcDbLine
 10
4.0
 20
2.129999999999999
 30
0.0
 11
10.25
 21
2.129999999999999
 31
0.0
  0
SOLID
  5
7D
330
75
100
AcDbEntity
  8
Title Block
100
AcDbTrace
 10
5.10064103921394
 20
7.770501623886499
 30
0.0
 11
5.40064103921395
 21
7.770501623886499
 31
0.0
 12
5.250641039213943
 22
7.620501623886497
 32
0.0
 13
5.250641039213943
 23
7.620501623886497
 33
0.0
  0
SOLID
  5
7E
330
75
100
AcDbEntity
  8
Title Block
100
AcDbTrace
 10
5.099999999999994
 20
0.23
 30
0.0
 11
5.400000000000003
 21
0.23
 31
0.0
 12
5.25
 22
0.38
 32
0.0
 13
5.25
 23
0.38
 33
0.0
  0
LINE
  5
7F
330
75
100
AcDbEntity
  8
Title Block
100
AcDbLine
 10
10.25
 20
7.619999999999999
 30
0.0
 11
0.25
 21
7.619999999999999
 31
0.0
  0
LINE
  5
80
330
75
100
AcDbEntity
  8
Title Block
100
AcDbLine
 10
0.25
 20
0.38
 30
0.0
 11
10.25
 21
0.38
 31
0.0
  0
LINE
  5
81
330
75
100
AcDbEntity
  8
Title Block
100
AcDbLine
 10
10.5
 20
8.0
 30
0.0
 11
0.0
 21
8.0
 31
0.0
  0
LINE
  5
82
330
75
100
AcDbEntity
  8
Title Block
100
AcDbLine
 10
0.0
 20
0.0
 30
0.0
 11
10.5
 21
0.0
 31
0.0
  0
LWPOLYLINE
  5
83
102
{ACAD_REACTORS
330
84
102
}
330
75
100
AcDbEntity
  8
0
100
AcDbPolyline
 90
        8
 70
     1
 43
0.0
 10
0.2500000000000004
 20
7.619999999999999
 10
4.75
 20
7.619999999999999
 10
4.75
 20
7.12
 10
10.25
 20
7.12
 10
10.25
 20
2.129999999999999
 10
4.0
 20
2.129999999999999
 10
4.0
 20
0.38
 10
0.25
 20
0.3800000000000008
  0
VIEWPORT
  5
84
102
{ACAD_XDICTIONARY
360
1DDD
102
}
330
75
100
AcDbEntity
  8
0
100
AcDbViewport
 10
5.25
 20
3.999999999999998
 30
0.0
 40
10.0
 41
7.239999999999997
 69
     0
 12
6.0
 22
4.5
 13
0.0
 23
0.0
 14
0.5
 24
0.5
 15
0.5
 25
0.5
 16
0.0
 26
0.0
 36
1.0
 17
0.0
 27
0.0
 37
0.0
 42
50.0
 43
0.0
 44
0.0
 45
9.15
 50
0.0
 51
0.0
 72
   100
 90
    98368
340
83
  1

281
     0
 71
     1
 74
     0
110
0.0
120
0.0
130
0.0
111
1.0
121
0.0
131
0.0
112
0.0
122
1.0
132
0.0
 79
     0
146
0.0
  0
SOLID
  5
85
330
75
100
AcDbEntity
  8
Title Block
100
AcDbTrace
 10
0.0999999999999943
 20
3.849999999999998
 30
0.0
 11
0.0999999999999943
 21
4.15
 31
0.0
 12
0.25
 22
3.999999999999998
 32
0.0
 13
0.25
 23
3.999999999999998
 33
0.0
  0
LINE
  5
86
330
75
100
AcDbEntity
  8
Title Block
100
AcDbLine
 10
0.25
 20
7.619999999999999
 30
0.0
 11
0.25
 21
0.38
 31
0.0
  0
LINE
  5
87
330
75
100
AcDbEntity
  8
Title Block
100
AcDbLine
 10
0.0
 20
8.0
 30
0.0
 11
0.0
 21
0.0
 31
0.0
  0
LINE
  5
88
330
75
100
AcDbEntity
  8
Title Block
100
AcDbLine
 10
4.0
 20
0.38
 30
0.0
 11
4.0
 21
2.129999999999999
 31
0.0
  0
LWPOLYLINE
  5
89
330
75
100
AcDbEntity
  8
Title Block
100
AcDbPolyline
 90
        2
 70
     0
 43
0.02
 10
5.25
 20
0.13
 10
5.25
 20
0.23
  0
LWPOLYLINE
  5
8A
330
75
100
AcDbEntity
  8
Title Block
100
AcDbPolyline
 90
        2
 70
     0
 43
0.02
 10
0.0
 20
3.999999999999998
 10
0.0999999999999943
 20
3.999999999999998
  0
LINE
  5
8B
330
75
100
AcDbEntity
  8
Title Block
100
AcDbLine
 10
4.75
 20
7.619999999999999
 30
0.0
 11
4.75
 21
6.5727
 31
0.0
  0
LINE
  5
8C
330
75
100
AcDbEntity
  8
Title Block
100
AcDbLine
 10
5.25
 20
7.12
 30
0.0
 11
5.25
 21
7.37
 31
0.0
  0
TEXT
  5
8D
330
75
100
AcDbEntity
  8
Title Block
100
AcDbText
 10
4.858699999999998
 20
7.2103
 30
0.0
 40
0.065
  1
ZONE
  7
Roman
100
AcDbText
  0
LWPOLYLINE
  5
8E
330
75
100
AcDbEntity
  8
Title Block
100
AcDbPolyline
 90
        2
 70
     0
 43
0.02
 10
5.250641039213943
 20
7.870501623886497
 10
5.250641039213943
 20
7.770501623886499
  0
SOLID
  5
8F
330
75
100
AcDbEntity
  8
Title Block
100
AcDbTrace
 10
10.4
 20
3.849999999999998
 30
0.0
 11
10.4
 21
4.15
 31
0.0
 12
10.25
 22
3.999999999999998
 32
0.0
 13
10.25
 23
3.999999999999998
 33
0.0
  0
LINE
  5
90
330
75
100
AcDbEntity
  8
Title Block
100
AcDbLine
 10
10.25
 20
0.38
 30
0.0
 11
10.25
 21
7.619999999999999
 31
0.0
  0
LINE
  5
91
330
75
100
AcDbEntity
  8
Title Block
100
AcDbLine
 10
10.5
 20
0.0
 30
0.0
 11
10.5
 21
8.0
 31
0.0
  0
TEXT
  5
92
330
75
100
AcDbEntity
  8
Title Block
100
AcDbText
 10
8.55279999999999
 20
0.4725
 30
0.0
 40
0.065
  1
SHEET
  7
Roman
100
AcDbText
  0
LINE
  5
93
330
75
100
AcDbEntity
  8
Title Block
100
AcDbLine
 10
6.0
 20
1.629999999999999
 30
0.0
 11
10.25
 21
1.629999999999999
 31
0.0
  0
LINE
  5
94
330
75
100
AcDbEntity
  8
Title Block
100
AcDbLine
 10
6.0
 20
0.63
 30
0.0
 11
10.25
 21
0.63
 31
0.0
  0
LINE
  5
95
330
75
100
AcDbEntity
  8
Title Block
100
AcDbLine
 10
6.0
 20
0.38
 30
0.0
 11
6.0
 21
2.129999999999999
 31
0.0
  0
TEXT
  5
96
330
75
100
AcDbEntity
  8
Title Block
100
AcDbText
 10
6.08789999999999
 20
0.8958999999999999
 30
0.0
 40
0.065
  1
SIZE
  7
Roman
100
AcDbText
  0
TEXT
  5
97
330
75
100
AcDbEntity
  8
Title Block
100
AcDbText
 10
6.052300000000002
 20
0.4725
 30
0.0
 40
0.065
  1
SCALE
  7
Roman
100
AcDbText
  0
LINE
  5
98
330
75
100
AcDbEntity
  8
Title Block
100
AcDbLine
 10
7.0
 20
0.38
 30
0.0
 11
7.0
 21
0.63
 31
0.0
  0
TEXT
  5
99
330
75
100
AcDbEntity
  8
Title Block
100
AcDbText
 10
6.448900000000008
 20
0.8958999999999999
 30
0.0
 40
0.065
  1
FSCM NO.
  7
Roman
100
AcDbText
  0
LINE
  5
9A
330
75
100
AcDbEntity
  8
Title Block
100
AcDbLine
 10
6.379999999999995
 20
0.63
 30
0.0
 11
6.379999999999995
 21
1.01
 31
0.0
  0
TEXT
  5
9B
330
75
100
AcDbEntity
  8
Title Block
100
AcDbText
 10
7.570999999999997
 20
0.8958999999999999
 30
0.0
 40
0.065
  1
DWG NO.
  7
Roman
100
AcDbText
  0
LINE
  5
9C
330
75
100
AcDbEntity
  8
Title Block
100
AcDbLine
 10
7.5
 20
0.63
 30
0.0
 11
7.5
 21
1.01
 31
0.0
  0
LINE
  5
9D
330
75
100
AcDbEntity
  8
Title Block
100
AcDbLine
 10
8.5
 20
0.38
 30
0.0
 11
8.5
 21
0.63
 31
0.0
  0
TEXT
  5
9E
330
75
100
AcDbEntity
  8
Title Block
100
AcDbText
 10
9.950500000000003
 20
0.8958999999999999
 30
0.0
 40
0.065
  1
REV
  7
Roman
100
AcDbText
  0
LINE
  5
9F
330
75
100
AcDbEntity
  8
Title Block
100
AcDbLine
 10
9.870000000000002
 20
0.63
 30
0.0
 11
9.870000000000002
 21
1.01
 31
0.0
  0
TEXT
  5
A0
330
75
100
AcDbEntity
  8
Title Block
100
AcDbText
 10
8.697699999999997
 20
7.2103
 30
0.0
 40
0.065
  1
DATE
  7
Roman
100
AcDbText
  0
TEXT
  5
A1
330
75
100
AcDbEntity
  8
Title Block
100
AcDbText
 10
6.632000000000005
 20
7.2103
 30
0.0
 40
0.065
  1
DESCRIPTION
  7
Roman
100
AcDbText
  0
LINE
  5
A2
330
75
100
AcDbEntity
  8
Title Block
100
AcDbLine
 10
5.629999999999995
 20
7.12
 30
0.0
 11
5.629999999999995
 21
7.37
 31
0.0
  0
TEXT
  5
A3
330
75
100
AcDbEntity
  8
Title Block
100
AcDbText
 10
5.330099999999987
 20
7.2103
 30
0.0
 40
0.065
  1
REV
  7
Roman
100
AcDbText
  0
TEXT
  5
A4
330
75
100
AcDbEntity
  8
Title Block
100
AcDbText
 10
7.460199999999987
 20
7.452499999999997
 30
0.0
 40
0.065
  1
REVISIONS
  7
Roman
100
AcDbText
  0
LINE
  5
A5
330
75
100
AcDbEntity
  8
Title Block
100
AcDbLine
 10
8.370000000000002
 20
7.12
 30
0.0
 11
8.370000000000002
 21
7.37
 31
0.0
  0
LWPOLYLINE
  5
A6
330
75
100
AcDbEntity
  8
Title Block
100
AcDbPolyline
 90
        2
 70
     0
 43
0.02
 10
10.5
 20
3.999999999999998
 10
10.4
 20
3.999999999999998
  0
TEXT
  5
A7
330
75
100
AcDbEntity
  8
Title Block
100
AcDbText
 10
9.491399999999996
 20
7.2103
 30
0.0
 40
0.065
  1
APPROVED
  7
Roman
100
AcDbText
  0
LINE
  5
A8
330
75
100
AcDbEntity
  8
Title Block
100
AcDbLine
 10
9.25
 20
7.12
 30
0.0
 11
9.25
 21
7.37
 31
0.0
  0
ATTDEF
  5
A9
330
75
100
AcDbEntity
  8
0
 62
     0
100
AcDbText
 10
-0.05
 20
5.5
 30
0.0
 40
0.15
  1

 50
90.0
  7
Roman
100
AcDbAttributeDefinition
  3
File name:
  2
FNAME
 70
     8
  0
ATTDEF
  5
AA
330
75
100
AcDbEntity
  8
0
 62
     0
100
AcDbText
 10
-0.05
 20
3.0
 30
0.0
 40
0.15
  1

 50
90.0
  7
Roman
100
AcDbAttributeDefinition
  3
Revision date:
  2
REVDATE
 70
     8
  0
ATTDEF
  5
AB
330
75
100
AcDbEntity
  8
0
 62
     0
100
AcDbText
 10
-0.05
 20
0.0
 30
0.0
 40
0.15
  1

 50
90.0
  7
Roman
100
AcDbAttributeDefinition
  3
Author:
  2
USER
 70
     8
  0
ENDBLK
  5
AD
330
75
100
AcDbEntity
  8
0
100
AcDbBlockEnd
  0
BLOCK
  5
F2
330
BF
100
AcDbEntity
  8
0
100
AcDbBlockBegin
  2
ANSI B title block
 70
     2
 10
0.0
 20
0.0
 30
0.0
  3
ANSI B title block
  1

  4
ANSI B title block and attributes
  0
LINE
  5
C0
330
BF
100
AcDbEntity
  8
Title Block
100
AcDbLine
 10
0.0
 20
0.0
 30
0.0
 11
16.0
 21
0.0
 31
0.0
  0
LINE
  5
C1
330
BF
100
AcDbEntity
  8
Title Block
100
AcDbLine
 10
16.0
 20
10.0
 30
0.0
 11
0.0
 21
10.0
 31
0.0
  0
LINE
  5
C2
330
BF
100
AcDbEntity
  8
Title Block
100
AcDbLine
 10
0.6200000000000046
 20
0.38
 30
0.0
 11
15.37999999999999
 21
0.38
 31
0.0
  0
LINE
  5
C3
330
BF
100
AcDbEntity
  8
Title Block
100
AcDbLine
 10
15.37999999999999
 20
9.619999999999999
 30
0.0
 11
0.6200000000000046
 21
9.619999999999999
 31
0.0
  0
SOLID
  5
C4
330
BF
100
AcDbEntity
  8
Title Block
100
AcDbTrace
 10
7.849999999999994
 20
0.23
 30
0.0
 11
8.150000000000002
 21
0.23
 31
0.0
 12
8.0
 22
0.38
 32
0.0
 13
8.0
 23
0.38
 33
0.0
  0
SOLID
  5
C5
330
BF
100
AcDbEntity
  8
Title Block
100
AcDbTrace
 10
7.849999999999994
 20
9.769999999999999
 30
0.0
 11
8.150000000000002
 21
9.769999999999999
 31
0.0
 12
8.0
 22
9.619999999999999
 32
0.0
 13
8.0
 23
9.619999999999999
 33
0.0
  0
LINE
  5
C6
330
BF
100
AcDbEntity
  8
Title Block
100
AcDbLine
 10
0.0
 20
10.0
 30
0.0
 11
0.0
 21
0.0
 31
0.0
  0
LINE
  5
C7
330
BF
100
AcDbEntity
  8
Title Block
100
AcDbLine
 10
0.6200000000000046
 20
9.619999999999999
 30
0.0
 11
0.6200000000000046
 21
0.38
 31
0.0
  0
SOLID
  5
C8
330
BF
100
AcDbEntity
  8
Title Block
100
AcDbTrace
 10
0.4800000000000039
 20
4.849999999999997
 30
0.0
 11
0.4800000000000039
 21
5.15
 31
0.0
 12
0.6200000000000046
 22
5.0
 32
0.0
 13
0.6200000000000046
 23
5.0
 33
0.0
  0
ATTDEF
  5
C9
330
BF
100
AcDbEntity
  8
0
 62
     0
100
AcDbText
 10
-0.05
 20
0.0
 30
0.0
 40
0.15
  1

 50
90.0
  7
Roman
100
AcDbAttributeDefinition
  3
Author:
  2
USER
 70
     8
  0
ATTDEF
  5
CA
330
BF
100
AcDbEntity
  8
0
 62
     0
100
AcDbText
 10
-0.05
 20
3.0
 30
0.0
 40
0.15
  1

 50
90.0
  7
Roman
100
AcDbAttributeDefinition
  3
Revision date:
  2
REVDATE
 70
     8
  0
LWPOLYLINE
  5
CB
330
BF
100
AcDbEntity
  8
Title Block
100
AcDbPolyline
 90
        2
 70
     0
 43
0.02
 10
8.0
 20
0.13
 10
8.0
 20
0.23
  0
ATTDEF
  5
CC
330
BF
100
AcDbEntity
  8
0
 62
     0
100
AcDbText
 10
-0.05
 20
6.0
 30
0.0
 40
0.15
  1

 50
90.0
  7
Roman
100
AcDbAttributeDefinition
  3
File name:
  2
FNAME
 70
     8
  0
LWPOLYLINE
  5
CD
330
BF
100
AcDbEntity
  8
Title Block
100
AcDbPolyline
 90
        2
 70
     0
 43
0.02
 10
0.3799999999999954
 20
5.0
 10
0.4800000000000039
 20
5.0
  0
LWPOLYLINE
  5
CE
330
BF
100
AcDbEntity
  8
Title Block
100
AcDbPolyline
 90
        2
 70
     0
 43
0.02
 10
8.0
 20
9.869999999999999
 10
8.0
 20
9.769999999999999
  0
LINE
  5
CF
330
BF
100
AcDbEntity
  8
Title Block
100
AcDbLine
 10
16.0
 20
0.0
 30
0.0
 11
16.0
 21
10.0
 31
0.0
  0
LINE
  5
D0
330
BF
100
AcDbEntity
  8
Title Block
100
AcDbLine
 10
15.37999999999999
 20
0.38
 30
0.0
 11
15.37999999999999
 21
9.619999999999999
 31
0.0
  0
SOLID
  5
D1
330
BF
100
AcDbEntity
  8
Title Block
100
AcDbTrace
 10
15.51999999999999
 20
4.849999999999997
 30
0.0
 11
15.51999999999999
 21
5.15
 31
0.0
 12
15.37999999999999
 22
5.0
 32
0.0
 13
15.37999999999999
 23
5.0
 33
0.0
  0
LINE
  5
D2
330
BF
100
AcDbEntity
  8
Title Block
100
AcDbLine
 10
9.129999999999997
 20
2.129999999999999
 30
0.0
 11
15.37999999999999
 21
2.129999999999999
 31
0.0
  0
LINE
  5
D3
330
BF
100
AcDbEntity
  8
Title Block
100
AcDbLine
 10
9.129999999999997
 20
1.01
 30
0.0
 11
15.37999999999999
 21
1.01
 31
0.0
  0
LINE
  5
D4
330
BF
100
AcDbEntity
  8
Title Block
100
AcDbLine
 10
11.12999999999999
 20
0.63
 30
0.0
 11
15.37999999999999
 21
0.63
 31
0.0
  0
LINE
  5
D5
330
BF
100
AcDbEntity
  8
Title Block
100
AcDbLine
 10
11.12999999999999
 20
1.629999999999999
 30
0.0
 11
15.37999999999999
 21
1.629999999999999
 31
0.0
  0
LINE
  5
D6
330
BF
100
AcDbEntity
  8
Title Block
100
AcDbLine
 10
9.129999999999997
 20
0.38
 30
0.0
 11
9.129999999999997
 21
2.129999999999999
 31
0.0
  0
LINE
  5
D7
330
BF
100
AcDbEntity
  8
Title Block
100
AcDbLine
 10
11.12999999999999
 20
0.38
 30
0.0
 11
11.12999999999999
 21
2.129999999999999
 31
0.0
  0
LINE
  5
D8
330
BF
100
AcDbEntity
  8
Title Block
100
AcDbLine
 10
9.129999999999997
 20
0.695
 30
0.0
 11
11.12999999999999
 21
0.695
 31
0.0
  0
TEXT
  5
D9
330
BF
100
AcDbEntity
  8
Title Block
100
AcDbText
 10
11.5789
 20
0.8958999999999999
 30
0.0
 40
0.065
  1
FSCM NO.
  7
Roman
100
AcDbText
  0
TEXT
  5
DA
330
BF
100
AcDbEntity
  8
Title Block
100
AcDbText
 10
11.1823
 20
0.4725
 30
0.0
 40
0.065
  1
SCALE
  7
Roman
100
AcDbText
  0
TEXT
  5
DB
330
BF
100
AcDbEntity
  8
Title Block
100
AcDbText
 10
11.2179
 20
0.8958999999999999
 30
0.0
 40
0.065
  1
SIZE
  7
Roman
100
AcDbText
  0
LINE
  5
DC
330
BF
100
AcDbEntity
  8
Title Block
100
AcDbLine
 10
11.51
 20
0.63
 30
0.0
 11
11.51
 21
1.01
 31
0.0
  0
LINE
  5
DD
330
BF
100
AcDbEntity
  8
Title Block
100
AcDbLine
 10
12.12999999999999
 20
0.38
 30
0.0
 11
12.12999999999999
 21
0.63
 31
0.0
  0
TEXT
  5
DE
330
BF
100
AcDbEntity
  8
Title Block
100
AcDbText
 10
12.70099999999999
 20
0.8958999999999999
 30
0.0
 40
0.065
  1
DWG NO.
  7
Roman
100
AcDbText
  0
LINE
  5
DF
330
BF
100
AcDbEntity
  8
Title Block
100
AcDbLine
 10
12.62999999999999
 20
0.63
 30
0.0
 11
12.62999999999999
 21
1.01
 31
0.0
  0
LINE
  5
E0
330
BF
100
AcDbEntity
  8
Title Block
100
AcDbLine
 10
13.62999999999999
 20
0.38
 30
0.0
 11
13.62999999999999
 21
0.63
 31
0.0
  0
TEXT
  5
E1
330
BF
100
AcDbEntity
  8
Title Block
100
AcDbText
 10
13.6828
 20
0.4725
 30
0.0
 40
0.065
  1
SHEET
  7
Roman
100
AcDbText
  0
LINE
  5
E2
330
BF
100
AcDbEntity
  8
Title Block
100
AcDbLine
 10
15.0
 20
0.63
 30
0.0
 11
15.0
 21
1.01
 31
0.0
  0
TEXT
  5
E3
330
BF
100
AcDbEntity
  8
Title Block
100
AcDbText
 10
15.0805
 20
0.8958999999999999
 30
0.0
 40
0.065
  1
REV
  7
Roman
100
AcDbText
  0
LINE
  5
E4
330
BF
100
AcDbEntity
  8
Title Block
100
AcDbLine
 10
9.879999999999997
 20
9.369999999999999
 30
0.0
 11
15.37999999999999
 21
9.369999999999999
 31
0.0
  0
LINE
  5
E5
330
BF
100
AcDbEntity
  8
Title Block
100
AcDbLine
 10
9.879999999999997
 20
9.119999999999999
 30
0.0
 11
15.37999999999999
 21
9.119999999999999
 31
0.0
  0
LINE
  5
E6
330
BF
100
AcDbEntity
  8
Title Block
100
AcDbLine
 10
9.879999999999997
 20
9.619999999999999
 30
0.0
 11
9.879999999999997
 21
8.572699999999999
 31
0.0
  0
LINE
  5
E7
330
BF
100
AcDbEntity
  8
Title Block
100
AcDbLine
 10
10.37999999999999
 20
9.119999999999999
 30
0.0
 11
10.37999999999999
 21
9.369999999999999
 31
0.0
  0
TEXT
  5
E8
330
BF
100
AcDbEntity
  8
Title Block
100
AcDbText
 10
9.988699999999994
 20
9.2103
 30
0.0
 40
0.065
  1
ZONE
  7
Roman
100
AcDbText
  0
TEXT
  5
E9
330
BF
100
AcDbEntity
  8
Title Block
100
AcDbText
 10
10.46009999999999
 20
9.2103
 30
0.0
 40
0.065
  1
REV
  7
Roman
100
AcDbText
  0
TEXT
  5
EA
330
BF
100
AcDbEntity
  8
Title Block
100
AcDbText
 10
11.762
 20
9.2103
 30
0.0
 40
0.065
  1
DESCRIPTION
  7
Roman
100
AcDbText
  0
LINE
  5
EB
330
BF
100
AcDbEntity
  8
Title Block
100
AcDbLine
 10
10.76
 20
9.119999999999999
 30
0.0
 11
10.76
 21
9.369999999999999
 31
0.0
  0
TEXT
  5
EC
330
BF
100
AcDbEntity
  8
Title Block
100
AcDbText
 10
12.59019999999999
 20
9.4525
 30
0.0
 40
0.065
  1
REVISIONS
  7
Roman
100
AcDbText
  0
LWPOLYLINE
  5
ED
330
BF
100
AcDbEntity
  8
Title Block
100
AcDbPolyline
 90
        2
 70
     0
 43
0.02
 10
15.62
 20
5.0
 10
15.51999999999999
 20
5.0
  0
TEXT
  5
EE
330
BF
100
AcDbEntity
  8
Title Block
100
AcDbText
 10
14.62139999999999
 20
9.2103
 30
0.0
 40
0.065
  1
APPROVED
  7
Roman
100
AcDbText
  0
LINE
  5
EF
330
BF
100
AcDbEntity
  8
Title Block
100
AcDbLine
 10
13.5
 20
9.119999999999999
 30
0.0
 11
13.5
 21
9.369999999999999
 31
0.0
  0
LINE
  5
F0
330
BF
100
AcDbEntity
  8
Title Block
100
AcDbLine
 10
14.37999999999999
 20
9.119999999999999
 30
0.0
 11
14.37999999999999
 21
9.369999999999999
 31
0.0
  0
TEXT
  5
F1
330
BF
100
AcDbEntity
  8
Title Block
100
AcDbText
 10
13.82769999999999
 20
9.2103
 30
0.0
 40
0.065
  1
DATE
  7
Roman
100
AcDbText
  0
ENDBLK
  5
F3
330
BF
100
AcDbEntity
  8
0
100
AcDbBlockEnd
  0
BLOCK
  5
155
330
10A
100
AcDbEntity
  8
0
100
AcDbBlockBegin
  2
ANSI C Title Block
 70
     2
 10
0.0
 20
0.0
 30
0.0
  3
ANSI C Title Block
  1

  4
ANSI C title block and attributes
  0
LINE
  5
10B
330
10A
100
AcDbEntity
  8
Title Block
100
AcDbLine
 10
0.0
 20
0.0
 30
0.0
 11
21.0
 21
0.0
 31
0.0
  0
LINE
  5
10C
330
10A
100
AcDbEntity
  8
Title Block
100
AcDbLine
 10
21.0
 20
16.0
 30
0.0
 11
0.0
 21
16.0
 31
0.0
  0
LINE
  5
10D
330
10A
100
AcDbEntity
  8
Title Block
100
AcDbLine
 10
0.5
 20
0.75
 30
0.0
 11
20.5
 21
0.75
 31
0.0
  0
LINE
  5
10E
330
10A
100
AcDbEntity
  8
Title Block
100
AcDbLine
 10
20.5
 20
15.25
 30
0.0
 11
0.5
 21
15.25
 31
0.0
  0
SOLID
  5
10F
330
10A
100
AcDbEntity
  8
Title Block
100
AcDbTrace
 10
10.34999999999999
 20
0.6000000000000001
 30
0.0
 11
10.65
 21
0.6000000000000001
 31
0.0
 12
10.5
 22
0.75
 32
0.0
 13
10.5
 23
0.75
 33
0.0
  0
SOLID
  5
110
330
10A
100
AcDbEntity
  8
Title Block
100
AcDbTrace
 10
10.34999999999999
 20
15.4
 30
0.0
 11
10.65
 21
15.4
 31
0.0
 12
10.5
 22
15.25
 32
0.0
 13
10.5
 23
15.25
 33
0.0
  0
LINE
  5
111
330
10A
100
AcDbEntity
  8
Title Block
100
AcDbLine
 10
0.0
 20
16.0
 30
0.0
 11
0.0
 21
0.0
 31
0.0
  0
LINE
  5
112
330
10A
100
AcDbEntity
  8
Title Block
100
AcDbLine
 10
0.5
 20
15.25
 30
0.0
 11
0.5
 21
0.75
 31
0.0
  0
SOLID
  5
113
330
10A
100
AcDbEntity
  8
Title Block
100
AcDbTrace
 10
0.3499999999999943
 20
7.849999999999997
 30
0.0
 11
0.3499999999999943
 21
8.15
 31
0.0
 12
0.5
 22
8.0
 32
0.0
 13
0.5
 23
8.0
 33
0.0
  0
TEXT
  5
114
330
10A
100
AcDbEntity
  8
Title Block
100
AcDbText
 10
0.1428571428571428
 20
2.0
 30
0.0
 40
0.25
  1
A
  7
Roman
 72
     1
 11
0.25
 21
2.125
 31
0.0
100
AcDbText
 73
     2
  0
ATTDEF
  5
115
330
10A
100
AcDbEntity
  8
0
 62
     0
100
AcDbText
 10
-0.05
 20
0.0
 30
0.0
 40
0.15
  1

 50
90.0
  7
Roman
100
AcDbAttributeDefinition
  3
Author:
  2
USER
 70
     8
  0
TEXT
  5
116
330
10A
100
AcDbEntity
  8
Title Block
100
AcDbText
 10
2.625
 20
0.375
 30
0.0
 40
0.25
  1
4
  7
Roman
 72
     1
 11
2.75
 21
0.5
 31
0.0
100
AcDbText
 73
     2
  0
TEXT
  5
117
330
10A
100
AcDbEntity
  8
Title Block
100
AcDbText
 10
0.119047619047619
 20
6.0
 30
0.0
 40
0.25
  1
B
  7
Roman
 72
     1
 11
0.25
 21
6.125
 31
0.0
100
AcDbText
 73
     2
  0
LINE
  5
118
330
10A
100
AcDbEntity
  8
Title Block
100
AcDbLine
 10
0.125
 20
4.0
 30
0.0
 11
0.5
 21
4.0
 31
0.0
  0
ATTDEF
  5
119
330
10A
100
AcDbEntity
  8
0
 62
     0
100
AcDbText
 10
-0.05
 20
3.0
 30
0.0
 40
0.15
  1

 50
90.0
  7
Roman
100
AcDbAttributeDefinition
  3
Revision date:
  2
REVDATE
 70
     8
  0
ATTDEF
  5
11A
330
10A
100
AcDbEntity
  8
0
 62
     0
100
AcDbText
 10
-0.05
 20
6.0
 30
0.0
 40
0.15
  1

 50
90.0
  7
Roman
100
AcDbAttributeDefinition
  3
File name:
  2
FNAME
 70
     8
  0
LINE
  5
11B
330
10A
100
AcDbEntity
  8
Title Block
100
AcDbLine
 10
5.249999999999995
 20
0.375
 30
0.0
 11
5.249999999999995
 21
0.75
 31
0.0
  0
TEXT
  5
11C
330
10A
100
AcDbEntity
  8
Title Block
100
AcDbText
 10
7.880952380952381
 20
0.375
 30
0.0
 40
0.25
  1
3
  7
Roman
 72
     1
 11
8.0
 21
0.5
 31
0.0
100
AcDbText
 73
     2
  0
LWPOLYLINE
  5
11D
330
10A
100
AcDbEntity
  8
Title Block
100
AcDbPolyline
 90
        2
 70
     0
 43
0.02
 10
10.5
 20
0.5
 10
10.5
 20
0.6000000000000001
  0
LINE
  5
11E
330
10A
100
AcDbEntity
  8
Title Block
100
AcDbLine
 10
0.125
 20
12.0
 30
0.0
 11
0.5
 21
12.0
 31
0.0
  0
TEXT
  5
11F
330
10A
100
AcDbEntity
  8
Title Block
100
AcDbText
 10
0.125
 20
9.75
 30
0.0
 40
0.25
  1
C
  7
Roman
 72
     1
 11
0.25
 21
9.875
 31
0.0
100
AcDbText
 73
     2
  0
LWPOLYLINE
  5
120
330
10A
100
AcDbEntity
  8
Title Block
100
AcDbPolyline
 90
        2
 70
     0
 43
0.02
 10
0.25
 20
8.0
 10
0.3499999999999943
 20
8.0
  0
TEXT
  5
121
330
10A
100
AcDbEntity
  8
Title Block
100
AcDbText
 10
0.1190476190476191
 20
13.75
 30
0.0
 40
0.25
  1
D
  7
Roman
 72
     1
 11
0.25
 21
13.875
 31
0.0
100
AcDbText
 73
     2
  0
TEXT
  5
122
330
10A
100
AcDbEntity
  8
Title Block
100
AcDbText
 10
2.625
 20
15.375
 30
0.0
 40
0.25
  1
4
  7
Roman
 72
     1
 11
2.75
 21
15.5
 31
0.0
100
AcDbText
 73
     2
  0
LINE
  5
123
330
10A
100
AcDbEntity
  8
Title Block
100
AcDbLine
 10
5.249999999999995
 20
15.25
 30
0.0
 11
5.249999999999995
 21
15.625
 31
0.0
  0
TEXT
  5
124
330
10A
100
AcDbEntity
  8
Title Block
100
AcDbText
 10
7.880952380952381
 20
15.375
 30
0.0
 40
0.25
  1
3
  7
Roman
 72
     1
 11
8.0
 21
15.5
 31
0.0
100
AcDbText
 73
     2
  0
LWPOLYLINE
  5
125
330
10A
100
AcDbEntity
  8
Title Block
100
AcDbPolyline
 90
        2
 70
     0
 43
0.02
 10
10.5
 20
15.5
 10
10.5
 20
15.4
  0
LINE
  5
126
330
10A
100
AcDbEntity
  8
Title Block
100
AcDbLine
 10
21.0
 20
0.0
 30
0.0
 11
21.0
 21
16.0
 31
0.0
  0
LINE
  5
127
330
10A
100
AcDbEntity
  8
Title Block
100
AcDbLine
 10
20.5
 20
0.75
 30
0.0
 11
20.5
 21
15.25
 31
0.0
  0
SOLID
  5
128
330
10A
100
AcDbEntity
  8
Title Block
100
AcDbTrace
 10
20.65000000000001
 20
7.849999999999997
 30
0.0
 11
20.65000000000001
 21
8.15
 31
0.0
 12
20.5
 22
8.0
 32
0.0
 13
20.5
 23
8.0
 33
0.0
  0
LINE
  5
129
330
10A
100
AcDbEntity
  8
Title Block
100
AcDbLine
 10
14.25
 20
2.5
 30
0.0
 11
20.5
 21
2.5
 31
0.0
  0
LINE
  5
12A
330
10A
100
AcDbEntity
  8
Title Block
100
AcDbLine
 10
14.25
 20
1.379999999999999
 30
0.0
 11
20.5
 21
1.379999999999999
 31
0.0
  0
LINE
  5
12B
330
10A
100
AcDbEntity
  8
Title Block
100
AcDbLine
 10
16.25
 20
1.0
 30
0.0
 11
20.5
 21
1.0
 31
0.0
  0
LINE
  5
12C
330
10A
100
AcDbEntity
  8
Title Block
100
AcDbLine
 10
16.25
 20
2.0
 30
0.0
 11
20.5
 21
2.0
 31
0.0
  0
TEXT
  5
12D
330
10A
100
AcDbEntity
  8
Title Block
100
AcDbText
 10
12.88095238095238
 20
0.375
 30
0.0
 40
0.25
  1
2
  7
Roman
 72
     1
 11
13.0
 21
0.5
 31
0.0
100
AcDbText
 73
     2
  0
LINE
  5
12E
330
10A
100
AcDbEntity
  8
Title Block
100
AcDbLine
 10
14.25
 20
1.064999999999999
 30
0.0
 11
16.25
 21
1.064999999999999
 31
0.0
  0
LINE
  5
12F
330
10A
100
AcDbEntity
  8
Title Block
100
AcDbLine
 10
14.25
 20
0.75
 30
0.0
 11
14.25
 21
2.5
 31
0.0
  0
LINE
  5
130
330
10A
100
AcDbEntity
  8
Title Block
100
AcDbLine
 10
15.75
 20
0.375
 30
0.0
 11
15.75
 21
0.75
 31
0.0
  0
LINE
  5
131
330
10A
100
AcDbEntity
  8
Title Block
100
AcDbLine
 10
16.25
 20
0.75
 30
0.0
 11
16.25
 21
2.5
 31
0.0
  0
LINE
  5
132
330
10A
100
AcDbEntity
  8
Title Block
100
AcDbLine
 10
16.62999999999999
 20
1.0
 30
0.0
 11
16.62999999999999
 21
1.379999999999999
 31
0.0
  0
TEXT
  5
133
330
10A
100
AcDbEntity
  8
Title Block
100
AcDbText
 10
16.3023
 20
0.8425
 30
0.0
 40
0.065
  1
SCALE
  7
Roman
100
AcDbText
  0
LINE
  5
134
330
10A
100
AcDbEntity
  8
Title Block
100
AcDbLine
 10
17.25
 20
0.75
 30
0.0
 11
17.25
 21
1.0
 31
0.0
  0
TEXT
  5
135
330
10A
100
AcDbEntity
  8
Title Block
100
AcDbText
 10
16.3379
 20
1.2659
 30
0.0
 40
0.065
  1
SIZE
  7
Roman
100
AcDbText
  0
TEXT
  5
136
330
10A
100
AcDbEntity
  8
Title Block
100
AcDbText
 10
16.69889999999999
 20
1.2659
 30
0.0
 40
0.065
  1
FSCM NO.
  7
Roman
100
AcDbText
  0
LINE
  5
137
330
10A
100
AcDbEntity
  8
Title Block
100
AcDbLine
 10
17.75
 20
1.0
 30
0.0
 11
17.75
 21
1.379999999999999
 31
0.0
  0
TEXT
  5
138
330
10A
100
AcDbEntity
  8
Title Block
100
AcDbText
 10
18.14880952380952
 20
0.375
 30
0.0
 40
0.25
  1
1
  7
Roman
 72
     1
 11
18.25
 21
0.5
 31
0.0
100
AcDbText
 73
     2
  0
LINE
  5
139
330
10A
100
AcDbEntity
  8
Title Block
100
AcDbLine
 10
18.75
 20
0.75
 30
0.0
 11
18.75
 21
1.0
 31
0.0
  0
TEXT
  5
13A
330
10A
100
AcDbEntity
  8
Title Block
100
AcDbText
 10
18.8028
 20
0.8425
 30
0.0
 40
0.065
  1
SHEET
  7
Roman
100
AcDbText
  0
TEXT
  5
13B
330
10A
100
AcDbEntity
  8
Title Block
100
AcDbText
 10
17.82099999999999
 20
1.2659
 30
0.0
 40
0.065
  1
DWG NO.
  7
Roman
100
AcDbText
  0
LINE
  5
13C
330
10A
100
AcDbEntity
  8
Title Block
100
AcDbLine
 10
20.12
 20
1.0
 30
0.0
 11
20.12
 21
1.379999999999999
 31
0.0
  0
TEXT
  5
13D
330
10A
100
AcDbEntity
  8
Title Block
100
AcDbText
 10
20.20050000000001
 20
1.2659
 30
0.0
 40
0.065
  1
REV
  7
Roman
100
AcDbText
  0
TEXT
  5
13E
330
10A
100
AcDbEntity
  8
Title Block
100
AcDbText
 10
20.64285714285714
 20
2.0
 30
0.0
 40
0.25
  1
A
  7
Roman
 72
     1
 11
20.75
 21
2.125
 31
0.0
100
AcDbText
 73
     2
  0
LINE
  5
13F
330
10A
100
AcDbEntity
  8
Title Block
100
AcDbLine
 10
20.5
 20
4.0
 30
0.0
 11
20.875
 21
4.0
 31
0.0
  0
TEXT
  5
140
330
10A
100
AcDbEntity
  8
Title Block
100
AcDbText
 10
20.61904761904762
 20
6.0
 30
0.0
 40
0.25
  1
B
  7
Roman
 72
     1
 11
20.75
 21
6.125
 31
0.0
100
AcDbText
 73
     2
  0
LINE
  5
141
330
10A
100
AcDbEntity
  8
Title Block
100
AcDbLine
 10
15.0
 20
15.0
 30
0.0
 11
20.5
 21
15.0
 31
0.0
  0
LINE
  5
142
330
10A
100
AcDbEntity
  8
Title Block
100
AcDbLine
 10
15.0
 20
14.75
 30
0.0
 11
20.5
 21
14.75
 31
0.0
  0
TEXT
  5
143
330
10A
100
AcDbEntity
  8
Title Block
100
AcDbText
 10
12.88095238095238
 20
15.375
 30
0.0
 40
0.25
  1
2
  7
Roman
 72
     1
 11
13.0
 21
15.5
 31
0.0
100
AcDbText
 73
     2
  0
LINE
  5
144
330
10A
100
AcDbEntity
  8
Title Block
100
AcDbLine
 10
15.0
 20
15.25
 30
0.0
 11
15.0
 21
14.2027
 31
0.0
  0
LINE
  5
145
330
10A
100
AcDbEntity
  8
Title Block
100
AcDbLine
 10
15.75
 20
15.25
 30
0.0
 11
15.75
 21
15.625
 31
0.0
  0
TEXT
  5
146
330
10A
100
AcDbEntity
  8
Title Block
100
AcDbText
 10
15.1087
 20
14.8403
 30
0.0
 40
0.065
  1
ZONE
  7
Roman
100
AcDbText
  0
LINE
  5
147
330
10A
100
AcDbEntity
  8
Title Block
100
AcDbLine
 10
15.5
 20
14.75
 30
0.0
 11
15.5
 21
15.0
 31
0.0
  0
TEXT
  5
148
330
10A
100
AcDbEntity
  8
Title Block
100
AcDbText
 10
15.5801
 20
14.8403
 30
0.0
 40
0.065
  1
REV
  7
Roman
100
AcDbText
  0
LINE
  5
149
330
10A
100
AcDbEntity
  8
Title Block
100
AcDbLine
 10
15.87999999999999
 20
14.75
 30
0.0
 11
15.87999999999999
 21
15.0
 31
0.0
  0
TEXT
  5
14A
330
10A
100
AcDbEntity
  8
Title Block
100
AcDbText
 10
16.882
 20
14.8403
 30
0.0
 40
0.065
  1
DESCRIPTION
  7
Roman
100
AcDbText
  0
LWPOLYLINE
  5
14B
330
10A
100
AcDbEntity
  8
Title Block
100
AcDbPolyline
 90
        2
 70
     0
 43
0.02
 10
20.75
 20
8.0
 10
20.65000000000001
 20
8.0
  0
TEXT
  5
14C
330
10A
100
AcDbEntity
  8
Title Block
100
AcDbText
 10
20.625
 20
9.75
 30
0.0
 40
0.25
  1
C
  7
Roman
 72
     1
 11
20.75
 21
9.875
 31
0.0
100
AcDbText
 73
     2
  0
LINE
  5
14D
330
10A
100
AcDbEntity
  8
Title Block
100
AcDbLine
 10
20.5
 20
12.0
 30
0.0
 11
20.875
 21
12.0
 31
0.0
  0
TEXT
  5
14E
330
10A
100
AcDbEntity
  8
Title Block
100
AcDbText
 10
17.7102
 20
15.0825
 30
0.0
 40
0.065
  1
REVISIONS
  7
Roman
100
AcDbText
  0
TEXT
  5
14F
330
10A
100
AcDbEntity
  8
Title Block
100
AcDbText
 10
18.14880952380952
 20
15.375
 30
0.0
 40
0.25
  1
1
  7
Roman
 72
     1
 11
18.25
 21
15.5
 31
0.0
100
AcDbText
 73
     2
  0
LINE
  5
150
330
10A
100
AcDbEntity
  8
Title Block
100
AcDbLine
 10
18.62
 20
14.75
 30
0.0
 11
18.62
 21
15.0
 31
0.0
  0
TEXT
  5
151
330
10A
100
AcDbEntity
  8
Title Block
100
AcDbText
 10
18.9477
 20
14.8403
 30
0.0
 40
0.065
  1
DATE
  7
Roman
100
AcDbText
  0
TEXT
  5
152
330
10A
100
AcDbEntity
  8
Title Block
100
AcDbText
 10
20.61904761904762
 20
13.75
 30
0.0
 40
0.25
  1
D
  7
Roman
 72
     1
 11
20.75
 21
13.875
 31
0.0
100
AcDbText
 73
     2
  0
TEXT
  5
153
330
10A
100
AcDbEntity
  8
Title Block
100
AcDbText
 10
19.7414
 20
14.8403
 30
0.0
 40
0.065
  1
APPROVED
  7
Roman
100
AcDbText
  0
LINE
  5
154
330
10A
100
AcDbEntity
  8
Title Block
100
AcDbLine
 10
19.5
 20
14.75
 30
0.0
 11
19.5
 21
15.0
 31
0.0
  0
ENDBLK
  5
156
330
10A
100
AcDbEntity
  8
0
100
AcDbBlockEnd
  0
BLOCK
  5
1C6
330
164
100
AcDbEntity
  8
0
100
AcDbBlockBegin
  2
ANSI D Title Block
 70
     2
 10
0.0
 20
0.0
 30
0.0
  3
ANSI D Title Block
  1

  4
ANSI D title block and attributes
  0
LINE
  5
165
330
164
100
AcDbEntity
  8
Title Block
100
AcDbLine
 10
0.0
 20
0.0
 30
0.0
 11
32.5
 21
0.0
 31
0.0
  0
LINE
  5
166
330
164
100
AcDbEntity
  8
Title Block
100
AcDbLine
 10
32.5
 20
21.0
 30
0.0
 11
0.0
 21
21.0
 31
0.0
  0
LINE
  5
167
330
164
100
AcDbEntity
  8
Title Block
100
AcDbLine
 10
1.0
 20
0.5
 30
0.0
 11
31.5
 21
0.5
 31
0.0
  0
LINE
  5
168
330
164
100
AcDbEntity
  8
Title Block
100
AcDbLine
 10
31.5
 20
20.5
 30
0.0
 11
1.0
 21
20.5
 31
0.0
  0
SOLID
  5
169
330
164
100
AcDbEntity
  8
Title Block
100
AcDbTrace
 10
16.04999999999999
 20
0.3
 30
0.0
 11
16.45
 21
0.3
 31
0.0
 12
16.25
 22
0.5
 32
0.0
 13
16.25
 23
0.5
 33
0.0
  0
SOLID
  5
16A
330
164
100
AcDbEntity
  8
Title Block
100
AcDbTrace
 10
16.04999999999999
 20
20.7
 30
0.0
 11
16.45
 21
20.7
 31
0.0
 12
16.25
 22
20.5
 32
0.0
 13
16.25
 23
20.5
 33
0.0
  0
LINE
  5
16B
330
164
100
AcDbEntity
  8
Title Block
100
AcDbLine
 10
0.0
 20
21.0
 30
0.0
 11
0.0
 21
0.0
 31
0.0
  0
LINE
  5
16C
330
164
100
AcDbEntity
  8
Title Block
100
AcDbLine
 10
1.0
 20
20.5
 30
0.0
 11
1.0
 21
0.5
 31
0.0
  0
SOLID
  5
16D
330
164
100
AcDbEntity
  8
Title Block
100
AcDbTrace
 10
0.7999999999999972
 20
10.3
 30
0.0
 11
0.7999999999999972
 21
10.7
 31
0.0
 12
1.0
 22
10.5
 32
0.0
 13
1.0
 23
10.5
 33
0.0
  0
ATTDEF
  5
16E
330
164
100
AcDbEntity
  8
0
 62
     0
380
     1
100
AcDbText
 10
-0.0500000000000001
 20
3.0
 30
0.0
 40
0.15
  1

 50
90.0
  7
Roman
100
AcDbAttributeDefinition
  3
Revision date:
  2
REVDATE
 70
     8
  0
ATTDEF
  5
16F
330
164
100
AcDbEntity
  8
0
 62
     0
380
     1
100
AcDbText
 10
-0.0500000000000001
 20
0.0
 30
0.0
 40
0.15
  1

 50
90.0
  7
Roman
100
AcDbAttributeDefinition
  3
Author:
  2
USER
 70
     8
  0
TEXT
  5
170
330
164
100
AcDbEntity
  8
Title Block
100
AcDbText
 10
2.00595238095238
 20
0.125
 30
0.0
 40
0.25
  1
8
  7
Roman
 72
     1
 11
2.125
 21
0.25
 31
0.0
100
AcDbText
 73
     2
  0
TEXT
  5
171
330
164
100
AcDbEntity
  8
Title Block
100
AcDbText
 10
0.3928571428571428
 20
2.625
 30
0.0
 40
0.25
  1
A
  7
Roman
 72
     1
 11
0.5
 21
2.75
 31
0.0
100
AcDbText
 73
     2
  0
LINE
  5
172
330
164
100
AcDbEntity
  8
Title Block
100
AcDbLine
 10
4.0625
 20
0.5
 30
0.0
 11
4.0625
 21
0.125
 31
0.0
  0
ATTDEF
  5
173
330
164
100
AcDbEntity
  8
0
 62
     0
380
     1
100
AcDbText
 10
-0.0500000000000001
 20
6.0
 30
0.0
 40
0.15
  1

 50
90.0
  7
Roman
100
AcDbAttributeDefinition
  3
File name:
  2
FNAME
 70
     8
  0
LINE
  5
174
330
164
100
AcDbEntity
  8
Title Block
100
AcDbLine
 10
0.5
 20
5.25
 30
0.0
 11
1.0
 21
5.25
 31
0.0
  0
TEXT
  5
175
330
164
100
AcDbEntity
  8
Title Block
100
AcDbText
 10
0.4642857142857116
 20
7.793905052838185
 30
0.0
 40
0.25
  1
B
  7
Roman
 72
     1
 11
0.5952380952380925
 21
7.918905052838185
 31
0.0
100
AcDbText
 73
     2
  0
TEXT
  5
176
330
164
100
AcDbEntity
  8
Title Block
100
AcDbText
 10
6.000000000000001
 20
0.125
 30
0.0
 40
0.25
  1
7
  7
Roman
 72
     1
 11
6.11904761904762
 21
0.25
 31
0.0
100
AcDbText
 73
     2
  0
LINE
  5
177
330
164
100
AcDbEntity
  8
Title Block
100
AcDbLine
 10
8.125
 20
0.5
 30
0.0
 11
8.125
 21
0.125
 31
0.0
  0
TEXT
  5
178
330
164
100
AcDbEntity
  8
Title Block
100
AcDbText
 10
10.0
 20
0.125
 30
0.0
 40
0.25
  1
6
  7
Roman
 72
     1
 11
10.125
 21
0.25
 31
0.0
100
AcDbText
 73
     2
  0
LINE
  5
179
330
164
100
AcDbEntity
  8
Title Block
100
AcDbLine
 10
12.1875
 20
0.5
 30
0.0
 11
12.1875
 21
0.125
 31
0.0
  0
TEXT
  5
17A
330
164
100
AcDbEntity
  8
Title Block
100
AcDbText
 10
14.25
 20
0.125
 30
0.0
 40
0.25
  1
5
  7
Roman
 72
     1
 11
14.36904761904762
 21
0.25
 31
0.0
100
AcDbText
 73
     2
  0
LINE
  5
17B
330
164
100
AcDbEntity
  8
Title Block
100
AcDbLine
 10
16.25
 20
0.125
 30
0.0
 11
16.25
 21
0.5
 31
0.0
  0
LWPOLYLINE
  5
17C
330
164
100
AcDbEntity
  8
Title Block
100
AcDbPolyline
 90
        2
 70
     0
 43
0.02
 10
16.25
 20
0.1
 10
16.25
 20
0.3
  0
LINE
  5
17D
330
164
100
AcDbEntity
  8
Title Block
100
AcDbLine
 10
0.5
 20
10.5
 30
0.0
 11
1.0
 21
10.5
 31
0.0
  0
LWPOLYLINE
  5
17E
330
164
100
AcDbEntity
  8
Title Block
100
AcDbPolyline
 90
        2
 70
     0
 43
0.02
 10
0.6000000000000015
 20
10.5
 10
0.7999999999999972
 20
10.5
  0
LWPOLYLINE
  5
17F
330
164
100
AcDbEntity
  8
Title Block
100
AcDbPolyline
 90
        2
 70
     0
 43
0.02
 10
0.5999999999999872
 20
10.5
 10
0.5999999999999872
 20
10.5
  0
TEXT
  5
180
330
164
100
AcDbEntity
  8
Title Block
100
AcDbText
 10
0.4464285714285714
 20
12.94799471744128
 30
0.0
 40
0.25
  1
C
  7
Roman
 72
     1
 11
0.5714285714285714
 21
13.07299471744128
 31
0.0
100
AcDbText
 73
     2
  0
LINE
  5
181
330
164
100
AcDbEntity
  8
Title Block
100
AcDbLine
 10
0.5
 20
15.75
 30
0.0
 11
1.0
 21
15.75
 31
0.0
  0
LINE
  5
182
330
164
100
AcDbEntity
  8
Title Block
100
AcDbLine
 10
4.0625
 20
20.5
 30
0.0
 11
4.0625
 21
20.875
 31
0.0
  0
TEXT
  5
183
330
164
100
AcDbEntity
  8
Title Block
100
AcDbText
 10
2.00595238095238
 20
20.625
 30
0.0
 40
0.25
  1
8
  7
Roman
 72
     1
 11
2.125
 21
20.75
 31
0.0
100
AcDbText
 73
     2
  0
TEXT
  5
184
330
164
100
AcDbEntity
  8
Title Block
100
AcDbText
 10
0.3690476190476191
 20
18.125
 30
0.0
 40
0.25
  1
D
  7
Roman
 72
     1
 11
0.5
 21
18.25
 31
0.0
100
AcDbText
 73
     2
  0
LINE
  5
185
330
164
100
AcDbEntity
  8
Title Block
100
AcDbLine
 10
8.125
 20
20.5
 30
0.0
 11
8.125
 21
20.875
 31
0.0
  0
TEXT
  5
186
330
164
100
AcDbEntity
  8
Title Block
100
AcDbText
 10
6.000000000000001
 20
20.625
 30
0.0
 40
0.25
  1
7
  7
Roman
 72
     1
 11
6.11904761904762
 21
20.75
 31
0.0
100
AcDbText
 73
     2
  0
TEXT
  5
187
330
164
100
AcDbEntity
  8
Title Block
100
AcDbText
 10
10.0
 20
20.625
 30
0.0
 40
0.25
  1
6
  7
Roman
 72
     1
 11
10.125
 21
20.75
 31
0.0
100
AcDbText
 73
     2
  0
LINE
  5
188
330
164
100
AcDbEntity
  8
Title Block
100
AcDbLine
 10
12.1875
 20
20.5
 30
0.0
 11
12.1875
 21
20.875
 31
0.0
  0
LINE
  5
189
330
164
100
AcDbEntity
  8
Title Block
100
AcDbLine
 10
16.25
 20
20.5
 30
0.0
 11
16.25
 21
20.875
 31
0.0
  0
LWPOLYLINE
  5
18A
330
164
100
AcDbEntity
  8
Title Block
100
AcDbPolyline
 90
        2
 70
     0
 43
0.02
 10
16.25
 20
20.9
 10
16.25
 20
20.7
  0
TEXT
  5
18B
330
164
100
AcDbEntity
  8
Title Block
100
AcDbText
 10
14.25
 20
20.625
 30
0.0
 40
0.25
  1
5
  7
Roman
 72
     1
 11
14.36904761904762
 21
20.75
 31
0.0
100
AcDbText
 73
     2
  0
LINE
  5
18C
330
164
100
AcDbEntity
  8
Title Block
100
AcDbLine
 10
32.5
 20
0.0
 30
0.0
 11
32.5
 21
21.0
 31
0.0
  0
LINE
  5
18D
330
164
100
AcDbEntity
  8
Title Block
100
AcDbLine
 10
31.5
 20
0.5
 30
0.0
 11
31.5
 21
20.5
 31
0.0
  0
SOLID
  5
18E
330
164
100
AcDbEntity
  8
Title Block
100
AcDbTrace
 10
31.7
 20
10.3
 30
0.0
 11
31.7
 21
10.7
 31
0.0
 12
31.5
 22
10.5
 32
0.0
 13
31.5
 23
10.5
 33
0.0
  0
LINE
  5
18F
330
164
100
AcDbEntity
  8
Title Block
100
AcDbLine
 10
23.87999999999999
 20
3.0
 30
0.0
 11
31.5
 21
3.0
 31
0.0
  0
LINE
  5
190
330
164
100
AcDbEntity
  8
Title Block
100
AcDbLine
 10
26.38
 20
0.75
 30
0.0
 11
31.5
 21
0.75
 31
0.0
  0
LINE
  5
191
330
164
100
AcDbEntity
  8
Title Block
100
AcDbLine
 10
23.87999999999999
 20
1.25
 30
0.0
 11
31.5
 21
1.25
 31
0.0
  0
LINE
  5
192
330
164
100
AcDbEntity
  8
Title Block
100
AcDbLine
 10
26.38
 20
2.37
 30
0.0
 11
31.5
 21
2.37
 31
0.0
  0
TEXT
  5
193
330
164
100
AcDbEntity
  8
Title Block
100
AcDbText
 10
26.8289
 20
1.135899999999999
 30
0.0
 40
0.065
  1
FSCM NO.
  7
Roman
100
AcDbText
  0
TEXT
  5
194
330
164
100
AcDbEntity
  8
Title Block
100
AcDbText
 10
18.0
 20
0.125
 30
0.0
 40
0.25
  1
4
  7
Roman
 72
     1
 11
18.125
 21
0.25
 31
0.0
100
AcDbText
 73
     2
  0
LINE
  5
195
330
164
100
AcDbEntity
  8
Title Block
100
AcDbLine
 10
20.3125
 20
0.5
 30
0.0
 11
20.3125
 21
0.125
 31
0.0
  0
LINE
  5
196
330
164
100
AcDbEntity
  8
Title Block
100
AcDbLine
 10
23.87999999999999
 20
0.875
 30
0.0
 11
26.38
 21
0.875
 31
0.0
  0
LINE
  5
197
330
164
100
AcDbEntity
  8
Title Block
100
AcDbLine
 10
23.87999999999999
 20
0.5
 30
0.0
 11
23.87999999999999
 21
3.0
 31
0.0
  0
TEXT
  5
198
330
164
100
AcDbEntity
  8
Title Block
100
AcDbText
 10
22.25
 20
0.125
 30
0.0
 40
0.25
  1
3
  7
Roman
 72
     1
 11
22.36904761904762
 21
0.25
 31
0.0
100
AcDbText
 73
     2
  0
LINE
  5
199
330
164
100
AcDbEntity
  8
Title Block
100
AcDbLine
 10
26.38
 20
0.5
 30
0.0
 11
26.38
 21
3.0
 31
0.0
  0
LINE
  5
19A
330
164
100
AcDbEntity
  8
Title Block
100
AcDbLine
 10
24.375
 20
0.5
 30
0.0
 11
24.375
 21
0.125
 31
0.0
  0
LINE
  5
19B
330
164
100
AcDbEntity
  8
Title Block
100
AcDbLine
 10
26.76000000000001
 20
0.75
 30
0.0
 11
26.76000000000001
 21
1.25
 31
0.0
  0
TEXT
  5
19C
330
164
100
AcDbEntity
  8
Title Block
100
AcDbText
 10
26.25000000000001
 20
0.125
 30
0.0
 40
0.25
  1
2
  7
Roman
 72
     1
 11
26.36904761904763
 21
0.25
 31
0.0
100
AcDbText
 73
     2
  0
TEXT
  5
19D
330
164
100
AcDbEntity
  8
Title Block
100
AcDbText
 10
26.4323
 20
0.5925000000000003
 30
0.0
 40
0.065
  1
SCALE
  7
Roman
100
AcDbText
  0
TEXT
  5
19E
330
164
100
AcDbEntity
  8
Title Block
100
AcDbText
 10
26.4679
 20
1.135899999999999
 30
0.0
 40
0.065
  1
SIZE
  7
Roman
100
AcDbText
  0
TEXT
  5
19F
330
164
100
AcDbEntity
  8
Title Block
100
AcDbText
 10
28.08100000000001
 20
1.135899999999999
 30
0.0
 40
0.065
  1
DWG NO.
  7
Roman
100
AcDbText
  0
LINE
  5
1A0
330
164
100
AcDbEntity
  8
Title Block
100
AcDbLine
 10
28.01000000000001
 20
0.75
 30
0.0
 11
28.01000000000001
 21
1.25
 31
0.0
  0
LINE
  5
1A1
330
164
100
AcDbEntity
  8
Title Block
100
AcDbLine
 10
27.37
 20
0.5
 30
0.0
 11
27.37
 21
0.75
 31
0.0
  0
LINE
  5
1A2
330
164
100
AcDbEntity
  8
Title Block
100
AcDbLine
 10
28.4375
 20
0.5
 30
0.0
 11
28.4375
 21
0.125
 31
0.0
  0
LINE
  5
1A3
330
164
100
AcDbEntity
  8
Title Block
100
AcDbLine
 10
29.75
 20
0.5
 30
0.0
 11
29.75
 21
0.75
 31
0.0
  0
TEXT
  5
1A4
330
164
100
AcDbEntity
  8
Title Block
100
AcDbText
 10
29.8028
 20
0.5925000000000003
 30
0.0
 40
0.065
  1
SHEET
  7
Roman
100
AcDbText
  0
TEXT
  5
1A5
330
164
100
AcDbEntity
  8
Title Block
100
AcDbText
 10
30.27380952380953
 20
0.125
 30
0.0
 40
0.25
  1
1
  7
Roman
 72
     1
 11
30.375
 21
0.25
 31
0.0
100
AcDbText
 73
     2
  0
LINE
  5
1A6
330
164
100
AcDbEntity
  8
Title Block
100
AcDbLine
 10
31.0
 20
0.75
 30
0.0
 11
31.0
 21
1.25
 31
0.0
  0
TEXT
  5
1A7
330
164
100
AcDbEntity
  8
Title Block
100
AcDbText
 10
31.14050000000001
 20
1.135899999999999
 30
0.0
 40
0.065
  1
REV
  7
Roman
100
AcDbText
  0
TEXT
  5
1A8
330
164
100
AcDbEntity
  8
Title Block
100
AcDbText
 10
31.89285714285714
 20
2.625
 30
0.0
 40
0.25
  1
A
  7
Roman
 72
     1
 11
32.0
 21
2.75
 31
0.0
100
AcDbText
 73
     2
  0
LINE
  5
1A9
330
164
100
AcDbEntity
  8
Title Block
100
AcDbLine
 10
32.5
 20
0.125
 30
0.0
 11
32.5
 21
0.5
 31
0.0
  0
LINE
  5
1AA
330
164
100
AcDbEntity
  8
Title Block
100
AcDbLine
 10
32.0
 20
5.25
 30
0.0
 11
31.5
 21
5.25
 31
0.0
  0
TEXT
  5
1AB
330
164
100
AcDbEntity
  8
Title Block
100
AcDbText
 10
31.86904761904762
 20
7.793905052838185
 30
0.0
 40
0.25
  1
B
  7
Roman
 72
     1
 11
32.0
 21
7.918905052838185
 31
0.0
100
AcDbText
 73
     2
  0
LINE
  5
1AC
330
164
100
AcDbEntity
  8
Title Block
100
AcDbLine
 10
24.5
 20
20.25
 30
0.0
 11
31.5
 21
20.25
 31
0.0
  0
LINE
  5
1AD
330
164
100
AcDbEntity
  8
Title Block
100
AcDbLine
 10
24.5
 20
20.0
 30
0.0
 11
31.5
 21
20.0
 31
0.0
  0
TEXT
  5
1AE
330
164
100
AcDbEntity
  8
Title Block
100
AcDbText
 10
18.0
 20
20.625
 30
0.0
 40
0.25
  1
4
  7
Roman
 72
     1
 11
18.125
 21
20.75
 31
0.0
100
AcDbText
 73
     2
  0
LINE
  5
1AF
330
164
100
AcDbEntity
  8
Title Block
100
AcDbLine
 10
20.3125
 20
20.5
 30
0.0
 11
20.3125
 21
20.875
 31
0.0
  0
TEXT
  5
1B0
330
164
100
AcDbEntity
  8
Title Block
100
AcDbText
 10
22.25
 20
20.625
 30
0.0
 40
0.25
  1
3
  7
Roman
 72
     1
 11
22.36904761904762
 21
20.75
 31
0.0
100
AcDbText
 73
     2
  0
TEXT
  5
1B1
330
164
100
AcDbEntity
  8
Title Block
100
AcDbText
 10
26.25000000000001
 20
20.625
 30
0.0
 40
0.25
  1
2
  7
Roman
 72
     1
 11
26.36904761904763
 21
20.75
 31
0.0
100
AcDbText
 73
     2
  0
LINE
  5
1B2
330
164
100
AcDbEntity
  8
Title Block
100
AcDbLine
 10
24.375
 20
20.5
 30
0.0
 11
24.375
 21
20.875
 31
0.0
  0
LINE
  5
1B3
330
164
100
AcDbEntity
  8
Title Block
100
AcDbLine
 10
24.5
 20
19.4527
 30
0.0
 11
24.5
 21
20.5
 31
0.0
  0
TEXT
  5
1B4
330
164
100
AcDbEntity
  8
Title Block
100
AcDbText
 10
24.6087
 20
20.0903
 30
0.0
 40
0.065
  1
ZONE
  7
Roman
100
AcDbText
  0
LINE
  5
1B5
330
164
100
AcDbEntity
  8
Title Block
100
AcDbLine
 10
25.0
 20
20.0
 30
0.0
 11
25.0
 21
20.25
 31
0.0
  0
LINE
  5
1B6
330
164
100
AcDbEntity
  8
Title Block
100
AcDbLine
 10
25.38
 20
20.0
 30
0.0
 11
25.38
 21
20.25
 31
0.0
  0
TEXT
  5
1B7
330
164
100
AcDbEntity
  8
Title Block
100
AcDbText
 10
25.0801
 20
20.0903
 30
0.0
 40
0.065
  1
REV
  7
Roman
100
AcDbText
  0
LINE
  5
1B8
330
164
100
AcDbEntity
  8
Title Block
100
AcDbLine
 10
31.5
 20
10.5
 30
0.0
 11
32.0
 21
10.5
 31
0.0
  0
LWPOLYLINE
  5
1B9
330
164
100
AcDbEntity
  8
Title Block
100
AcDbPolyline
 90
        2
 70
     0
 43
0.02
 10
31.90000000000001
 20
10.5
 10
31.90000000000001
 20
10.5
  0
TEXT
  5
1BA
330
164
100
AcDbEntity
  8
Title Block
100
AcDbText
 10
31.875
 20
12.94799471744128
 30
0.0
 40
0.25
  1
C
  7
Roman
 72
     1
 11
32.0
 21
13.07299471744128
 31
0.0
100
AcDbText
 73
     2
  0
LINE
  5
1BB
330
164
100
AcDbEntity
  8
Title Block
100
AcDbLine
 10
32.0
 20
15.75
 30
0.0
 11
31.5
 21
15.75
 31
0.0
  0
TEXT
  5
1BC
330
164
100
AcDbEntity
  8
Title Block
100
AcDbText
 10
30.27380952380953
 20
20.625
 30
0.0
 40
0.25
  1
1
  7
Roman
 72
     1
 11
30.375
 21
20.75
 31
0.0
100
AcDbText
 73
     2
  0
LINE
  5
1BD
330
164
100
AcDbEntity
  8
Title Block
100
AcDbLine
 10
28.4375
 20
20.5
 30
0.0
 11
28.4375
 21
20.875
 31
0.0
  0
TEXT
  5
1BE
330
164
100
AcDbEntity
  8
Title Block
100
AcDbText
 10
28.07460000000001
 20
20.3325
 30
0.0
 40
0.065
  1
REVISIONS
  7
Roman
100
AcDbText
  0
TEXT
  5
1BF
330
164
100
AcDbEntity
  8
Title Block
100
AcDbText
 10
27.24639999999999
 20
20.0903
 30
0.0
 40
0.065
  1
DESCRIPTION
  7
Roman
100
AcDbText
  0
LINE
  5
1C0
330
164
100
AcDbEntity
  8
Title Block
100
AcDbLine
 10
29.62000000000001
 20
20.0
 30
0.0
 11
29.62000000000001
 21
20.25
 31
0.0
  0
TEXT
  5
1C1
330
164
100
AcDbEntity
  8
Title Block
100
AcDbText
 10
31.86904761904762
 20
18.125
 30
0.0
 40
0.25
  1
D
  7
Roman
 72
     1
 11
32.0
 21
18.25
 31
0.0
100
AcDbText
 73
     2
  0
TEXT
  5
1C2
330
164
100
AcDbEntity
  8
Title Block
100
AcDbText
 10
30.74770000000001
 20
20.0903
 30
0.0
 40
0.065
  1
APPROVED
  7
Roman
100
AcDbText
  0
TEXT
  5
1C3
330
164
100
AcDbEntity
  8
Title Block
100
AcDbText
 10
29.9477
 20
20.0903
 30
0.0
 40
0.065
  1
DATE
  7
Roman
100
AcDbText
  0
LINE
  5
1C4
330
164
100
AcDbEntity
  8
Title Block
100
AcDbLine
 10
30.5
 20
20.0
 30
0.0
 11
30.5
 21
20.25
 31
0.0
  0
LINE
  5
1C5
330
164
100
AcDbEntity
  8
Title Block
100
AcDbLine
 10
32.5
 20
20.5
 30
0.0
 11
32.5
 21
20.875
 31
0.0
  0
ENDBLK
  5
1C7
330
164
100
AcDbEntity
  8
0
100
AcDbBlockEnd
  0
BLOCK
  5
247
330
1D5
100
AcDbEntity
  8
0
100
AcDbBlockBegin
  2
ANSI E Title Block
 70
     2
 10
0.0
 20
0.0
 30
0.0
  3
ANSI E Title Block
  1

  4
ANSI E title block and attributes
  0
SOLID
  5
1D6
330
1D5
100
AcDbEntity
  8
0
100
AcDbTrace
 10
21.05
 20
32.20000000000001
 30
0.0
 11
21.45
 21
32.20000000000001
 31
0.0
 12
21.25
 22
32.0
 32
0.0
 13
21.25
 23
32.0
 33
0.0
  0
SOLID
  5
1D7
330
1D5
100
AcDbEntity
  8
0
100
AcDbTrace
 10
21.05
 20
0.8
 30
0.0
 11
21.45
 21
0.8
 31
0.0
 12
21.25
 22
1.0
 32
0.0
 13
21.25
 23
1.0
 33
0.0
  0
LINE
  5
1D8
330
1D5
100
AcDbEntity
  8
0
100
AcDbLine
 10
42.0
 20
32.0
 30
0.0
 11
0.5000000000000001
 21
32.0
 31
0.0
  0
LINE
  5
1D9
330
1D5
100
AcDbEntity
  8
0
100
AcDbLine
 10
0.5000000000000001
 20
1.0
 30
0.0
 11
42.0
 21
1.0
 31
0.0
  0
LINE
  5
1DA
330
1D5
100
AcDbEntity
  8
0
100
AcDbLine
 10
42.5
 20
33.0
 30
0.0
 11
0.0
 21
33.0
 31
0.0
  0
LINE
  5
1DB
330
1D5
100
AcDbEntity
  8
0
100
AcDbLine
 10
0.0
 20
0.0
 30
0.0
 11
42.5
 21
0.0
 31
0.0
  0
SOLID
  5
1DC
330
1D5
100
AcDbEntity
  8
0
100
AcDbTrace
 10
0.3000000000000043
 20
16.3
 30
0.0
 11
0.3000000000000043
 21
16.7
 31
0.0
 12
0.5000000000000071
 22
16.5
 32
0.0
 13
0.5000000000000071
 23
16.5
 33
0.0
  0
LINE
  5
1DD
330
1D5
100
AcDbEntity
  8
0
100
AcDbLine
 10
0.5000000000000001
 20
32.0
 30
0.0
 11
0.5000000000000001
 21
1.0
 31
0.0
  0
LINE
  5
1DE
330
1D5
100
AcDbEntity
  8
0
100
AcDbLine
 10
0.0
 20
33.0
 30
0.0
 11
0.0
 21
0.0
 31
0.0
  0
ATTDEF
  5
1DF
330
1D5
100
AcDbEntity
  8
0
 62
     0
100
AcDbText
 10
-0.0500000000000001
 20
0.0
 30
0.0
 40
0.15
  1

 50
90.0
  7
Roman
100
AcDbAttributeDefinition
  3
Author:
  2
USER
 70
     8
  0
TEXT
  5
1E0
330
1D5
100
AcDbEntity
  8
0
100
AcDbText
 10
0.1666666666666676
 20
2.0
 30
0.0
 40
0.25
  1
A
  7
Roman
 72
     1
 11
0.2738095238095248
 21
2.125
 31
0.0
100
AcDbText
 73
     2
  0
LINE
  5
1E1
330
1D5
100
AcDbEntity
  8
0
100
AcDbLine
 10
0.5000000000000071
 20
4.125
 30
0.0
 11
0.1250000000000071
 21
4.125
 31
0.0
  0
ATTDEF
  5
1E2
330
1D5
100
AcDbEntity
  8
0
 62
     0
100
AcDbText
 10
-0.0500000000000001
 20
3.0
 30
0.0
 40
0.15
  1

 50
90.0
  7
Roman
100
AcDbAttributeDefinition
  3
Revision date:
  2
REVDATE
 70
     8
  0
TEXT
  5
1E3
330
1D5
100
AcDbEntity
  8
0
100
AcDbText
 10
2.63095238095238
 20
0.375
 30
0.0
 40
0.25
  1
8
  7
Roman
 72
     1
 11
2.75
 21
0.5
 31
0.0
100
AcDbText
 73
     2
  0
LINE
  5
1E4
330
1D5
100
AcDbEntity
  8
0
100
AcDbLine
 10
5.3125
 20
1.0
 30
0.0
 11
5.3125
 21
0.5
 31
0.0
  0
TEXT
  5
1E5
330
1D5
100
AcDbEntity
  8
0
100
AcDbText
 10
0.2142857142857187
 20
6.25
 30
0.0
 40
0.25
  1
B
  7
Roman
 72
     1
 11
0.3452380952380996
 21
6.375
 31
0.0
100
AcDbText
 73
     2
  0
ATTDEF
  5
1E6
330
1D5
100
AcDbEntity
  8
0
 62
     0
100
AcDbText
 10
-0.0500000000000001
 20
6.0
 30
0.0
 40
0.15
  1

 50
90.0
  7
Roman
100
AcDbAttributeDefinition
  3
File name:
  2
FNAME
 70
     8
  0
LINE
  5
1E7
330
1D5
100
AcDbEntity
  8
0
100
AcDbLine
 10
0.5000000000000071
 20
8.25
 30
0.0
 11
0.1250000000000071
 21
8.25
 31
0.0
  0
TEXT
  5
1E8
330
1D5
100
AcDbEntity
  8
0
100
AcDbText
 10
0.1964285714285785
 20
10.24080582816589
 30
0.0
 40
0.25
  1
C
  7
Roman
 72
     1
 11
0.3214285714285785
 21
10.36580582816589
 31
0.0
100
AcDbText
 73
     2
  0
LINE
  5
1E9
330
1D5
100
AcDbEntity
  8
0
100
AcDbLine
 10
0.5000000000000071
 20
12.375
 30
0.0
 11
0.1250000000000071
 21
12.375
 31
0.0
  0
TEXT
  5
1EA
330
1D5
100
AcDbEntity
  8
0
100
AcDbText
 10
0.2142857142857187
 20
14.23058257616431
 30
0.0
 40
0.25
  1
D
  7
Roman
 72
     1
 11
0.3452380952380996
 21
14.35558257616431
 31
0.0
100
AcDbText
 73
     2
  0
TEXT
  5
1EB
330
1D5
100
AcDbEntity
  8
0
100
AcDbText
 10
7.999999999999998
 20
0.375
 30
0.0
 40
0.25
  1
7
  7
Roman
 72
     1
 11
8.119047619047616
 21
0.5
 31
0.0
100
AcDbText
 73
     2
  0
LINE
  5
1EC
330
1D5
100
AcDbEntity
  8
0
100
AcDbLine
 10
10.625
 20
1.0
 30
0.0
 11
10.625
 21
0.5
 31
0.0
  0
TEXT
  5
1ED
330
1D5
100
AcDbEntity
  8
0
100
AcDbText
 10
13.25
 20
0.375
 30
0.0
 40
0.25
  1
6
  7
Roman
 72
     1
 11
13.375
 21
0.5
 31
0.0
100
AcDbText
 73
     2
  0
LINE
  5
1EE
330
1D5
100
AcDbEntity
  8
0
100
AcDbLine
 10
15.9375
 20
1.0
 30
0.0
 11
15.9375
 21
0.5
 31
0.0
  0
TEXT
  5
1EF
330
1D5
100
AcDbEntity
  8
0
100
AcDbText
 10
18.5
 20
0.375
 30
0.0
 40
0.25
  1
5
  7
Roman
 72
     1
 11
18.61904761904762
 21
0.5
 31
0.0
100
AcDbText
 73
     2
  0
LINE
  5
1F0
330
1D5
100
AcDbEntity
  8
0
100
AcDbLine
 10
21.25
 20
1.0
 30
0.0
 11
21.25
 21
0.5
 31
0.0
  0
LWPOLYLINE
  5
1F1
330
1D5
100
AcDbEntity
  8
0
100
AcDbPolyline
 90
        2
 70
     0
 43
0.02
 10
21.25
 20
0.6000000000000015
 10
21.25
 20
0.7999999999999972
  0
LWPOLYLINE
  5
1F2
330
1D5
100
AcDbEntity
  8
0
100
AcDbPolyline
 90
        2
 70
     0
 43
0.02
 10
21.25
 20
0.6000000000000001
 10
21.25
 20
0.8
  0
LINE
  5
1F3
330
1D5
100
AcDbEntity
  8
0
100
AcDbLine
 10
0.5000000000000071
 20
16.5
 30
0.0
 11
0.1250000000000071
 21
16.5
 31
0.0
  0
LWPOLYLINE
  5
1F4
330
1D5
100
AcDbEntity
  8
0
100
AcDbPolyline
 90
        2
 70
     0
 43
0.02
 10
0.1000000000000085
 20
16.5
 10
0.3000000000000043
 20
16.5
  0
TEXT
  5
1F5
330
1D5
100
AcDbEntity
  8
0
100
AcDbText
 10
0.2202380952381024
 20
18.47559888487971
 30
0.0
 40
0.25
  1
E
  7
Roman
 72
     1
 11
0.3452380952381024
 21
18.60059888487971
 31
0.0
100
AcDbText
 73
     2
  0
LINE
  5
1F6
330
1D5
100
AcDbEntity
  8
0
100
AcDbLine
 10
0.5000000000000071
 20
20.625
 30
0.0
 11
0.1250000000000071
 21
20.625
 31
0.0
  0
TEXT
  5
1F7
330
1D5
100
AcDbEntity
  8
0
100
AcDbText
 10
0.2202380952381024
 20
22.64591821679627
 30
0.0
 40
0.25
  1
F
  7
Roman
 72
     1
 11
0.3452380952381024
 21
22.77091821679627
 31
0.0
100
AcDbText
 73
     2
  0
LINE
  5
1F8
330
1D5
100
AcDbEntity
  8
0
100
AcDbLine
 10
0.5000000000000071
 20
24.75
 30
0.0
 11
0.1250000000000071
 21
24.75
 31
0.0
  0
TEXT
  5
1F9
330
1D5
100
AcDbEntity
  8
0
100
AcDbText
 10
0.1964285714285785
 20
26.68922275912116
 30
0.0
 40
0.25
  1
G
  7
Roman
 72
     1
 11
0.3214285714285785
 21
26.81422275912116
 31
0.0
100
AcDbText
 73
     2
  0
LINE
  5
1FA
330
1D5
100
AcDbEntity
  8
0
100
AcDbLine
 10
0.5000000000000071
 20
28.875
 30
0.0
 11
0.1250000000000071
 21
28.875
 31
0.0
  0
TEXT
  5
1FB
330
1D5
100
AcDbEntity
  8
0
100
AcDbText
 10
0.2142857142857187
 20
30.75
 30
0.0
 40
0.25
  1
H
  7
Roman
 72
     1
 11
0.3452380952380996
 21
30.875
 31
0.0
100
AcDbText
 73
     2
  0
TEXT
  5
1FC
330
1D5
100
AcDbEntity
  8
0
100
AcDbText
 10
2.63095238095238
 20
32.375
 30
0.0
 40
0.25
  1
8
  7
Roman
 72
     1
 11
2.75
 21
32.5
 31
0.0
100
AcDbText
 73
     2
  0
LINE
  5
1FD
330
1D5
100
AcDbEntity
  8
0
100
AcDbLine
 10
5.3125
 20
32.0
 30
0.0
 11
5.3125
 21
32.5
 31
0.0
  0
TEXT
  5
1FE
330
1D5
100
AcDbEntity
  8
0
100
AcDbText
 10
13.25
 20
32.375
 30
0.0
 40
0.25
  1
6
  7
Roman
 72
     1
 11
13.375
 21
32.5
 31
0.0
100
AcDbText
 73
     2
  0
TEXT
  5
1FF
330
1D5
100
AcDbEntity
  8
0
100
AcDbText
 10
7.999999999999998
 20
32.375
 30
0.0
 40
0.25
  1
7
  7
Roman
 72
     1
 11
8.119047619047616
 21
32.5
 31
0.0
100
AcDbText
 73
     2
  0
LINE
  5
200
330
1D5
100
AcDbEntity
  8
0
100
AcDbLine
 10
10.625
 20
32.0
 30
0.0
 11
10.625
 21
32.5
 31
0.0
  0
TEXT
  5
201
330
1D5
100
AcDbEntity
  8
0
100
AcDbText
 10
18.5
 20
32.375
 30
0.0
 40
0.25
  1
5
  7
Roman
 72
     1
 11
18.61904761904762
 21
32.5
 31
0.0
100
AcDbText
 73
     2
  0
LINE
  5
202
330
1D5
100
AcDbEntity
  8
0
100
AcDbLine
 10
21.25
 20
32.0
 30
0.0
 11
21.25
 21
32.5
 31
0.0
  0
LINE
  5
203
330
1D5
100
AcDbEntity
  8
0
100
AcDbLine
 10
15.9375
 20
32.0
 30
0.0
 11
15.9375
 21
32.5
 31
0.0
  0
LWPOLYLINE
  5
204
330
1D5
100
AcDbEntity
  8
0
100
AcDbPolyline
 90
        2
 70
     0
 43
0.02
 10
21.25
 20
32.4
 10
21.25
 20
32.20000000000001
  0
SOLID
  5
205
330
1D5
100
AcDbEntity
  8
0
100
AcDbTrace
 10
42.2
 20
16.3
 30
0.0
 11
42.2
 21
16.7
 31
0.0
 12
42.0
 22
16.5
 32
0.0
 13
42.0
 23
16.5
 33
0.0
  0
LINE
  5
206
330
1D5
100
AcDbEntity
  8
0
100
AcDbLine
 10
42.0
 20
1.0
 30
0.0
 11
42.0
 21
32.0
 31
0.0
  0
LINE
  5
207
330
1D5
100
AcDbEntity
  8
0
100
AcDbLine
 10
42.5
 20
0.0
 30
0.0
 11
42.5
 21
33.0
 31
0.0
  0
LINE
  5
208
330
1D5
100
AcDbEntity
  8
0
100
AcDbLine
 10
34.38000000000001
 20
1.75
 30
0.0
 11
42.0
 21
1.75
 31
0.0
  0
LINE
  5
209
330
1D5
100
AcDbEntity
  8
0
100
AcDbLine
 10
34.38000000000001
 20
1.375
 30
0.0
 11
36.88000000000001
 21
1.375
 31
0.0
  0
LINE
  5
20A
330
1D5
100
AcDbEntity
  8
0
100
AcDbLine
 10
34.38000000000001
 20
3.5
 30
0.0
 11
42.0
 21
3.5
 31
0.0
  0
TEXT
  5
20B
330
1D5
100
AcDbEntity
  8
0
100
AcDbText
 10
23.75
 20
0.375
 30
0.0
 40
0.25
  1
4
  7
Roman
 72
     1
 11
23.875
 21
0.5
 31
0.0
100
AcDbText
 73
     2
  0
LINE
  5
20C
330
1D5
100
AcDbEntity
  8
0
100
AcDbLine
 10
26.5625
 20
1.0
 30
0.0
 11
26.5625
 21
0.5
 31
0.0
  0
TEXT
  5
20D
330
1D5
100
AcDbEntity
  8
0
100
AcDbText
 10
29.25000000000001
 20
0.375
 30
0.0
 40
0.25
  1
3
  7
Roman
 72
     1
 11
29.36904761904763
 21
0.5
 31
0.0
100
AcDbText
 73
     2
  0
LINE
  5
20E
330
1D5
100
AcDbEntity
  8
0
100
AcDbLine
 10
34.38000000000001
 20
1.0
 30
0.0
 11
34.38000000000001
 21
3.5
 31
0.0
  0
LINE
  5
20F
330
1D5
100
AcDbEntity
  8
0
100
AcDbLine
 10
31.875
 20
1.0
 30
0.0
 11
31.875
 21
0.5
 31
0.0
  0
TEXT
  5
210
330
1D5
100
AcDbEntity
  8
0
100
AcDbText
 10
34.5
 20
0.375
 30
0.0
 40
0.25
  1
2
  7
Roman
 72
     1
 11
34.61904761904762
 21
0.5
 31
0.0
100
AcDbText
 73
     2
  0
LINE
  5
211
330
1D5
100
AcDbEntity
  8
0
100
AcDbLine
 10
42.0
 20
4.125
 30
0.0
 11
42.37499999999999
 21
4.125
 31
0.0
  0
TEXT
  5
212
330
1D5
100
AcDbEntity
  8
0
100
AcDbText
 10
38.581
 20
1.635899999999999
 30
0.0
 40
0.065
  1
DWG NO.
  7
Roman
100
AcDbText
  0
LINE
  5
213
330
1D5
100
AcDbEntity
  8
0
100
AcDbLine
 10
36.88000000000001
 20
2.87
 30
0.0
 11
42.0
 21
2.87
 31
0.0
  0
LINE
  5
214
330
1D5
100
AcDbEntity
  8
0
100
AcDbLine
 10
36.88000000000001
 20
1.25
 30
0.0
 11
42.0
 21
1.25
 31
0.0
  0
LINE
  5
215
330
1D5
100
AcDbEntity
  8
0
100
AcDbLine
 10
36.88000000000001
 20
1.0
 30
0.0
 11
36.88000000000001
 21
3.5
 31
0.0
  0
TEXT
  5
216
330
1D5
100
AcDbEntity
  8
0
100
AcDbText
 10
36.9323
 20
1.0925
 30
0.0
 40
0.065
  1
SCALE
  7
Roman
100
AcDbText
  0
LINE
  5
217
330
1D5
100
AcDbEntity
  8
0
100
AcDbLine
 10
38.51
 20
1.25
 30
0.0
 11
38.51
 21
1.75
 31
0.0
  0
LINE
  5
218
330
1D5
100
AcDbEntity
  8
0
100
AcDbLine
 10
37.26
 20
1.25
 30
0.0
 11
37.26
 21
1.75
 31
0.0
  0
LINE
  5
219
330
1D5
100
AcDbEntity
  8
0
100
AcDbLine
 10
37.1875
 20
1.0
 30
0.0
 11
37.1875
 21
0.5
 31
0.0
  0
LINE
  5
21A
330
1D5
100
AcDbEntity
  8
0
100
AcDbLine
 10
37.87
 20
1.0
 30
0.0
 11
37.87
 21
1.25
 31
0.0
  0
TEXT
  5
21B
330
1D5
100
AcDbEntity
  8
0
100
AcDbText
 10
37.3289
 20
1.635899999999999
 30
0.0
 40
0.065
  1
FSCM NO.
  7
Roman
100
AcDbText
  0
TEXT
  5
21C
330
1D5
100
AcDbEntity
  8
0
100
AcDbText
 10
36.9679
 20
1.635899999999999
 30
0.0
 40
0.065
  1
SIZE
  7
Roman
100
AcDbText
  0
TEXT
  5
21D
330
1D5
100
AcDbEntity
  8
0
100
AcDbText
 10
40.3028
 20
1.0925
 30
0.0
 40
0.065
  1
SHEET
  7
Roman
100
AcDbText
  0
TEXT
  5
21E
330
1D5
100
AcDbEntity
  8
0
100
AcDbText
 10
39.64880952380953
 20
0.375
 30
0.0
 40
0.25
  1
1
  7
Roman
 72
     1
 11
39.75
 21
0.5
 31
0.0
100
AcDbText
 73
     2
  0
LINE
  5
21F
330
1D5
100
AcDbEntity
  8
0
100
AcDbLine
 10
40.25
 20
1.0
 30
0.0
 11
40.25
 21
1.25
 31
0.0
  0
LINE
  5
220
330
1D5
100
AcDbEntity
  8
0
100
AcDbLine
 10
41.5
 20
1.25
 30
0.0
 11
41.5
 21
1.75
 31
0.0
  0
TEXT
  5
221
330
1D5
100
AcDbEntity
  8
0
100
AcDbText
 10
41.6405
 20
1.635899999999999
 30
0.0
 40
0.065
  1
REV
  7
Roman
100
AcDbText
  0
LINE
  5
222
330
1D5
100
AcDbEntity
  8
0
100
AcDbLine
 10
42.5
 20
0.5
 30
0.0
 11
42.5
 21
1.0
 31
0.0
  0
TEXT
  5
223
330
1D5
100
AcDbEntity
  8
0
100
AcDbText
 10
42.14285714285714
 20
2.0
 30
0.0
 40
0.25
  1
A
  7
Roman
 72
     1
 11
42.25
 21
2.125
 31
0.0
100
AcDbText
 73
     2
  0
LINE
  5
224
330
1D5
100
AcDbEntity
  8
0
100
AcDbLine
 10
42.0
 20
12.375
 30
0.0
 11
42.37499999999999
 21
12.375
 31
0.0
  0
LINE
  5
225
330
1D5
100
AcDbEntity
  8
0
100
AcDbLine
 10
42.0
 20
8.25
 30
0.0
 11
42.37499999999999
 21
8.25
 31
0.0
  0
TEXT
  5
226
330
1D5
100
AcDbEntity
  8
0
100
AcDbText
 10
42.11904761904762
 20
6.25
 30
0.0
 40
0.25
  1
B
  7
Roman
 72
     1
 11
42.25
 21
6.375
 31
0.0
100
AcDbText
 73
     2
  0
TEXT
  5
227
330
1D5
100
AcDbEntity
  8
0
100
AcDbText
 10
42.125
 20
10.24080582816589
 30
0.0
 40
0.25
  1
C
  7
Roman
 72
     1
 11
42.25
 21
10.36580582816589
 31
0.0
100
AcDbText
 73
     2
  0
TEXT
  5
228
330
1D5
100
AcDbEntity
  8
0
100
AcDbText
 10
42.11904761904762
 20
14.23058257616431
 30
0.0
 40
0.25
  1
D
  7
Roman
 72
     1
 11
42.25
 21
14.35558257616431
 31
0.0
100
AcDbText
 73
     2
  0
TEXT
  5
229
330
1D5
100
AcDbEntity
  8
0
100
AcDbText
 10
35.1087
 20
31.5903
 30
0.0
 40
0.065
  1
ZONE
  7
Roman
100
AcDbText
  0
LINE
  5
22A
330
1D5
100
AcDbEntity
  8
0
100
AcDbLine
 10
35.0
 20
31.5
 30
0.0
 11
42.0
 21
31.5
 31
0.0
  0
LINE
  5
22B
330
1D5
100
AcDbEntity
  8
0
100
AcDbLine
 10
35.0
 20
31.75
 30
0.0
 11
42.0
 21
31.75
 31
0.0
  0
LINE
  5
22C
330
1D5
100
AcDbEntity
  8
0
100
AcDbLine
 10
26.5625
 20
32.0
 30
0.0
 11
26.5625
 21
32.5
 31
0.0
  0
TEXT
  5
22D
330
1D5
100
AcDbEntity
  8
0
100
AcDbText
 10
23.75
 20
32.375
 30
0.0
 40
0.25
  1
4
  7
Roman
 72
     1
 11
23.875
 21
32.5
 31
0.0
100
AcDbText
 73
     2
  0
LINE
  5
22E
330
1D5
100
AcDbEntity
  8
0
100
AcDbLine
 10
31.875
 20
32.0
 30
0.0
 11
31.875
 21
32.5
 31
0.0
  0
TEXT
  5
22F
330
1D5
100
AcDbEntity
  8
0
100
AcDbText
 10
34.5
 20
32.375
 30
0.0
 40
0.25
  1
2
  7
Roman
 72
     1
 11
34.61904761904762
 21
32.5
 31
0.0
100
AcDbText
 73
     2
  0
TEXT
  5
230
330
1D5
100
AcDbEntity
  8
0
100
AcDbText
 10
29.25000000000001
 20
32.375
 30
0.0
 40
0.25
  1
3
  7
Roman
 72
     1
 11
29.36904761904763
 21
32.5
 31
0.0
100
AcDbText
 73
     2
  0
LINE
  5
231
330
1D5
100
AcDbEntity
  8
0
100
AcDbLine
 10
35.0
 20
30.9527
 30
0.0
 11
35.0
 21
32.0
 31
0.0
  0
LINE
  5
232
330
1D5
100
AcDbEntity
  8
0
100
AcDbLine
 10
42.0
 20
24.75
 30
0.0
 11
42.37499999999999
 21
24.75
 31
0.0
  0
LINE
  5
233
330
1D5
100
AcDbEntity
  8
0
100
AcDbLine
 10
42.0
 20
20.625
 30
0.0
 11
42.37499999999999
 21
20.625
 31
0.0
  0
LINE
  5
234
330
1D5
100
AcDbEntity
  8
0
100
AcDbLine
 10
42.0
 20
16.5
 30
0.0
 11
42.37499999999999
 21
16.5
 31
0.0
  0
LWPOLYLINE
  5
235
330
1D5
100
AcDbEntity
  8
0
100
AcDbPolyline
 90
        2
 70
     0
 43
0.02
 10
42.4
 20
16.5
 10
42.2
 20
16.5
  0
TEXT
  5
236
330
1D5
100
AcDbEntity
  8
0
100
AcDbText
 10
42.125
 20
18.47559888487971
 30
0.0
 40
0.25
  1
E
  7
Roman
 72
     1
 11
42.25
 21
18.60059888487971
 31
0.0
100
AcDbText
 73
     2
  0
TEXT
  5
237
330
1D5
100
AcDbEntity
  8
0
100
AcDbText
 10
42.125
 20
22.64591821679627
 30
0.0
 40
0.25
  1
F
  7
Roman
 72
     1
 11
42.25
 21
22.77091821679627
 31
0.0
100
AcDbText
 73
     2
  0
TEXT
  5
238
330
1D5
100
AcDbEntity
  8
0
100
AcDbText
 10
42.125
 20
26.68922275912116
 30
0.0
 40
0.25
  1
G
  7
Roman
 72
     1
 11
42.25
 21
26.81422275912116
 31
0.0
100
AcDbText
 73
     2
  0
LINE
  5
239
330
1D5
100
AcDbEntity
  8
0
100
AcDbLine
 10
42.0
 20
28.875
 30
0.0
 11
42.37499999999999
 21
28.875
 31
0.0
  0
LINE
  5
23A
330
1D5
100
AcDbEntity
  8
0
100
AcDbLine
 10
37.1875
 20
32.0
 30
0.0
 11
37.1875
 21
32.5
 31
0.0
  0
TEXT
  5
23B
330
1D5
100
AcDbEntity
  8
0
100
AcDbText
 10
39.64880952380953
 20
32.375
 30
0.0
 40
0.25
  1
1
  7
Roman
 72
     1
 11
39.75
 21
32.5
 31
0.0
100
AcDbText
 73
     2
  0
TEXT
  5
23C
330
1D5
100
AcDbEntity
  8
0
100
AcDbText
 10
38.5746
 20
31.83250000000001
 30
0.0
 40
0.065
  1
REVISIONS
  7
Roman
100
AcDbText
  0
TEXT
  5
23D
330
1D5
100
AcDbEntity
  8
0
100
AcDbText
 10
35.5801
 20
31.5903
 30
0.0
 40
0.065
  1
REV
  7
Roman
100
AcDbText
  0
LINE
  5
23E
330
1D5
100
AcDbEntity
  8
0
100
AcDbLine
 10
35.88
 20
31.5
 30
0.0
 11
35.88
 21
31.75
 31
0.0
  0
LINE
  5
23F
330
1D5
100
AcDbEntity
  8
0
100
AcDbLine
 10
35.5
 20
31.5
 30
0.0
 11
35.5
 21
31.75
 31
0.0
  0
TEXT
  5
240
330
1D5
100
AcDbEntity
  8
0
100
AcDbText
 10
37.7464
 20
31.5903
 30
0.0
 40
0.065
  1
DESCRIPTION
  7
Roman
100
AcDbText
  0
LINE
  5
241
330
1D5
100
AcDbEntity
  8
0
100
AcDbLine
 10
40.11999999999999
 20
31.5
 30
0.0
 11
40.11999999999999
 21
31.75
 31
0.0
  0
TEXT
  5
242
330
1D5
100
AcDbEntity
  8
0
100
AcDbText
 10
41.2477
 20
31.5903
 30
0.0
 40
0.065
  1
APPROVED
  7
Roman
100
AcDbText
  0
TEXT
  5
243
330
1D5
100
AcDbEntity
  8
0
100
AcDbText
 10
40.44769999999997
 20
31.5903
 30
0.0
 40
0.065
  1
DATE
  7
Roman
100
AcDbText
  0
LINE
  5
244
330
1D5
100
AcDbEntity
  8
0
100
AcDbLine
 10
41.0
 20
31.5
 30
0.0
 11
41.0
 21
31.75
 31
0.0
  0
LINE
  5
245
330
1D5
100
AcDbEntity
  8
0
100
AcDbLine
 10
42.5
 20
32.0
 30
0.0
 11
42.5
 21
32.5
 31
0.0
  0
TEXT
  5
246
330
1D5
100
AcDbEntity
  8
0
100
AcDbText
 10
42.11904761904762
 20
30.75
 30
0.0
 40
0.25
  1
H
  7
Roman
 72
     1
 11
42.25
 21
30.875
 31
0.0
100
AcDbText
 73
     2
  0
ENDBLK
  5
248
330
1D5
100
AcDbEntity
  8
0
100
AcDbBlockEnd
  0
BLOCK
  5
277
330
256
100
AcDbEntity
  8
0
100
AcDbBlockBegin
  2
Architectural Title Block
 70
     2
 10
0.0
 20
0.0
 30
0.0
  3
Architectural Title Block
  1

  4
Architectural title block and attributes
  0
LWPOLYLINE
  5
257
330
256
100
AcDbEntity
  8
0
100
AcDbPolyline
 90
        8
 70
     1
 43
0.1
 10
1.5
 20
0.5
 10
33.0
 20
0.5
 42
0.4142135623730951
 10
34.0
 20
1.5
 10
34.0
 20
21.5
 42
0.4142135623730951
 10
33.0
 20
22.5
 10
1.5
 20
22.5
 42
0.4142135623730951
 10
0.5
 20
21.5
 10
0.5
 20
1.5
 42
0.4142135623730951
  0
LINE
  5
258
330
256
100
AcDbEntity
  8
0
100
AcDbLine
 10
34.5
 20
23.0
 30
0.0
 11
0.0
 21
23.0
 31
0.0
  0
LINE
  5
259
330
256
100
AcDbEntity
  8
0
100
AcDbLine
 10
0.0
 20
0.0
 30
0.0
 11
34.5
 21
0.0
 31
0.0
  0
LINE
  5
25A
330
256
100
AcDbEntity
  8
0
100
AcDbLine
 10
0.0
 20
23.0
 30
0.0
 11
0.0
 21
0.0
 31
0.0
  0
ATTDEF
  5
25B
330
256
100
AcDbEntity
  8
0
 62
     0
100
AcDbText
 10
-0.05
 20
3.0
 30
0.0
 40
0.15
  1

 50
90.0
  7
Roman
100
AcDbAttributeDefinition
  3
Revision date:
  2
REVDATE
 70
     8
  0
ATTDEF
  5
25C
330
256
100
AcDbEntity
  8
0
 62
     0
100
AcDbText
 10
-0.05
 20
0.0
 30
0.0
 40
0.15
  1

 50
90.0
  7
Roman
100
AcDbAttributeDefinition
  3
Author:
  2
USER
 70
     8
  0
ATTDEF
  5
25D
330
256
100
AcDbEntity
  8
0
 62
     0
100
AcDbText
 10
-0.05
 20
6.0
 30
0.0
 40
0.15
  1

 50
90.0
  7
Roman
100
AcDbAttributeDefinition
  3
File name:
  2
FNAME
 70
     8
  0
LWPOLYLINE
  5
25E
330
256
100
AcDbEntity
  8
0
100
AcDbPolyline
 90
        8
 70
     1
 43
0.05
 10
30.0
 20
7.5
 10
33.0
 20
7.5
 42
0.4142135623730951
 10
33.25
 20
7.75
 10
33.25
 20
21.5
 42
0.4142135623730951
 10
33.0
 20
21.75
 10
30.0
 20
21.75
 42
0.4142135623730951
 10
29.75
 20
21.5
 10
29.75
 20
7.75
 42
0.4142135623730951
  0
LWPOLYLINE
  5
25F
330
256
100
AcDbEntity
  8
0
100
AcDbPolyline
 90
        8
 70
     1
 43
0.05
 10
30.0
 20
1.0
 10
33.0
 20
1.0
 42
0.4142135623730951
 10
33.5
 20
1.5
 10
33.5
 20
21.5
 42
0.4142135623730951
 10
33.0
 20
22.0
 10
30.0
 20
22.0
 42
0.4142135623730951
 10
29.5
 20
21.5
 10
29.5
 20
1.5
 42
0.4142135623730951
  0
LINE
  5
260
330
256
100
AcDbEntity
  8
0
100
AcDbLine
 10
34.5
 20
0.0
 30
0.0
 11
34.5
 21
23.0
 31
0.0
  0
LWPOLYLINE
  5
261
330
256
100
AcDbEntity
  8
0
100
AcDbPolyline
 90
        8
 70
     1
 43
0.05
 10
30.0
 20
3.0
 10
33.0
 20
3.0
 42
0.4142135623730951
 10
33.25
 20
3.25
 10
33.25
 20
4.75
 42
0.4142135623730951
 10
33.0
 20
5.0
 10
30.0
 20
5.0
 42
0.4142135623730951
 10
29.75
 20
4.75
 10
29.75
 20
3.25
 42
0.4142135623730951
  0
LWPOLYLINE
  5
262
330
256
100
AcDbEntity
  8
0
100
AcDbPolyline
 90
        2
 70
     0
 43
0.025
 10
29.75
 20
1.75
 10
31.75
 20
1.75
  0
LWPOLYLINE
  5
263
330
256
100
AcDbEntity
  8
0
100
AcDbPolyline
 90
        2
 70
     0
 43
0.025
 10
29.75
 20
2.25
 10
31.75
 20
2.25
  0
LWPOLYLINE
  5
264
330
256
100
AcDbEntity
  8
0
100
AcDbPolyline
 90
        8
 70
     1
 43
0.05
 10
30.0
 20
1.25
 10
33.0
 20
1.25
 42
0.4142135623730951
 10
33.25
 20
1.5
 10
33.25
 20
2.5
 42
0.4142135623730951
 10
33.0
 20
2.75
 10
30.0
 20
2.75
 42
0.4142135623730951
 10
29.75
 20
2.5
 10
29.75
 20
1.5
 42
0.4142135623730951
  0
TEXT
  5
265
330
256
100
AcDbEntity
  8
0
100
AcDbText
 10
29.9054
 20
1.613199999999999
 30
0.0
 40
0.065
  1
Scale
  7
Roman
100
AcDbText
  0
TEXT
  5
266
330
256
100
AcDbEntity
  8
0
100
AcDbText
 10
29.9054
 20
2.5846
 30
0.0
 40
0.065
  1
Project
  7
Roman
100
AcDbText
  0
TEXT
  5
267
330
256
100
AcDbEntity
  8
0
100
AcDbText
 10
29.9054
 20
2.098899999999999
 30
0.0
 40
0.065
  1
Date
  7
Roman
100
AcDbText
  0
LWPOLYLINE
  5
268
330
256
100
AcDbEntity
  8
0
100
AcDbPolyline
 90
        2
 70
     0
 43
0.025
 10
31.75
 20
1.25
 10
31.75
 20
2.75
  0
TEXT
  5
269
330
256
100
AcDbEntity
  8
0
100
AcDbText
 10
31.8899
 20
2.5846
 30
0.0
 40
0.065
  1
Sheet
  7
Roman
100
AcDbText
  0
LWPOLYLINE
  5
26A
330
256
100
AcDbEntity
  8
0
100
AcDbPolyline
 90
        2
 70
     0
 43
0.025
 10
32.625
 20
7.5
 10
32.625
 20
8.625
  0
TEXT
  5
26B
330
256
100
AcDbEntity
  8
0
100
AcDbText
 10
30.95544285714286
 20
7.6534
 30
0.0
 40
0.1
  1
Revision/Issue
  7
Roman
 72
     1
 11
31.4983
 21
7.7034
 31
0.0
100
AcDbText
 73
     2
  0
LWPOLYLINE
  5
26C
330
256
100
AcDbEntity
  8
0
100
AcDbPolyline
 90
        2
 70
     0
 43
0.025
 10
30.25
 20
7.5
 10
30.25
 20
8.625
  0
LWPOLYLINE
  5
26D
330
256
100
AcDbEntity
  8
0
100
AcDbPolyline
 90
        8
 70
     1
 43
0.05
 10
30.0
 20
5.25
 10
33.0
 20
5.25
 42
0.4142135623730951
 10
33.25
 20
5.5
 10
33.25
 20
7.0
 42
0.4142135623730951
 10
33.0
 20
7.25
 10
30.0
 20
7.25
 42
0.4142135623730951
 10
29.75
 20
7.0
 10
29.75
 20
5.5
 42
0.4142135623730951
  0
TEXT
  5
26E
330
256
100
AcDbEntity
  8
0
100
AcDbText
 10
29.9054
 20
4.8211
 30
0.0
 40
0.065
  1
Project Name and Address
  7
Roman
100
AcDbText
  0
TEXT
  5
26F
330
256
100
AcDbEntity
  8
0
100
AcDbText
 10
29.9054
 20
7.0711
 30
0.0
 40
0.065
  1
Firm Name and Address
  7
Roman
100
AcDbText
  0
LWPOLYLINE
  5
270
330
256
100
AcDbEntity
  8
0
100
AcDbPolyline
 90
        2
 70
     0
 43
0.025
 10
29.75
 20
8.625
 10
33.25
 20
8.625
  0
LWPOLYLINE
  5
271
330
256
100
AcDbEntity
  8
0
100
AcDbPolyline
 90
        2
 70
     0
 43
0.025
 10
29.75
 20
8.25
 10
33.25
 20
8.25
  0
LWPOLYLINE
  5
272
330
256
100
AcDbEntity
  8
0
100
AcDbPolyline
 90
        2
 70
     0
 43
0.025
 10
29.75
 20
7.875
 10
33.25
 20
7.875
  0
TEXT
  5
273
330
256
100
AcDbEntity
  8
0
100
AcDbText
 10
29.89217142857143
 20
7.6534
 30
0.0
 40
0.1
  1
No.
  7
Roman
 72
     1
 11
30.0136
 21
7.7034
 31
0.0
100
AcDbText
 73
     2
  0
TEXT
  5
274
330
256
100
AcDbEntity
  8
0
100
AcDbText
 10
32.76475238095238
 20
7.6534
 30
0.0
 40
0.1
  1
Date
  7
Roman
 72
     1
 11
32.9338
 21
7.7034
 31
0.0
100
AcDbText
 73
     2
  0
TEXT
  5
275
330
256
100
AcDbEntity
  8
0
100
AcDbText
 10
30.96258571428572
 20
21.5078
 30
0.0
 40
0.1
  1
General Notes
  7
Roman
 72
     1
 11
31.4983
 21
21.5578
 31
0.0
100
AcDbText
 73
     2
  0
LWPOLYLINE
  5
276
330
256
100
AcDbEntity
  8
0
100
AcDbPolyline
 90
        2
 70
     0
 43
0.025
 10
29.75
 20
21.375
 10
33.25
 20
21.375
  0
ENDBLK
  5
278
330
256
100
AcDbEntity
  8
0
100
AcDbBlockEnd
  0
BLOCK
  5
438
330
420
100
AcDbEntity
  8
0
100
AcDbBlockBegin
  2
Generic 24in x 36in Title Block
 70
     2
 10
0.0
 20
0.0
 30
0.0
  3
Generic 24in x 36in Title Block
  1

  4
Generic 24 inch x 36 inch title block and attributes.
  0
LWPOLYLINE
  5
421
330
420
100
AcDbEntity
  8
Title Block
100
AcDbPolyline
 90
        4
 70
     1
 43
0.02
 10
1.5
 20
1.25
 10
32.25
 20
1.25
 10
32.25
 20
21.75
 10
1.5
 20
21.75
  0
ATTDEF
  5
422
330
420
100
AcDbEntity
  8
0
 62
     0
100
AcDbText
 10
-0.05
 20
3.0
 30
0.0
 40
0.15
  1

 50
90.0
  7
Roman
100
AcDbAttributeDefinition
  3
Revision date:
  2
REVDATE
 70
     8
  0
LWPOLYLINE
  5
423
330
420
100
AcDbEntity
  8
Title Block
100
AcDbPolyline
 90
        3
 70
     0
 43
0.02
 10
0.0
 20
2.0
 10
0.0
 20
0.0
 10
2.0
 20
0.0
  0
ATTDEF
  5
424
330
420
100
AcDbEntity
  8
0
 62
     0
100
AcDbText
 10
-0.05
 20
0.0
 30
0.0
 40
0.15
  1

 50
90.0
  7
Roman
100
AcDbAttributeDefinition
  3
Author:
  2
USER
 70
     8
  0
ATTDEF
  5
425
330
420
100
AcDbEntity
  8
0
 62
     0
100
AcDbText
 10
-0.05
 20
6.0
 30
0.0
 40
0.15
  1

 50
90.0
  7
Roman
100
AcDbAttributeDefinition
  3
File name:
  2
FNAME
 70
     8
  0
LWPOLYLINE
  5
426
330
420
100
AcDbEntity
  8
Title Block
100
AcDbPolyline
 90
        3
 70
     0
 43
0.02
 10
0.0
 20
21.0
 10
0.0
 20
23.0
 10
2.0
 20
23.0
  0
LWPOLYLINE
  5
427
330
420
100
AcDbEntity
  8
Title Block
100
AcDbPolyline
 90
        4
 70
     1
 43
0.02
 10
32.375
 20
1.25
 10
34.0
 20
1.25
 10
34.0
 20
21.75
 10
32.375
 20
21.75
  0
LWPOLYLINE
  5
428
330
420
100
AcDbEntity
  8
Title Block
100
AcDbPolyline
 90
        3
 70
     0
 43
0.02
 10
32.5
 20
0.0
 10
34.5
 20
0.0
 10
34.5
 20
2.0
  0
LINE
  5
429
330
420
100
AcDbEntity
  8
Title Block
100
AcDbLine
 10
32.375
 20
3.694299999999998
 30
0.0
 11
34.0
 21
3.694299999999998
 31
0.0
  0
LINE
  5
42A
330
420
100
AcDbEntity
  8
Title Block
100
AcDbLine
 10
32.375
 20
3.319299999999998
 30
0.0
 11
34.0
 21
3.319299999999998
 31
0.0
  0
LINE
  5
42B
330
420
100
AcDbEntity
  8
Title Block
100
AcDbLine
 10
32.375
 20
2.944299999999998
 30
0.0
 11
34.0
 21
2.944299999999998
 31
0.0
  0
LINE
  5
42C
330
420
100
AcDbEntity
  8
Title Block
100
AcDbLine
 10
32.375
 20
2.569299999999997
 30
0.0
 11
34.0
 21
2.569299999999997
 31
0.0
  0
LINE
  5
42D
330
420
100
AcDbEntity
  8
Title Block
100
AcDbLine
 10
32.375
 20
4.069299999999998
 30
0.0
 11
34.0
 21
4.069299999999998
 31
0.0
  0
LWPOLYLINE
  5
42E
330
420
100
AcDbEntity
  8
Title Block
100
AcDbPolyline
 90
        3
 70
     0
 43
0.02
 10
32.5
 20
23.0
 10
34.5
 20
23.0
 10
34.5
 20
21.0
  0
LINE
  5
42F
330
420
100
AcDbEntity
  8
Title Block
100
AcDbLine
 10
33.625
 20
19.5
 30
0.0
 11
33.625
 21
21.375
 31
0.0
  0
LINE
  5
430
330
420
100
AcDbEntity
  8
Title Block
100
AcDbLine
 10
32.375
 20
20.75
 30
0.0
 11
34.0
 21
20.75
 31
0.0
  0
LINE
  5
431
330
420
100
AcDbEntity
  8
Title Block
100
AcDbLine
 10
32.375
 20
20.5
 30
0.0
 11
34.0
 21
20.5
 31
0.0
  0
LINE
  5
432
330
420
100
AcDbEntity
  8
Title Block
100
AcDbLine
 10
32.375
 20
20.25
 30
0.0
 11
34.0
 21
20.25
 31
0.0
  0
LINE
  5
433
330
420
100
AcDbEntity
  8
Title Block
100
AcDbLine
 10
32.375
 20
20.0
 30
0.0
 11
34.0
 21
20.0
 31
0.0
  0
LINE
  5
434
330
420
100
AcDbEntity
  8
Title Block
100
AcDbLine
 10
32.375
 20
19.75
 30
0.0
 11
34.0
 21
19.75
 31
0.0
  0
LINE
  5
435
330
420
100
AcDbEntity
  8
Title Block
100
AcDbLine
 10
32.375
 20
19.5
 30
0.0
 11
34.0
 21
19.5
 31
0.0
  0
LINE
  5
436
330
420
100
AcDbEntity
  8
Title Block
100
AcDbLine
 10
32.375
 20
21.375
 30
0.0
 11
34.0
 21
21.375
 31
0.0
  0
LINE
  5
437
330
420
100
AcDbEntity
  8
Title Block
100
AcDbLine
 10
32.375
 20
21.0
 30
0.0
 11
34.0
 21
21.0
 31
0.0
  0
ENDBLK
  5
439
330
420
100
AcDbEntity
  8
0
100
AcDbBlockEnd
  0
BLOCK
  5
1172
330
1171
100
AcDbEntity
  8
0
100
AcDbBlockBegin
  2
A$C25F94DAA
 70
     0
 10
0.0
 20
0.0
 30
0.0
  3
A$C25F94DAA
  1

  0
HATCH
  5
1173
330
1171
100
AcDbEntity
  8
G__TOTO
100
AcDbHatch
 10
0.0
 20
0.0
 30
0.0
210
0.0
220
0.0
230
1.0
  2
SOLID
 70
     1
 71
     0
 91
       10
 92
        7
 72
     1
 73
     1
 93
       20
 10
13.19402521885484
 20
18.25712700364507
 42
0.0
 10
15.01373159391248
 20
18.25712700364507
 42
-0.4142752124674323
 10
19.08352437970567
 20
14.18647750956153
 42
0.0
 10
19.08329368943001
 20
13.09046800649559
 42
0.0
 10
21.49480086177953
 20
13.09046800649559
 42
0.0
 10
21.49639592936968
 20
20.6686341225768
 42
0.0
 10
0.0001576684527933
 20
20.6686341225768
 42
0.0
 10
0.0000006681085978
 20
13.09046800649559
 42
0.0
 10
2.411028174539453
 20
13.09046800649559
 42
0.0
 10
2.411259225421126
 20
14.18819074583983
 42
-0.4141519149660894
 10
6.481052011214764
 20
18.25712700364507
 42
0.0
 10
8.302581603377056
 20
18.25712700364507
 42
0.0
 10
8.299611386899577
 20
4.615898124752447
 42
-0.4141497897727592
 10
6.783678509421122
 20
3.10029528781956
 42
0.0
 10
4.200018873120541
 20
3.10029528781956
 42
0.0
 10
4.199493795927252
 20
0.6887881688869584
 42
0.0
 10
17.28946242972519
 20
0.6887881688869584
 42
0.0
 10
17.2899875069185
 20
3.10029528781956
 42
0.0
 10
14.70698802359418
 20
3.10029528781956
 42
-0.4142773378492039
 10
13.19105514611615
 20
4.616558277712782
 42
0.0
 97
        0
 92
        7
 72
     1
 73
     1
 93
       20
 10
64.73632732604989
 20
18.25712700364507
 42
0.0
 10
66.55603370110809
 20
18.25712700364507
 42
-0.4142752124674332
 10
70.62582648690121
 20
14.18647750956153
 42
0.0
 10
70.62559579662601
 20
13.09046800649559
 42
0.0
 10
73.037102968976
 20
13.09046800649559
 42
0.0
 10
73.03869803656571
 20
20.6686341225768
 42
0.0
 10
51.54245977564932
 20
20.6686341225768
 42
0.0
 10
51.54230277530465
 20
13.09046800649559
 42
0.0
 10
53.95333028173549
 20
13.09046800649559
 42
0.0
 10
53.95356133261721
 20
14.18819074583983
 42
-0.414151914966089
 10
58.02335411840989
 20
18.25712700364507
 42
0.0
 10
59.84488371057349
 20
18.25712700364507
 42
0.0
 10
59.84191349409511
 20
4.615898124752447
 42
-0.41414978977276
 10
58.32598061661709
 20
3.10029528781956
 42
0.0
 10
55.7423209803165
 20
3.10029528781956
 42
0.0
 10
55.74179590312279
 20
0.6887881688869584
 42
0.0
 10
68.83176453692171
 20
0.6887881688869584
 42
0.0
 10
68.832289614115
 20
3.10029528781956
 42
0.0
 10
66.24929013078972
 20
3.10029528781956
 42
-0.4142773378492051
 10
64.73335725331221
 20
4.616558277712782
 42
0.0
 97
        0
 92
       16
 93
        4
 72
     2
 10
36.51755001847156
 20
7.987251252895021
 40
5.57574368554687
 50
199.1202649999999
 51
340.867675
 73
     1
 72
     2
 10
28.76763787198722
 20
10.67579613375378
 40
13.77875638476562
 50
340.867675
 51
379.193527
 73
     1
 72
     2
 10
36.51811670206568
 20
13.37381659078562
 40
5.572097973632804
 50
19.193527
 51
160.7944129999999
 73
     1
 72
     2
 10
44.26802742472154
 20
10.67416513863689
 40
13.77875638476562
 50
160.7944129999999
 51
199.1202649999999
 73
     1
 97
        0
 92
        1
 93
        4
 72
     2
 10
35.24335697452639
 20
10.67511483199655
 40
10.33431681445309
 50
142.997119
 51
216.4375859999998
 73
     1
 72
     2
 10
36.51816012882331
 20
12.40118037691831
 40
12.40118060449218
 50
219.356321
 51
320.61032
 73
     1
 72
     2
 10
37.7923090340961
 20
10.67484644039484
 40
10.33431681445309
 50
323.5257889999999
 51
396.965523
 73
     1
 72
     2
 10
36.51750659171391
 20
8.956241754848292
 40
12.40118060449218
 50
39.769149
 51
140.196876
 73
     1
 97
        0
 92
        1
 93
        4
 72
     2
 10
86.7847006405419
 20
10.67511483199655
 40
10.33431681445309
 50
142.997119
 51
216.4375859999998
 73
     1
 72
     2
 10
88.0595037948388
 20
12.40118037691831
 40
12.40118060449218
 50
219.356321
 51
320.61032
 73
     1
 72
     2
 10
89.33365270011208
 20
10.67484644039484
 40
10.33431681445309
 50
323.5257889999999
 51
396.965523
 73
     1
 72
     2
 10
88.058850257729
 20
8.956241754848292
 40
12.40118060449218
 50
39.769149
 51
140.196876
 73
     1
 97
        0
 92
       16
 93
        4
 72
     2
 10
88.05889368448708
 20
7.987251252895021
 40
5.57574368554687
 50
199.1202649999999
 51
340.867675
 73
     1
 72
     2
 10
80.3089815380032
 20
10.67579613375378
 40
13.77875638476562
 50
340.867675
 51
379.193527
 73
     1
 72
     2
 10
88.05946036808121
 20
13.37381659078562
 40
5.572097973632804
 50
19.193527
 51
160.7944129999999
 73
     1
 72
     2
 10
95.80937109073699
 20
10.67416513863689
 40
13.77875638476562
 50
160.7944129999999
 51
199.1202649999999
 73
     1
 97
        0
 92
        0
 93
       67
 72
     1
 10
102.9465800946437
 20
19.89683811129339
 11
102.9627405438624
 21
19.89661670601957
 72
     1
 10
102.9627405438624
 20
19.89661670601957
 11
102.9959477753077
 21
19.8955096796528
 72
     1
 10
102.9959477753074
 20
19.89550967965237
 11
103.0280479803854
 21
19.89307493355886
 72
     1
 10
103.0280479803852
 20
19.89307493355907
 11
103.0594832577288
 21
19.88953244918398
 72
     1
 10
103.059483257729
 20
19.88953244918376
 11
103.0898122206197
 21
19.88466224508215
 72
     1
 10
103.0898122206199
 20
19.88466224508215
 11
103.1194776796044
 21
19.87846360933986
 72
     1
 10
103.1194776796044
 20
19.87846360933986
 11
103.1482568055813
 21
19.87137935250416
 72
     1
 10
103.1482568055813
 20
19.87137935250439
 11
103.1759289051906
 21
19.86274525875399
 72
     1
 10
103.1759289051906
 20
19.86274525875407
 11
103.2029375008935
 21
19.85300485055097
 72
     1
 10
103.2029375008932
 20
19.85300485055106
 11
103.2290604755027
 21
19.84215741598096
 72
     1
 10
103.2290604755027
 20
19.84215741598061
 11
103.2542978290182
 21
19.82998154976985
 72
     1
 10
103.2542978290186
 20
19.82998154977006
 11
103.2786495614402
 21
19.81669865719128
 72
     1
 10
103.2786495614405
 20
19.81669865719128
 11
103.3018942674952
 21
19.80208733297319
 72
     1
 10
103.3018942674952
 20
19.80208733297306
 11
103.3244747577297
 21
19.78636969430089
 72
     1
 10
103.3244747577297
 20
19.78636969430112
 11
103.3461703387842
 21
19.7693236239886
 72
     1
 10
103.3461703387839
 20
19.76932362398918
 11
103.3643234354638
 21
19.75294105758234
 72
     1
 10
103.3643234354636
 20
19.75294105758234
 11
103.3844684676902
 21
19.73257462008198
 72
     1
 10
103.3844684676906
 20
19.73257462008198
 11
103.4028429696437
 21
19.71110044430109
 72
     1
 10
103.4028429696437
 20
19.71110044430122
 11
103.4196683465967
 21
19.68874135934004
 72
     1
 10
103.4196683465967
 20
19.68874135934004
 11
103.4349431747217
 21
19.66527524801232
 72
     1
 10
103.4349431747215
 20
19.66527524801221
 11
103.4486688778462
 21
19.64092351558962
 72
     1
 10
103.4486688778465
 20
19.64092351558952
 11
103.460623338784
 21
19.61546475680073
 72
     1
 10
103.460623338784
 20
19.61546475680107
 11
103.4710279628074
 21
19.5888989716451
 72
     1
 10
103.4710279628072
 20
19.58889897164462
 11
103.4798834618305
 21
19.56144827730894
 72
     1
 10
103.4798834618315
 20
19.56144827730907
 11
103.4869677186672
 21
19.53311124996503
 72
     1
 10
103.4869677186667
 20
19.53311124996503
 11
103.492723543862
 21
19.50344650289503
 72
     1
 10
103.4927235438616
 20
19.50344650289503
 11
103.4967081268696
 21
19.47311754000439
 72
     1
 10
103.4967081268696
 20
19.47311754000407
 11
103.4991435848773
 21
19.44146014547344
 72
     1
 10
103.4991435848773
 20
19.441460145473
 11
103.4998078006978
 21
19.4089178417621
 72
     1
 10
103.4998078006984
 20
19.40891784176232
 11
103.4995863954248
 21
19.38522961324656
 72
     1
 10
103.4995863954246
 20
19.38522961324656
 11
103.4987007743307
 21
19.35113747262153
 72
     1
 10
103.4987007743312
 20
19.35113747262153
 11
103.4967081268702
 21
19.31815164644955
 72
     1
 10
103.4967081268696
 20
19.31815164644945
 11
103.4936091649556
 21
19.28627355855883
 72
     1
 10
103.4936091649562
 20
19.28627355855883
 11
103.4898452753077
 21
19.25528037984769
 72
     1
 10
103.4898452753074
 20
19.25528037984816
 11
103.485196476479
 21
19.22517282223087
 72
     1
 10
103.4851964764794
 20
19.22517282223087
 11
103.4794406512842
 21
19.19639298434002
 72
     1
 10
103.4794406512842
 20
19.19639298434002
 11
103.4730206102684
 21
19.16827807418394
 72
     1
 10
103.473020610268
 20
19.16827807418405
 11
103.4654935428853
 21
19.1414908837538
 72
     1
 10
103.4654935428857
 20
19.1414908837538
 11
103.4570815663234
 21
19.11558931441857
 72
     1
 10
103.4570815663228
 20
19.11558931441834
 11
103.4477832567524
 21
19.09057336617604
 72
     1
 10
103.4477832567527
 20
19.09057336617604
 11
103.4376000380027
 21
19.06688584957407
 72
     1
 10
103.4376000380024
 20
19.06688584957439
 11
103.4265311981588
 21
19.04386254879341
 72
     1
 10
103.426531198159
 20
19.04386254879305
 11
103.4143546200338
 21
19.02216767965251
 72
     1
 10
103.4143546200338
 20
19.02216767965251
 11
103.4015152499168
 21
19.00135771969132
 72
     1
 10
103.401515249917
 20
19.00135771969121
 11
103.3875681415185
 21
18.98143338082457
 72
     1
 10
103.3875681415185
 20
18.98143338082502
 11
103.3729568172997
 21
18.96261606832455
 72
     1
 10
103.3729568172991
 20
18.96261606832479
 11
103.3572391786274
 21
18.94490578219188
 72
     1
 10
103.3572391786284
 20
18.94490578219188
 11
103.3406359188626
 21
18.92830252242582
 72
     1
 10
103.3406359188622
 20
18.92830252242605
 11
103.3231463260886
 21
18.91236347848098
 72
     1
 10
103.323146326089
 20
18.91236347848098
 11
103.3047718241359
 21
18.89775215426232
 72
     1
 10
103.304771824136
 20
18.8977521542622
 11
103.2852910077298
 21
18.88402645113717
 72
     1
 10
103.285291007729
 20
18.88402645113704
 11
103.265145263588
 21
18.87140777437855
 72
     1
 10
103.2651452635892
 20
18.87140777437921
 11
103.2438924930815
 21
18.85967471871503
 72
     1
 10
103.2438924930813
 20
18.85967471871503
 11
103.2219762186668
 21
18.84904868941839
 72
     1
 10
103.2219762186667
 20
18.84904868941862
 11
103.1989529178857
 21
18.83930756930087
 72
     1
 10
103.1989529178858
 20
18.83930756930087
 11
103.175043996011
 21
18.83067418746509
 72
     1
 10
103.1750439960104
 20
18.83067418746509
 11
103.1502494530417
 21
18.8231471200821
 72
     1
 10
103.1502494530422
 20
18.82314712008246
 11
103.1245692889799
 21
18.81650567379346
 72
     1
 10
103.1245692889789
 20
18.81650567379323
 11
103.097782098549
 21
18.81097125387143
 72
     1
 10
103.09778209855
 20
18.81097125387157
 11
103.0703314042139
 21
18.80632245504373
 72
     1
 10
103.0703314042139
 20
18.80632245504341
 11
103.0417729715968
 21
18.80277997066842
 72
     1
 10
103.0417729715964
 20
18.80277997066809
 11
103.0125510350728
 21
18.80034522457446
 72
     1
 10
103.0125510350724
 20
18.80034522457469
 11
102.9822220721821
 21
18.79879538766031
 72
     1
 10
102.9822220721821
 20
18.79879538766067
 11
102.9510074881978
 21
18.79813117184005
 72
     1
 10
102.9510074881982
 20
18.79813117184005
 11
101.8753245614405
 21
18.79813117184005
 72
     1
 10
101.8753245614403
 20
18.79813117184005
 11
101.8753245614403
 21
19.89683811129339
 72
     1
 10
101.8753245614403
 20
19.89683811129339
 11
102.9465800946432
 21
19.89683811129339
 97
        0
 92
        0
 93
      207
 72
     1
 10
103.5896876630027
 20
18.5725455390276
 11
103.5602443212057
 21
18.59446181344207
 72
     1
 10
103.5602443212056
 20
18.59446181344194
 11
103.5288083319479
 21
18.61704301558995
 72
     1
 10
103.5288083319483
 20
18.61704301559007
 11
103.495601100503
 21
18.64006631637153
 72
     1
 10
103.4956011005023
 20
18.64006631637153
 11
103.5150826288228
 21
18.65423483004314
 72
     1
 10
103.5150826288237
 20
18.65423483004337
 11
103.5420912245267
 21
18.67482267281705
 72
     1
 10
103.5420912245264
 20
18.67482267281705
 11
103.5679920819482
 21
18.69541122750387
 72
     1
 10
103.567992081948
 20
18.69541122750342
 11
103.5930080301902
 21
18.71644259273841
 72
     1
 10
103.5930080301906
 20
18.71644259273819
 11
103.6171383573391
 21
18.73769465133214
 72
     1
 10
103.6171383573387
 20
18.7376946513325
 11
103.6403837753075
 21
18.75916882711385
 72
     1
 10
103.6403837753073
 20
18.75916882711385
 11
103.6625214549947
 21
18.78086369625407
 72
     1
 10
103.6625214549949
 20
18.78086369625407
 11
103.6837742255029
 21
18.8030013759411
 72
     1
 10
103.6837742255029
 20
18.80300137594155
 11
103.7041406630029
 21
18.8253611728171
 72
     1
 10
103.7041406630023
 20
18.8253611728171
 11
103.7236221913225
 21
18.84794166305162
 72
     1
 10
103.7236221913235
 20
18.8479416630513
 11
103.7419966932765
 21
18.87074355855963
 72
     1
 10
103.7419966932767
 20
18.87074355855907
 11
103.7594855741362
 21
18.89398897652753
 72
     1
 10
103.7594855741353
 20
18.89398897652753
 11
103.7760888339011
 21
18.91723368258248
 72
     1
 10
103.7760888339007
 20
18.91723368258248
 11
103.7915857792133
 21
18.94092119918444
 72
     1
 10
103.7915857792142
 20
18.940921199184
 11
103.8061971034327
 21
18.96483012105908
 72
     1
 10
103.8061971034327
 20
18.96483012105919
 11
103.8199220946438
 21
18.98918185348088
 72
     1
 10
103.8199220946435
 20
18.98918185348088
 11
103.8327621766748
 21
19.01353358590256
 72
     1
 10
103.8327621766748
 20
19.01353358590245
 11
103.844495232339
 21
19.0383281288715
 72
     1
 10
103.844495232339
 20
19.0383281288715
 11
103.855343378823
 21
19.06334407711347
 72
     1
 10
103.8553433788234
 20
19.06334407711357
 11
103.8653051922999
 21
19.08858143062957
 72
     1
 10
103.8653051922991
 20
19.08858143062934
 11
103.8743813846821
 21
19.11426159469192
 72
     1
 10
103.8743813846823
 20
19.11426159469215
 11
103.8823512626119
 21
19.13994104684023
 72
     1
 10
103.8823512626119
 20
19.13994104684001
 11
103.8894355194478
 21
19.16606402144964
 72
     1
 10
103.889435519448
 20
19.16606402144964
 11
103.89563415519
 21
19.19240840133261
 72
     1
 10
103.89563415519
 20
19.19240840133237
 11
103.9007257645653
 21
19.21919559176204
 72
     1
 10
103.9007257645653
 20
19.21919559176204
 11
103.9051531581202
 21
19.24598207027792
 72
     1
 10
103.9051531581199
 20
19.24598207027759
 11
103.908252831948
 21
19.27321207125442
 72
     1
 10
103.9082528319478
 20
19.27321207125396
 11
103.9106875780414
 21
19.30066276559021
 72
     1
 10
103.9106875780418
 20
19.30066276559
 11
103.9122374149557
 21
19.3283355771133
 72
     1
 10
103.9122374149556
 20
19.3283355771133
 11
103.9126802255027
 21
19.3562290819965
 72
     1
 10
103.9126802255023
 20
19.3562290819965
 11
103.9124588202288
 21
19.38235205660587
 72
     1
 10
103.9124588202294
 20
19.38235205660587
 11
103.9115731991357
 21
19.41843684469153
 72
     1
 10
103.9115731991353
 20
19.41843684469153
 11
103.9100240741354
 21
19.45385741695712
 72
     1
 10
103.9100240741352
 20
19.45385741695712
 11
103.9078100214011
 21
19.48817167476931
 72
     1
 10
103.9078100214011
 20
19.48817167476931
 11
103.9049317528462
 21
19.52204241012123
 72
     1
 10
103.9049317528462
 20
19.52204241012189
 11
103.9011685751118
 21
19.55480683101995
 72
     1
 10
103.9011685751126
 20
19.55480683101995
 11
103.8967411815577
 21
19.58712772945714
 72
     1
 10
103.8967411815574
 20
19.5871277294575
 11
103.8916495721821
 21
19.6183423134421
 72
     1
 10
103.8916495721821
 20
19.6183423134421
 11
103.8858937469872
 21
19.64889268160607
 72
     1
 10
103.8858937469873
 20
19.64889268160595
 11
103.8794737059717
 21
19.67855814059009
 72
     1
 10
103.8794737059717
 20
19.67855814058998
 11
103.8723894491357
 21
19.70755867184003
 72
     1
 10
103.8723894491359
 20
19.70755867184003
 11
103.8644195712062
 21
19.73567358199659
 72
     1
 10
103.8644195712059
 20
19.73567358199669
 11
103.8557854774559
 21
19.76290358297307
 72
     1
 10
103.8557854774562
 20
19.76290358297296
 11
103.8464878797998
 21
19.78946865621503
 72
     1
 10
103.8464878797995
 20
19.78946865621503
 11
103.8365260663228
 21
19.81537022555128
 72
     1
 10
103.8365260663228
 20
19.81537022555128
 11
103.8258993251122
 21
19.84016476852001
 72
     1
 10
103.8258993251125
 20
19.84016476851968
 11
103.8143876747219
 21
19.86429509566821
 72
     1
 10
103.8143876747217
 20
19.86429509566821
 11
103.8024332137843
 21
19.88776120699628
 72
     1
 10
103.8024332137839
 20
19.88776120699583
 11
103.7895931317524
 21
19.91034240914496
 72
     1
 10
103.7895931317524
 20
19.9103424091446
 11
103.7760888339011
 21
19.93203727828563
 72
     1
 10
103.7760888339007
 20
19.93203727828563
 11
103.7619210321429
 21
19.95306864351926
 72
     1
 10
103.7619210321437
 20
19.95306864351926
 11
103.7468668973781
 21
19.97321367574636
 72
     1
 10
103.7468668973779
 20
19.97321367574659
 11
103.7313706639794
 21
19.99247379879318
 72
     1
 10
103.7313706639797
 20
19.99247379879363
 11
103.7149880975735
 21
20.01106970601994
 72
     1
 10
103.714988097573
 20
20.01106970601961
 11
103.7003774852685
 21
20.02634524605878
 72
     1
 10
103.7003774852684
 20
20.026345246059
 11
103.6831100096822
 21
20.04272710055113
 72
     1
 10
103.6831100096822
 20
20.04272710055113
 11
103.6651783182761
 21
20.05866685641057
 72
     1
 10
103.6651783182761
 20
20.05866685641057
 11
103.6465824110497
 21
20.07394168453561
 72
     1
 10
103.6465824110497
 20
20.07394168453504
 11
103.6271008827293
 21
20.0885530087537
 72
     1
 10
103.6271008827297
 20
20.08855300875438
 11
103.6067337333157
 21
20.10272081051243
 72
     1
 10
103.6067337333149
 20
20.10272081051196
 11
103.5857030799949
 21
20.11622510836355
 72
     1
 10
103.5857030799952
 20
20.11622510836355
 11
103.5640074989407
 21
20.1290651903946
 72
     1
 10
103.5640074989407
 20
20.12906519039427
 11
103.5414270087058
 21
20.14146246187862
 72
     1
 10
103.5414270087057
 20
20.14146246187896
 11
103.5181823026511
 21
20.15319551754316
 72
     1
 10
103.5181823026515
 20
20.15319551754271
 11
103.4940512635887
 21
20.16426435738707
 72
     1
 10
103.4940512635885
 20
20.1642643573873
 11
103.4692574325337
 21
20.17489109859798
 72
     1
 10
103.4692574325337
 20
20.17489109859821
 11
103.4435772684713
 21
20.18463150680087
 72
     1
 10
103.4435772684709
 20
20.18463150680064
 11
103.4172328885883
 21
20.19392910445707
 72
     1
 10
103.4172328885889
 20
20.1939291044572
 11
103.3900028876123
 21
20.20278460348071
 72
     1
 10
103.3900028876119
 20
20.20278460348083
 11
103.362109382729
 21
20.21075448141059
 72
     1
 10
103.3621093827294
 20
20.2107544814105
 11
103.3333302567529
 21
20.21828083687931
 72
     1
 10
103.3333302567527
 20
20.21828083687954
 11
103.3038869149556
 21
20.22514368844213
 72
     1
 10
103.303886914956
 20
20.2251436884411
 11
103.2737786454247
 21
20.23156372945674
 72
     1
 10
103.2737786454245
 20
20.23156372945709
 11
103.2425647733542
 21
20.23709814937955
 72
     1
 10
103.2425647733544
 20
20.23709814937955
 11
103.2109073788231
 21
20.24241187594191
 72
     1
 10
103.2109073788229
 20
20.24241187594191
 11
103.1783643631978
 21
20.24683926949648
 72
     1
 10
103.178364363198
 20
20.2468392694966
 11
103.1451571317528
 21
20.2506024472309
 72
     1
 10
103.145157131753
 20
20.25060244723067
 11
103.1110649911276
 21
20.25392352633218
 72
     1
 10
103.1110649911274
 20
20.25392352633218
 11
103.0760872294087
 21
20.25680108297307
 72
     1
 10
103.076087229409
 20
20.25680108297295
 11
103.0404452518701
 21
20.25879373043403
 72
     1
 10
103.0404452518697
 20
20.25879373043403
 11
103.0041383465958
 21
20.26034356734816
 72
     1
 10
103.0041383465966
 20
20.26034356734816
 11
102.9669465321437
 21
20.26122847652755
 72
     1
 10
102.9669465321432
 20
20.26122847652755
 11
102.9290912137841
 21
20.26144988180055
 72
     1
 10
102.9290912137839
 20
20.26144988180111
 11
101.4626728299949
 21
20.26144988180111
 72
     1
 10
101.4626728299951
 20
20.26144988180111
 11
101.4626728299951
 21
17.05808790621563
 72
     1
 10
101.4626728299951
 20
17.0580879062154
 11
101.8753245614403
 21
17.0580879062154
 72
     1
 10
101.8753245614403
 20
17.0580879062154
 11
101.8753245614403
 21
18.43351940133254
 72
     1
 10
101.8753245614403
 20
18.43351940133209
 11
102.9510074881982
 21
18.43351940133209
 72
     1
 10
102.9510074881982
 20
18.43351940133209
 11
102.9753592206199
 21
18.4330765907855
 72
     1
 10
102.9753592206196
 20
18.43307659078573
 11
103.0041383465962
 21
18.43152675387158
 72
     1
 10
103.0041383465966
 20
18.43152675387158
 11
103.0322539686671
 21
18.42886989059001
 72
     1
 10
103.0322539686667
 20
18.42886989059001
 11
103.0592618524559
 21
18.42510671285594
 72
     1
 10
103.0592618524559
 20
18.42510671285561
 11
103.0853848270653
 21
18.42023650875398
 72
     1
 10
103.0853848270653
 20
18.42023650875455
 11
103.110622180581
 21
18.41403787301237
 72
     1
 10
103.1106221805812
 20
18.41403787301237
 11
103.1349739130031
 21
18.40695361617621
 72
     1
 10
103.1349739130027
 20
18.40695361617621
 11
103.1584400243307
 21
18.3985409276994
 72
     1
 10
103.158440024331
 20
18.3985409276994
 11
103.1810212264794
 21
18.38902192476982
 72
     1
 10
103.1810212264792
 20
18.38902192476982
 11
103.2024946903463
 21
18.37817449019961
 72
     1
 10
103.2024946903467
 20
18.37817449019961
 11
103.2233046503076
 21
18.36644143453542
 72
     1
 10
103.2233046503076
 20
18.36644143453566
 11
103.2430068719869
 21
18.35337994723124
 72
     1
 10
103.2430068719873
 20
18.35337994723112
 11
103.2618241844873
 21
18.33943283883229
 72
     1
 10
103.2618241844875
 20
18.33943283883229
 11
103.2797558758939
 21
18.32415801070737
 72
     1
 10
103.2797558758935
 20
18.32415801070737
 11
103.2968026581201
 21
18.30777544430157
 72
     1
 10
103.2968026581199
 20
18.30777544430111
 11
103.3129631073385
 21
18.2900651581682
 72
     1
 10
103.3129631073389
 20
18.29006515816809
 11
103.3282386473779
 21
18.27146925094166
 72
     1
 10
103.3282386473775
 20
18.27146925094189
 11
103.3424064491353
 21
18.25154491207455
 72
     1
 10
103.3424064491355
 20
18.25154491207431
 11
103.3559107469872
 21
18.23051425875417
 72
     1
 10
103.3559107469874
 20
18.23051425875417
 11
103.3683080184715
 21
18.20837586715231
 72
     1
 10
103.3683080184709
 20
18.20837586715253
 11
103.3800410741352
 21
18.18513116109807
 72
     1
 10
103.380041074136
 20
18.18513116109818
 11
103.390667103433
 21
18.16077942867626
 72
     1
 10
103.390667103433
 20
18.16077942867626
 11
103.40040822355
 21
18.13509926461346
 72
     1
 10
103.4004082235497
 20
18.13509926461346
 11
103.409263010659
 21
18.10853419137151
 72
     1
 10
103.4092630106588
 20
18.10853419137151
 11
103.4172328885887
 21
18.08063997457417
 72
     1
 10
103.4172328885889
 20
18.08063997457417
 11
103.4240957401515
 21
18.05163944332468
 72
     1
 10
103.4240957401512
 20
18.05163944332457
 11
103.4302943758932
 21
18.0213104804338
 72
     1
 10
103.4302943758935
 20
18.02131048043418
 11
103.4353859852686
 21
17.99009589645002
 72
     1
 10
103.4353859852682
 20
17.99009589644902
 11
103.4398133788227
 21
17.95755288082455
 72
     1
 10
103.4398133788237
 20
17.95755288082466
 11
103.4431344579251
 21
17.92412495601955
 72
     1
 10
103.4431344579244
 20
17.92412495601968
 11
103.4455692040181
 21
17.88936859957425
 72
     1
 10
103.4455692040182
 20
17.88936859957448
 11
103.4471190409324
 21
17.85350450484816
 72
     1
 10
103.4471190409328
 20
17.85350450484816
 11
103.446233419839
 21
17.83358087789497
 72
     1
 10
103.4462334198386
 20
17.83358087789497
 11
103.4444628895653
 21
17.79572484762172
 72
     1
 10
103.4444628895653
 20
17.79572484762161
 11
103.4429130526514
 21
17.758975843715
 72
     1
 10
103.4429130526514
 20
17.75897584371512
 11
103.441806026284
 21
17.72333386617628
 72
     1
 10
103.441806026284
 20
17.72333386617606
 11
103.4411418104639
 21
17.68879820308982
 72
     1
 10
103.4411418104635
 20
17.68879820308982
 11
103.4409204051903
 21
17.6553702782853
 72
     1
 10
103.4409204051903
 20
17.65537027828566
 11
103.4409204051903
 21
17.62282726266005
 72
     1
 10
103.4409204051903
 20
17.62282726266062
 11
103.4411418104635
 21
17.59139127340256
 72
     1
 10
103.4411418104635
 20
17.59139127340277
 11
103.4420274315574
 21
17.56106231051228
 72
     1
 10
103.4420274315571
 20
17.56106231051203
 11
103.442913052651
 21
17.53184037398864
 72
     1
 10
103.4429130526514
 20
17.53184037398864
 11
103.4444628895653
 21
17.50372475191841
 72
     1
 10
103.4444628895653
 20
17.50372475191873
 11
103.4462334198386
 21
17.47649546285595
 72
     1
 10
103.4462334198386
 20
17.47649546285559
 11
103.4482260672997
 21
17.45059389351956
 72
     1
 10
103.4482260672991
 20
17.45059389352
 11
103.4508829305807
 21
17.42557794527761
 72
     1
 10
103.4508829305806
 20
17.42557794527761
 11
103.4535390819477
 21
17.40166902340263
 72
     1
 10
103.4535390819482
 20
17.40166902340273
 11
103.4568601610498
 21
17.37864572262196
 72
     1
 10
103.45686016105
 20
17.37864572262151
 11
103.4604019335108
 21
17.35695014156613
 72
     1
 10
103.4604019335102
 20
17.35695014156613
 11
103.4617303651508
 21
17.34853816500435
 72
     1
 10
103.4617303651512
 20
17.34853816500458
 11
103.4672647850729
 21
17.31798779684095
 72
     1
 10
103.4672647850733
 20
17.31798779684061
 11
103.4732420155419
 21
17.2878802392231
 72
     1
 10
103.4732420155419
 20
17.2878802392231
 11
103.4798834618309
 21
17.25799408687942
 72
     1
 10
103.4798834618315
 20
17.25799408687919
 11
103.4867463133938
 21
17.22832862789505
 72
     1
 10
103.4867463133932
 20
17.22832862789505
 11
103.4942726688619
 21
17.19910669137175
 72
     1
 10
103.4942726688619
 20
17.19910669137151
 11
103.5024639520649
 21
17.1703275653947
 72
     1
 10
103.5024639520649
 20
17.17032756539458
 11
103.5108766405417
 21
17.14176984469145
 72
     1
 10
103.5108766405419
 20
17.14176984469156
 11
103.5199528329248
 21
17.11343281734809
 72
     1
 10
103.5199528329248
 20
17.11343281734809
 11
103.5294725477684
 21
17.08553931246513
 72
     1
 10
103.5294725477676
 20
17.08553931246501
 11
103.5394343612445
 21
17.05808790621495
 72
     1
 10
103.5394343612452
 20
17.0580879062154
 11
104.0355459139794
 21
17.0580879062154
 72
     1
 10
104.0355459139792
 20
17.0580879062154
 11
104.0355459139792
 21
17.16346471383292
 72
     1
 10
104.0355459139792
 20
17.16346471383292
 11
104.0154001698387
 21
17.18073218941901
 72
     1
 10
104.0154001698384
 20
17.18073218941845
 11
103.9937053006976
 21
17.2015421493794
 72
     1
 10
103.993705300698
 20
17.20154214937918
 11
103.9740023671043
 21
17.22345842379354
 72
     1
 10
103.9740023671039
 20
17.22345842379309
 11
103.9562920809709
 21
17.24626031930097
 72
     1
 10
103.9562920809717
 20
17.24626031930142
 11
103.9405744422999
 21
17.27039135836377
 72
     1
 10
103.9405744422994
 20
17.27039135836377
 11
103.9266273339009
 21
17.29540659469205
 72
     1
 10
103.9266273339007
 20
17.29540659469205
 11
103.914672872963
 21
17.32130816402775
 72
     1
 10
103.9146728729636
 20
17.32130816402752
 11
103.9047103475732
 21
17.34853816500435
 72
     1
 10
103.9047103475732
 20
17.34853816500458
 11
103.8965197762842
 21
17.37665307516067
 72
     1
 10
103.8965197762842
 20
17.37665307516067
 11
103.8905425458154
 21
17.40565360641084
 72
     1
 10
103.8905425458156
 20
17.40565360641062
 11
103.8863358456203
 21
17.4359825693009
 72
     1
 10
103.8863358456201
 20
17.43598256930113
 11
103.8858937469874
 21
17.4424026103162
 72
     1
 10
103.8858937469873
 20
17.44240261031666
 11
103.8832368837059
 21
17.48380112496533
 72
     1
 10
103.8832368837057
 20
17.4838011249651
 11
103.8805800204245
 21
17.52409190133255
 72
     1
 10
103.8805800204245
 20
17.52409190133221
 11
103.8781452743307
 21
17.56327636324613
 72
     1
 10
103.8781452743311
 20
17.56327636324636
 11
103.8757098163231
 21
17.60135379879307
 72
     1
 10
103.8757098163231
 20
17.60135379879341
 11
103.8734964755031
 21
17.63854490133256
 72
     1
 10
103.8734964755027
 20
17.63854490133256
 11
103.8712824227682
 21
17.67440899605935
 72
     1
 10
103.8712824227687
 20
17.67440899605901
 11
103.8690683700342
 21
17.70938675777755
 72
     1
 10
103.8690683700344
 20
17.70938675777755
 11
103.8672978397607
 21
17.74325749312901
 72
     1
 10
103.8672978397604
 20
17.74325749312867
 11
103.8653051922995
 21
17.77602191402752
 72
     1
 10
103.8653051922991
 20
17.77602191402752
 11
103.8635339501116
 21
17.80767930855903
 72
     1
 10
103.8635339501126
 20
17.80767930855903
 11
103.8619841131983
 21
17.83822967672301
 72
     1
 10
103.8619841131978
 20
17.83822967672278
 11
103.8604349881977
 21
17.86767301851989
 72
     1
 10
103.8604349881981
 20
17.86767301851966
 11
103.8591065565573
 21
17.89623073922314
 72
     1
 10
103.8591065565571
 20
17.89623073922347
 11
103.8577781249164
 21
17.92346074019985
 72
     1
 10
103.8577781249168
 20
17.92346074019961
 11
103.8564496932764
 21
17.94980512008214
 72
     1
 10
103.8564496932764
 20
17.94980512008214
 11
103.8555640721824
 21
17.97504247359813
 72
     1
 10
103.8555640721825
 20
17.97504247359813
 11
103.8544577577297
 21
17.99917280074678
 72
     1
 10
103.8544577577295
 20
17.99917280074657
 11
103.8535721366357
 21
18.02241750680104
 72
     1
 10
103.8535721366357
 20
18.02241750680082
 11
103.8529079208154
 21
18.04433378121427
 72
     1
 10
103.8529079208156
 20
18.0443337812146
 11
103.8522437049952
 21
18.06536514644948
 72
     1
 10
103.8522437049951
 20
18.06536514644971
 11
103.8515794891748
 21
18.08506808004357
 72
     1
 10
103.8515794891746
 20
18.08506808004334
 11
103.8511366786277
 21
18.10388539254313
 72
     1
 10
103.8511366786277
 20
18.10388539254313
 11
103.8482591219872
 21
18.13421435543409
 72
     1
 10
103.8482591219872
 20
18.13421435543421
 11
103.8436096112449
 21
18.17162686324683
 72
     1
 10
103.8436096112447
 20
18.17162686324694
 11
103.8382965965964
 21
18.20660533687964
 72
     1
 10
103.8382965965965
 20
18.20660533687896
 11
103.8323193661278
 21
18.23936904586378
 72
     1
 10
103.8323193661282
 20
18.23936904586355
 11
103.8256779198386
 21
18.26969800875406
 72
     1
 10
103.8256779198385
 20
18.2696980087536
 11
103.8181515643701
 21
18.29759222555128
 72
     1
 10
103.8181515643701
 20
18.29759222555105
 11
103.8099602811668
 21
18.3230509843398
 72
     1
 10
103.8099602811672
 20
18.3230509843398
 11
103.8011047821437
 21
18.34607428512128
 72
     1
 10
103.8011047821432
 20
18.34607428512128
 11
103.7913643739402
 21
18.36688424508247
 72
     1
 10
103.7913643739402
 20
18.36688424508213
 11
103.7809597499169
 21
18.38503734176208
 72
     1
 10
103.7809597499164
 20
18.38503734176253
 11
103.7716614403458
 21
18.39920514351955
 72
     1
 10
103.7716614403459
 20
18.39920514351955
 11
103.758821358315
 21
18.4162519257469
 72
     1
 10
103.7588213583159
 20
18.41625192574655
 11
103.7442107460112
 21
18.43396221187902
 72
     1
 10
103.7442107460101
 20
18.43396221187902
 11
103.7278281796037
 21
18.45211530855905
 72
     1
 10
103.7278281796043
 20
18.45211530855905
 11
103.7094536776514
 21
18.47093262105886
 72
     1
 10
103.7094536776514
 20
18.47093262105886
 11
103.6893086454248
 21
18.49019203219109
 72
     1
 10
103.6893086454244
 20
18.49019203219109
 11
103.6671702538228
 21
18.50989496578528
 72
     1
 10
103.6671702538233
 20
18.50989496578563
 11
103.6432613319482
 21
18.53026211519943
 72
     1
 10
103.6432613319479
 20
18.53026211519943
 11
103.6173597626121
 21
18.55129276851959
 72
     1
 10
103.6173597626121
 20
18.55129276851959
 11
103.5896876630027
 21
18.57254553902714
 97
        0
 92
       16
 93
        1
 72
     2
 10
102.5156257645654
 20
18.50976610934003
 40
2.49169921875
 50
0.0
 51
360.0
 73
     1
 97
        0
 92
        1
 93
        1
 72
     2
 10
102.5156257645654
 20
18.50976610934003
 40
2.84765625
 50
0.0
 51
360.0
 73
     1
 97
        0
 75
     0
 76
     1
 47
0.5016490000000001
 98
        2
 10
10.22341418253398
 20
10.3606381855121
 10
63.48569476456501
 20
11.43203183004309
  0
ENDBLK
  5
1174
330
1171
100
AcDbEntity
  8
0
100
AcDbBlockEnd
  0
BLOCK
  5
122E
330
122D
100
AcDbEntity
  8
0
100
AcDbBlockBegin
  2
SYM1
 70
     0
 10
0.0
 20
0.0
 30
0.0
  3
SYM1
  1

  0
LINE
  5
122F
330
122D
100
AcDbEntity
  8
PIC01
  6
Continuous
 62
     3
100
AcDbLine
 10
-4.166625385479932
 20
1.700987045873715
 30
0.0
 11
-4.166625385479932
 21
1.112987850467789
 31
0.0
  0
LINE
  5
1230
330
122D
100
AcDbEntity
  8
PIC01
  6
Continuous
 62
     3
100
AcDbLine
 10
-4.166625385479932
 20
1.112987850467789
 30
0.0
 11
-3.969226945311758
 21
1.112987850467789
 31
0.0
  0
LINE
  5
1231
330
122D
100
AcDbEntity
  8
PIC01
  6
Continuous
 62
     3
100
AcDbLine
 10
-3.969226945311758
 20
1.175990761493495
 30
0.0
 11
-3.969226945311758
 21
1.112987850467789
 31
0.0
  0
ARC
  5
1232
330
122D
100
AcDbEntity
  8
PIC01
  6
Continuous
 62
     3
100
AcDbCircle
 10
-3.64163037265277
 20
1.175990761493495
 30
0.0
 40
0.3275967117351062
100
AcDbArc
 50
90.0
 51
180.0
  0
LINE
  5
1233
330
122D
100
AcDbEntity
  8
PIC01
  6
Continuous
 62
     3
100
AcDbLine
 10
-3.64163037265277
 20
1.503588605705544
 30
0.0
 11
-3.492533782805053
 21
1.503588605705544
 31
0.0
  0
LINE
  5
1234
330
122D
100
AcDbEntity
  8
PIC01
  6
Continuous
 62
     3
100
AcDbLine
 10
-4.166625385479932
 20
1.700987045873715
 30
0.0
 11
-2.423645299793832
 21
1.700987045873715
 31
0.0
  0
LINE
  5
1235
330
122D
100
AcDbEntity
  8
PIC01
  6
Continuous
 62
     3
100
AcDbLine
 10
-2.423645299793832
 20
1.700987045873715
 30
0.0
 11
-2.423645299793832
 21
1.112987850467789
 31
0.0
  0
LINE
  5
1236
330
122D
100
AcDbEntity
  8
PIC01
  6
Continuous
 62
     3
100
AcDbLine
 10
-2.621043739962005
 20
1.112987850467789
 30
0.0
 11
-2.423645299793832
 21
1.112987850467789
 31
0.0
  0
LINE
  5
1237
330
122D
100
AcDbEntity
  8
PIC01
  6
Continuous
 62
     3
100
AcDbLine
 10
-2.621043739962005
 20
1.175990761493495
 30
0.0
 11
-2.621043739962005
 21
1.112987850467789
 31
0.0
  0
ARC
  5
1238
330
122D
100
AcDbEntity
  8
PIC01
  6
Continuous
 62
     3
100
AcDbCircle
 10
-2.948639676844464
 20
1.175990761493495
 30
0.0
 40
0.3275967117351062
100
AcDbArc
 50
0.0
 51
90.0
  0
LINE
  5
1239
330
122D
100
AcDbEntity
  8
PIC01
  6
Continuous
 62
     3
100
AcDbLine
 10
-3.097736902468711
 20
1.503588605705544
 30
0.0
 11
-2.948639676844464
 21
1.503588605705544
 31
0.0
  0
LINE
  5
123A
330
122D
100
AcDbEntity
  8
PIC01
  6
Continuous
 62
     3
100
AcDbLine
 10
-3.097736902468711
 20
1.503588605705544
 30
0.0
 11
-3.097736902468711
 21
0.3821983326160989
 31
0.0
  0
LINE
  5
123B
330
122D
100
AcDbEntity
  8
PIC01
  6
Continuous
 62
     3
100
AcDbLine
 10
-3.492533782805053
 20
1.503588605705544
 30
0.0
 11
-3.492533782805053
 21
0.3821983326160989
 31
0.0
  0
ARC
  5
123C
330
122D
100
AcDbEntity
  8
PIC01
  6
Continuous
 62
     3
100
AcDbCircle
 10
-1.022926210849427
 20
0.8819898922374703
 30
0.0
 40
0.8399916072687148
100
AcDbArc
 50
311.2969235485106
 51
48.70302713332461
  0
ARC
  5
123D
330
122D
100
AcDbEntity
  8
PIC01
  6
Continuous
 62
     3
100
AcDbCircle
 10
-1.736917161751035
 20
0.8819898922374703
 30
0.0
 40
1.091988866927543
100
AcDbArc
 50
339.2362577100332
 51
20.76374228996686
  0
ARC
  5
123E
330
122D
100
AcDbEntity
  8
PIC01
  6
Continuous
 62
     3
100
AcDbCircle
 10
-1.147842311928265
 20
1.105335644151635
 30
0.0
 40
0.4619951614760076
100
AcDbArc
 50
20.76369522553756
 51
86.74680560094271
  0
ARC
  5
123F
330
122D
100
AcDbEntity
  8
PIC01
  6
Continuous
 62
     3
100
AcDbCircle
 10
-1.095407914162229
 20
1.105335644151635
 30
0.0
 40
0.4619951614760076
100
AcDbArc
 50
93.25319439905731
 51
159.2363012803671
  0
ARC
  5
1240
330
122D
100
AcDbEntity
  8
PIC01
  6
Continuous
 62
     3
100
AcDbCircle
 10
-1.134134334163014
 20
0.7560730789002719
 30
0.0
 40
1.00798975388391
100
AcDbArc
 50
48.42282655152474
 51
89.28884666436486
  0
ARC
  5
1241
330
122D
100
AcDbEntity
  8
PIC01
  6
Continuous
 62
     3
100
AcDbCircle
 10
-1.109114620374418
 20
0.7560730789002719
 30
0.0
 40
1.00798975388391
100
AcDbArc
 50
90.71115333563515
 51
131.5771683796109
  0
ARC
  5
1242
330
122D
100
AcDbEntity
  8
PIC01
  6
Continuous
 62
     3
100
AcDbCircle
 10
-1.220324015241069
 20
0.8819898922374703
 30
0.0
 40
0.8399916072687148
100
AcDbArc
 50
131.2969667577257
 51
228.7031477224608
  0
ARC
  5
1243
330
122D
100
AcDbEntity
  8
PIC01
  6
Continuous
 62
     3
100
AcDbCircle
 10
-0.5063329451313586
 20
0.8819898922374703
 30
0.0
 40
1.091988866927543
100
AcDbArc
 50
159.2362466230008
 51
200.7637415508318
  0
LINE
  5
1244
330
122D
100
AcDbEntity
  8
PIC01
  6
Continuous
 62
     3
100
AcDbLine
 10
-3.264890181547486
 20
0.0629978248134648
 30
0.0
 11
-3.255780457536105
 21
0.0721072309365809
 31
0.0
  0
LINE
  5
1245
330
122D
100
AcDbEntity
  8
PIC01
  6
Continuous
 62
     3
100
AcDbLine
 10
-3.153945905493884
 20
0.1739433724201263
 30
0.0
 11
-3.046517473651676
 21
0.281371804262335
 31
0.0
  0
LINE
  5
1246
330
122D
100
AcDbEntity
  8
PIC01
  6
Continuous
 62
     3
100
AcDbLine
 10
-3.820130355464044
 20
0.0735084824088972
 30
0.0
 11
-3.810215738365571
 21
0.0834240531721662
 31
0.0
  0
LINE
  5
1247
330
122D
100
AcDbEntity
  8
PIC01
  6
Continuous
 62
     3
100
AcDbLine
 10
-3.708380550546821
 20
0.1852576515495912
 30
0.0
 11
-3.63324161922651
 21
0.2603962649816367
 31
0.0
  0
LINE
  5
1248
330
122D
100
AcDbEntity
  8
PIC01
  6
Continuous
 62
     3
100
AcDbLine
 10
-3.43682068547335
 20
0.4568181523995918
 30
0.0
 11
-3.267095690330365
 21
0.6265425117660472
 31
0.0
  0
LINE
  5
1249
330
122D
100
AcDbEntity
  8
PIC01
  6
Continuous
 62
     3
100
AcDbLine
 10
-3.165260820399878
 20
0.7283786532495924
 30
0.0
 11
-3.097743260234012
 21
0.7958955776389303
 31
0.0
  0
LINE
  5
124A
330
122D
100
AcDbEntity
  8
PIC01
  6
Continuous
 62
     3
100
AcDbLine
 10
-2.622140454476407
 20
1.271497111843471
 30
0.0
 11
-2.452416095109953
 21
1.441221471209928
 31
0.0
  0
LINE
  5
124B
330
122D
100
AcDbEntity
  8
PIC01
  6
Continuous
 62
     3
100
AcDbLine
 10
-3.448135600379345
 20
1.011253433229057
 30
0.0
 11
-3.278410605236358
 21
1.180977792595512
 31
0.0
  0
LINE
  5
124C
330
122D
100
AcDbEntity
  8
PIC01
  6
Continuous
 62
     3
100
AcDbLine
 10
-3.176575735305875
 20
1.282813934079057
 30
0.0
 11
-3.097743260234012
 21
1.361645137597859
 31
0.0
  0
LINE
  5
124D
330
122D
100
AcDbEntity
  8
PIC01
  6
Continuous
 62
     3
100
AcDbLine
 10
-2.905015870232404
 20
1.554371891822938
 30
0.0
 11
-2.758402623511216
 21
1.700984502767596
 31
0.0
  0
LINE
  5
124E
330
122D
100
AcDbEntity
  8
PIC01
  6
Continuous
 62
     3
100
AcDbLine
 10
-3.459450833173605
 20
1.565688714058524
 30
0.0
 11
-3.324153137134941
 21
1.700984502767596
 31
0.0
  0
LINE
  5
124F
330
122D
100
AcDbEntity
  8
PIC01
  6
Continuous
 62
     3
100
AcDbLine
 10
-4.166631425356968
 20
1.424256410281032
 30
0.0
 11
-4.115720983933556
 21
1.475166851704444
 31
0.0
  0
LINE
  5
1250
330
122D
100
AcDbEntity
  8
PIC01
  6
Continuous
 62
     3
100
AcDbLine
 10
-4.013885796114806
 20
1.577002993187988
 30
0.0
 11
-3.889903332870403
 21
1.700984502767596
 31
0.0
  0
LINE
  5
1251
330
122D
100
AcDbEntity
  8
PIC01
  6
Continuous
 62
     3
100
AcDbLine
 10
-2.982015401568018
 20
0.0629978248134648
 30
0.0
 11
-2.978563135009637
 21
0.0664513629249086
 31
0.0
  0
LINE
  5
1252
330
122D
100
AcDbEntity
  8
PIC01
  6
Continuous
 62
     3
100
AcDbLine
 10
-2.876727629302621
 20
0.1682849613023336
 30
0.0
 11
-2.784616325623318
 21
0.2603962649816367
 31
0.0
  0
LINE
  5
1253
330
122D
100
AcDbEntity
  8
PIC01
  6
Continuous
 62
     3
100
AcDbLine
 10
-3.547765279415216
 20
0.0629978248134648
 30
0.0
 11
-3.532998097950836
 21
0.0777656420543735
 31
0.0
  0
LINE
  5
1254
330
122D
100
AcDbEntity
  8
PIC01
  6
Continuous
 62
     3
100
AcDbLine
 10
-3.431162910132087
 20
0.1795992404317985
 30
0.0
 11
-3.261437914989101
 21
0.3493261429043741
 31
0.0
  0
LINE
  5
1255
330
122D
100
AcDbEntity
  8
PIC01
  6
Continuous
 62
     3
100
AcDbLine
 10
-3.159603045058616
 20
0.4511597412817991
 30
0.0
 11
-3.097743260234012
 21
0.5130207976594649
 31
0.0
  0
LINE
  5
1256
330
122D
100
AcDbEntity
  8
PIC01
  6
Continuous
 62
     3
100
AcDbLine
 10
-2.497775571649155
 20
1.112987850467789
 30
0.0
 11
-2.446758319768691
 21
1.164005102348254
 31
0.0
  0
LINE
  5
1257
330
122D
100
AcDbEntity
  8
PIC01
  6
Continuous
 62
     3
100
AcDbLine
 10
-3.442478142926348
 20
0.7340345212612647
 30
0.0
 11
-3.27275314778336
 21
0.9037614237338404
 31
0.0
  0
LINE
  5
1258
330
122D
100
AcDbEntity
  8
PIC01
  6
Continuous
 62
     3
100
AcDbLine
 10
-3.170917959964611
 20
1.005595022111265
 30
0.0
 11
-3.097743260234012
 21
1.078770357618396
 31
0.0
  0
LINE
  5
1259
330
122D
100
AcDbEntity
  8
PIC01
  6
Continuous
 62
     3
100
AcDbLine
 10
-2.743220279972689
 20
1.433292066326658
 30
0.0
 11
-2.729633099748154
 21
1.44687988232772
 31
0.0
  0
LINE
  5
125A
330
122D
100
AcDbEntity
  8
PIC01
  6
Continuous
 62
     3
100
AcDbLine
 10
-2.62779822981767
 20
1.548716023811264
 30
0.0
 11
-2.475527843531751
 21
1.700984502767596
 31
0.0
  0
LINE
  5
125B
330
122D
100
AcDbEntity
  8
PIC01
  6
Continuous
 62
     3
100
AcDbLine
 10
-3.453793057832343
 20
1.288469802090731
 30
0.0
 11
-3.284067744801091
 21
1.458196704563305
 31
0.0
  0
LINE
  5
125C
330
122D
100
AcDbEntity
  8
PIC01
  6
Continuous
 62
     3
100
AcDbLine
 10
-3.182232874870606
 20
1.560030302940729
 30
0.0
 11
-3.041278039267212
 21
1.700984502767596
 31
0.0
  0
LINE
  5
125D
330
122D
100
AcDbEntity
  8
PIC01
  6
Continuous
 62
     3
100
AcDbLine
 10
-4.166631425356968
 20
1.141381630301566
 30
0.0
 11
-4.110063208592293
 21
1.19795048284277
 31
0.0
  0
LINE
  5
125E
330
122D
100
AcDbEntity
  8
PIC01
  6
Continuous
 62
     3
100
AcDbLine
 10
-4.008228338661808
 20
1.299786624326314
 30
0.0
 11
-3.838503343518823
 21
1.46951098369277
 31
0.0
  0
LINE
  5
125F
330
122D
100
AcDbEntity
  8
PIC01
  6
Continuous
 62
     3
100
AcDbLine
 10
-3.736668155700073
 20
1.571344582070195
 30
0.0
 11
-3.607028235002673
 21
1.700984502767596
 31
0.0
  0
LINE
  5
1260
330
122D
100
AcDbEntity
  8
PIC01
  6
Continuous
 62
     3
100
AcDbLine
 10
-0.7492733694389031
 20
0.1286811696900259
 30
0.0
 11
-0.5795483345598848
 21
0.2984080721626015
 31
0.0
  0
LINE
  5
1261
330
122D
100
AcDbEntity
  8
PIC01
  6
Continuous
 62
     3
100
AcDbLine
 10
-0.4777134646293997
 20
0.4002416705400266
 30
0.0
 11
-0.3079884893544307
 21
0.5699660299064817
 31
0.0
  0
LINE
  5
1262
330
122D
100
AcDbEntity
  8
PIC01
  6
Continuous
 62
     3
100
AcDbLine
 10
-1.303708650268369
 20
0.1399979919256111
 30
0.0
 11
-1.227724454051303
 21
0.2159809165896149
 31
0.0
  0
LINE
  5
1263
330
122D
100
AcDbEntity
  8
PIC01
  6
Continuous
 62
     3
100
AcDbLine
 10
-0.6491995607607315
 20
0.7945070416972158
 30
0.0
 11
-0.5908632494658797
 21
0.8528433529920674
 31
0.0
  0
LINE
  5
1264
330
122D
100
AcDbEntity
  8
PIC01
  6
Continuous
 62
     3
100
AcDbLine
 10
-0.4890283795353946
 20
0.9546769513694924
 30
0.0
 11
-0.3193034042604257
 21
1.124401310735946
 31
0.0
  0
LINE
  5
1265
330
122D
100
AcDbEntity
  8
PIC01
  6
Continuous
 62
     3
100
AcDbLine
 10
-1.76556270909073
 20
0.243894049366645
 30
0.0
 11
-1.688418220706254
 21
0.3210366304215313
 31
0.0
  0
LINE
  5
1266
330
122D
100
AcDbEntity
  8
PIC01
  6
Continuous
 62
     3
100
AcDbLine
 10
-1.586583350775768
 20
0.4228727719050769
 30
0.0
 11
-1.523020320627054
 21
0.4864351662772606
 31
0.0
  0
LINE
  5
1267
330
122D
100
AcDbEntity
  8
PIC01
  6
Continuous
 62
     3
100
AcDbLine
 10
-0.7242225026003342
 20
1.285232427999517
 30
0.0
 11
-0.6021781643718747
 21
1.407278633821534
 31
0.0
  0
LINE
  5
1268
330
122D
100
AcDbEntity
  8
PIC01
  6
Continuous
 62
     3
100
AcDbLine
 10
-0.5003426586648594
 20
1.509112232198958
 30
0.0
 11
-0.4844800342391375
 21
1.52497612817774
 31
0.0
  0
LINE
  5
1269
330
122D
100
AcDbEntity
  8
PIC01
  6
Continuous
 62
     3
100
AcDbLine
 10
-2.003505254359212
 20
0.5717004282805647
 30
0.0
 11
-1.971293636462249
 21
0.603911410400997
 31
0.0
  0
LINE
  5
126A
330
122D
100
AcDbEntity
  8
PIC01
  6
Continuous
 62
     3
100
AcDbLine
 10
-1.869458766531764
 20
0.7057475518845422
 30
0.0
 11
-1.699733771388778
 21
0.8754719112509974
 31
0.0
  0
LINE
  5
126B
330
122D
100
AcDbEntity
  8
PIC01
  6
Continuous
 62
     3
100
AcDbLine
 10
-1.597898901458294
 20
0.9773080527345427
 30
0.0
 11
-1.59288198885936
 21
0.9823230580038851
 31
0.0
  0
LINE
  5
126C
330
122D
100
AcDbEntity
  8
PIC01
  6
Continuous
 62
     3
100
AcDbLine
 10
-1.025463594981012
 20
1.549740895577768
 30
0.0
 11
-0.8850529840873733
 21
1.690153413800997
 31
0.0
  0
LINE
  5
126D
330
122D
100
AcDbEntity
  8
PIC01
  6
Continuous
 62
     3
100
AcDbLine
 10
-2.025174425834235
 20
1.115780180987938
 30
0.0
 11
-1.982608551368244
 21
1.158346691230461
 31
0.0
  0
LINE
  5
126E
330
122D
100
AcDbEntity
  8
PIC01
  6
Continuous
 62
     3
100
AcDbLine
 10
-1.880773681437759
 20
1.260182832714008
 30
0.0
 11
-1.711048686294773
 21
1.429907192080464
 31
0.0
  0
LINE
  5
126F
330
122D
100
AcDbEntity
  8
PIC01
  6
Continuous
 62
     3
100
AcDbLine
 10
-1.609213180587758
 20
1.531743333564009
 30
0.0
 11
-1.439488821221303
 21
1.701467692930464
 31
0.0
  0
LINE
  5
1270
330
122D
100
AcDbEntity
  8
PIC01
  6
Continuous
 62
     3
100
AcDbLine
 10
-1.157879951785311
 20
0.0029500030996132
 30
0.0
 11
-1.12832587978412
 21
0.0325059824303935
 31
0.0
  0
LINE
  5
1271
330
122D
100
AcDbEntity
  8
PIC01
  6
Continuous
 62
     3
100
AcDbLine
 10
-1.026491009853635
 20
0.1343395808078185
 30
0.0
 11
-0.8836758921232004
 21
0.2771553343147843
 31
0.0
  0
LINE
  5
1272
330
122D
100
AcDbEntity
  8
PIC01
  6
Continuous
 62
     3
100
AcDbLine
 10
-0.7549305090036356
 20
0.4059000816578191
 30
0.0
 11
-0.5852061099011472
 21
0.5756244410242744
 31
0.0
  0
LINE
  5
1273
330
122D
100
AcDbEntity
  8
PIC01
  6
Continuous
 62
     3
100
AcDbLine
 10
-0.483370604194132
 20
0.6774605825078197
 30
0.0
 11
-0.3136456289191631
 21
0.8471849418742751
 31
0.0
  0
LINE
  5
1274
330
122D
100
AcDbEntity
  8
PIC01
  6
Continuous
 62
     3
100
AcDbLine
 10
-0.211810758988678
 20
0.9490210833578204
 30
0.0
 11
-0.1854718089001484
 21
0.9753600334463499
 31
0.0
  0
LINE
  5
1275
330
122D
100
AcDbEntity
  8
PIC01
  6
Continuous
 62
     3
100
AcDbLine
 10
-1.580924939657975
 20
0.1456564030434038
 30
0.0
 11
-1.411200580291519
 21
0.315380762409859
 31
0.0
  0
LINE
  5
1276
330
122D
100
AcDbEntity
  8
PIC01
  6
Continuous
 62
     3
100
AcDbLine
 10
-0.6581875335666007
 20
1.06839448464734
 30
0.0
 11
-0.5965203890306121
 21
1.130059721853738
 31
0.0
  0
LINE
  5
1277
330
122D
100
AcDbEntity
  8
PIC01
  6
Continuous
 62
     3
100
AcDbLine
 10
-0.4946848833235968
 20
1.231895863337284
 30
0.0
 11
-0.3459640374051638
 21
1.380616709255717
 31
0.0
  0
LINE
  5
1278
330
122D
100
AcDbEntity
  8
PIC01
  6
Continuous
 62
     3
100
AcDbLine
 10
-1.8638009911905
 20
0.4285311830228693
 30
0.0
 11
-1.694075996047514
 21
0.5982555423893246
 31
0.0
  0
LINE
  5
1279
330
122D
100
AcDbEntity
  8
PIC01
  6
Continuous
 62
     3
100
AcDbLine
 10
-1.592241126117031
 20
0.7000891407667496
 30
0.0
 11
-1.586035311406831
 21
0.7062968628065393
 31
0.0
  0
LINE
  5
127A
330
122D
100
AcDbEntity
  8
PIC01
  6
Continuous
 62
     3
100
AcDbLine
 10
-0.7775609745921557
 20
1.514770643316751
 30
0.0
 11
-0.6510026230000641
 21
1.641328319396279
 31
0.0
  0
LINE
  5
127B
330
122D
100
AcDbEntity
  8
PIC01
  6
Continuous
 62
     3
100
AcDbLine
 10
-2.057777682073734
 20
0.8003027805455076
 30
0.0
 11
-1.97695077602698
 21
0.88113032236879
 31
0.0
  0
LINE
  5
127C
330
122D
100
AcDbEntity
  8
PIC01
  6
Continuous
 62
     3
100
AcDbLine
 10
-1.875115906096495
 20
0.9829664638523354
 30
0.0
 11
-1.705390910953511
 21
1.152690823218791
 31
0.0
  0
LINE
  5
127D
330
122D
100
AcDbEntity
  8
PIC01
  6
Continuous
 62
     3
100
AcDbLine
 10
-1.603556041023025
 20
1.254524421596215
 30
0.0
 11
-1.433830410103509
 21
1.424251324068791
 31
0.0
  0
LINE
  5
127E
330
122D
100
AcDbEntity
  8
PIC01
  6
Continuous
 62
     3
100
AcDbLine
 10
-1.33199561964509
 20
1.526084922446215
 30
0.0
 11
-1.162271260278634
 21
1.69580928181267
 31
0.0
  0
LINE
  5
127F
330
122D
100
AcDbEntity
  8
PIC01
  6
Continuous
 62
     3
100
AcDbLine
 10
-2.975934199057718
 20
0.2603962649816367
 30
0.0
 11
-2.77014032980972
 21
0.2603962649816367
 31
0.0
  0
ARC
  5
1280
330
122D
100
AcDbEntity
  8
PIC01
  6
Continuous
 62
     3
100
AcDbCircle
 10
-2.975934199057718
 20
0.3821983326160989
 30
0.0
 40
0.1217987695437124
100
AcDbArc
 50
180.0
 51
270.0
  0
LINE
  5
1281
330
122D
100
AcDbEntity
  8
PIC01
  6
Continuous
 62
     3
100
AcDbLine
 10
-2.77014032980972
 20
0.2603962649816367
 30
0.0
 11
-2.77014032980972
 21
0.0629978248134648
 31
0.0
  0
LINE
  5
1282
330
122D
100
AcDbEntity
  8
PIC01
  6
Continuous
 62
     3
100
AcDbLine
 10
-3.820129719687513
 20
0.0629978248134648
 30
0.0
 11
-2.77014032980972
 21
0.0629978248134648
 31
0.0
  0
LINE
  5
1283
330
122D
100
AcDbEntity
  8
PIC01
  6
Continuous
 62
     3
100
AcDbLine
 10
-3.820129719687513
 20
0.2603962649816367
 30
0.0
 11
-3.614329492674216
 21
0.2603962649816367
 31
0.0
  0
LINE
  5
1284
330
122D
100
AcDbEntity
  8
PIC01
  6
Continuous
 62
     3
100
AcDbLine
 10
-3.820129719687513
 20
0.2603962649816367
 30
0.0
 11
-3.820129719687513
 21
0.0629978248134648
 31
0.0
  0
ARC
  5
1285
330
122D
100
AcDbEntity
  8
PIC01
  6
Continuous
 62
     3
100
AcDbCircle
 10
-3.614329492674216
 20
0.3821983326160989
 30
0.0
 40
0.1217987695437124
100
AcDbArc
 50
270.0
 51
0.0
  0
ARC
  5
1286
330
122D
100
AcDbEntity
  8
PIC01
  6
Continuous
 62
     3
100
AcDbCircle
 10
-1.109114620374418
 20
1.00791179178691
 30
0.0
 40
1.00798975388391
100
AcDbArc
 50
228.4229275506169
 51
269.2888828001665
  0
ARC
  5
1287
330
122D
100
AcDbEntity
  8
PIC01
  6
Continuous
 62
     3
100
AcDbCircle
 10
-1.095407914162229
 20
0.6586492265355446
 30
0.0
 40
0.4619951614760076
100
AcDbArc
 50
200.7639936264943
 51
266.7468843216859
  0
ARC
  5
1288
330
122D
100
AcDbEntity
  8
PIC01
  6
Continuous
 62
     3
100
AcDbCircle
 10
-1.147842311928265
 20
0.6586492265355446
 30
0.0
 40
0.4619951614760076
100
AcDbArc
 50
273.2531156783141
 51
339.2360098676416
  0
ARC
  5
1289
330
122D
100
AcDbEntity
  8
PIC01
  6
Continuous
 62
     3
100
AcDbCircle
 10
-1.134134334163014
 20
1.00791179178691
 30
0.0
 40
1.00798975388391
100
AcDbArc
 50
270.7110810640313
 51
311.5770775182454
  0
ENDBLK
  5
128A
330
122D
100
AcDbEntity
  8
0
100
AcDbBlockEnd
  0
BLOCK
  5
1C2F
330
1C24
100
AcDbEntity
  8
0
100
AcDbBlockBegin
  2
*D10
 70
     1
 10
0.0
 20
0.0
 30
0.0
  3
*D10
  1

  0
LINE
  5
1C93
330
1C24
100
AcDbEntity
  8
0
 62
     0
370
    -2
100
AcDbLine
 10
496.8079330355442
 20
445.71944474808
 30
0.0
 11
497.6224271228185
 21
445.71944474808
 31
0.0
  0
LINE
  5
1C94
330
1C24
100
AcDbEntity
  8
0
 62
     0
370
    -2
100
AcDbLine
 10
497.8800286006269
 20
446.9791468949531
 30
0.0
 11
497.2624271228186
 21
446.9791468949531
 31
0.0
  0
LINE
  5
1C95
330
1C24
100
AcDbEntity
  8
0
 62
     0
370
    -2
100
AcDbLine
 10
497.4424271228186
 20
445.8994447480799
 30
0.0
 11
497.4424271228186
 21
446.1692958215166
 31
0.0
  0
LINE
  5
1C96
330
1C24
100
AcDbEntity
  8
0
 62
     0
370
    -2
100
AcDbLine
 10
497.4424271228186
 20
446.7991468949533
 30
0.0
 11
497.4424271228186
 21
446.5292958215166
 31
0.0
  0
SOLID
  5
1C97
330
1C24
100
AcDbEntity
  8
0
 62
     0
100
AcDbTrace
 10
497.4124271228186
 20
445.8994447480799
 30
0.0
 11
497.4724271228185
 21
445.8994447480799
 31
0.0
 12
497.4424271228186
 22
445.71944474808
 32
0.0
 13
497.4424271228186
 23
445.71944474808
 33
0.0
  0
SOLID
  5
1C98
330
1C24
100
AcDbEntity
  8
0
 62
     0
100
AcDbTrace
 10
497.4124271228186
 20
446.7991468949533
 30
0.0
 11
497.4724271228185
 21
446.7991468949533
 31
0.0
 12
497.4424271228186
 22
446.9791468949531
 32
0.0
 13
497.4424271228186
 23
446.9791468949531
 33
0.0
  0
MTEXT
  5
1C99
330
1C24
100
AcDbEntity
  8
0
 62
     0
100
AcDbMText
 10
497.4424271228185
 20
446.3492958215167
 30
0.0
 40
0.18
 41
0.0
 71
     5
 72
     1
  1
\A1;1.2597
 73
     1
 44
1.0
1001
ACAD
1000
MTEXTBEGIN
1070
    73
1070
     1
1070
    44
1040
1.0
1070
    74
1070
     0
1000
MTEXTEND
  0
POINT
  5
1C9A
330
1C24
100
AcDbEntity
  8
Defpoints
 62
     0
100
AcDbPoint
 10
496.7454330355443
 20
445.71944474808
 30
0.0
  0
POINT
  5
1C9B
330
1C24
100
AcDbEntity
  8
Defpoints
 62
     0
100
AcDbPoint
 10
497.9425286006268
 20
446.9791468949531
 30
0.0
  0
POINT
  5
1C9C
330
1C24
100
AcDbEntity
  8
Defpoints
 62
     0
100
AcDbPoint
 10
497.4424271228186
 20
446.9791468949531
 30
0.0
  0
ENDBLK
  5
1C30
330
1C24
100
AcDbEntity
  8
0
100
AcDbBlockEnd
  0
BLOCK
  5
1C3C
330
1C31
100
AcDbEntity
  8
0
100
AcDbBlockBegin
  2
*D11
 70
     1
 10
0.0
 20
0.0
 30
0.0
  3
*D11
  1

  0
LINE
  5
1C75
330
1C31
100
AcDbEntity
  8
0
 62
     0
370
    -2
100
AcDbLine
 10
496.6778047589851
 20
448.9791468573534
 30
0.0
 11
496.0535694475751
 21
448.9791468573534
 31
0.0
  0
LINE
  5
1C76
330
1C31
100
AcDbEntity
  8
0
 62
     0
370
    -2
100
AcDbLine
 10
496.6778047589851
 20
446.9791468949531
 30
0.0
 11
496.0535694475751
 21
446.9791468949531
 31
0.0
  0
LINE
  5
1C77
330
1C31
100
AcDbEntity
  8
0
 62
     0
370
    -2
100
AcDbLine
 10
496.2335694475751
 20
448.7991468573532
 30
0.0
 11
496.2335694475751
 21
448.1591468761533
 31
0.0
  0
LINE
  5
1C78
330
1C31
100
AcDbEntity
  8
0
 62
     0
370
    -2
100
AcDbLine
 10
496.2335694475751
 20
447.1591468949531
 30
0.0
 11
496.2335694475751
 21
447.7991468761532
 31
0.0
  0
SOLID
  5
1C79
330
1C31
100
AcDbEntity
  8
0
 62
     0
100
AcDbTrace
 10
496.2035694475751
 20
448.7991468573532
 30
0.0
 11
496.2635694475751
 21
448.7991468573532
 31
0.0
 12
496.2335694475751
 22
448.9791468573534
 32
0.0
 13
496.2335694475751
 23
448.9791468573534
 33
0.0
  0
SOLID
  5
1C7A
330
1C31
100
AcDbEntity
  8
0
 62
     0
100
AcDbTrace
 10
496.2035694475751
 20
447.1591468949531
 30
0.0
 11
496.2635694475751
 21
447.1591468949531
 31
0.0
 12
496.2335694475751
 22
446.9791468949531
 32
0.0
 13
496.2335694475751
 23
446.9791468949531
 33
0.0
  0
MTEXT
  5
1C7B
330
1C31
100
AcDbEntity
  8
0
 62
     0
100
AcDbMText
 10
496.2335694475751
 20
447.9791468761534
 30
0.0
 40
0.18
 41
0.0
 71
     5
 72
     1
  1
\A1;2.0000
 73
     1
 44
1.0
1001
ACAD
1000
MTEXTBEGIN
1070
    73
1070
     1
1070
    44
1040
1.0
1070
    74
1070
     0
1000
MTEXTEND
  0
POINT
  5
1C7C
330
1C31
100
AcDbEntity
  8
Defpoints
 62
     0
100
AcDbPoint
 10
496.7403047589851
 20
448.9791468573534
 30
0.0
  0
POINT
  5
1C7D
330
1C31
100
AcDbEntity
  8
Defpoints
 62
     0
100
AcDbPoint
 10
496.7403047589851
 20
446.9791468949531
 30
0.0
  0
POINT
  5
1C7E
330
1C31
100
AcDbEntity
  8
Defpoints
 62
     0
100
AcDbPoint
 10
496.2335694475751
 20
446.9791468949531
 30
0.0
  0
ENDBLK
  5
1C3D
330
1C31
100
AcDbEntity
  8
0
100
AcDbBlockEnd
  0
BLOCK
  5
1C49
330
1C3E
100
AcDbEntity
  8
0
100
AcDbBlockBegin
  2
*D12
 70
     1
 10
0.0
 20
0.0
 30
0.0
  3
*D12
  1

  0
LINE
  5
1C9E
330
1C3E
100
AcDbEntity
  8
0
 62
     0
370
    -2
100
AcDbLine
 10
496.6778047589851
 20
446.9791468949531
 30
0.0
 11
494.4174021145213
 21
446.9791468949531
 31
0.0
  0
LINE
  5
1C9F
330
1C3E
100
AcDbEntity
  8
0
 62
     0
370
    -2
100
AcDbLine
 10
508.2970831771806
 20
440.601344685664
 30
0.0
 11
494.4174021145213
 21
440.601344685664
 31
0.0
  0
LINE
  5
1CA0
330
1C3E
100
AcDbEntity
  8
0
 62
     0
370
    -2
100
AcDbLine
 10
494.5974021145213
 20
446.7991468949533
 30
0.0
 11
494.5974021145213
 21
443.9702457903085
 31
0.0
  0
LINE
  5
1CA1
330
1C3E
100
AcDbEntity
  8
0
 62
     0
370
    -2
100
AcDbLine
 10
494.5974021145213
 20
440.781344685664
 30
0.0
 11
494.5974021145213
 21
443.6102457903086
 31
0.0
  0
SOLID
  5
1CA2
330
1C3E
100
AcDbEntity
  8
0
 62
     0
100
AcDbTrace
 10
494.5674021145213
 20
446.7991468949533
 30
0.0
 11
494.6274021145213
 21
446.7991468949533
 31
0.0
 12
494.5974021145213
 22
446.9791468949531
 32
0.0
 13
494.5974021145213
 23
446.9791468949531
 33
0.0
  0
SOLID
  5
1CA3
330
1C3E
100
AcDbEntity
  8
0
 62
     0
100
AcDbTrace
 10
494.5674021145213
 20
440.781344685664
 30
0.0
 11
494.6274021145213
 21
440.781344685664
 31
0.0
 12
494.5974021145213
 22
440.601344685664
 32
0.0
 13
494.5974021145213
 23
440.601344685664
 33
0.0
  0
MTEXT
  5
1CA4
330
1C3E
100
AcDbEntity
  8
0
 62
     0
100
AcDbMText
 10
494.5974021145211
 20
443.7902457903087
 30
0.0
 40
0.18
 41
0.0
 71
     5
 72
     1
  1
\A1;6.3778
 73
     1
 44
1.0
1001
ACAD
1000
MTEXTBEGIN
1070
    73
1070
     1
1070
    44
1040
1.0
1070
    74
1070
     0
1000
MTEXTEND
  0
POINT
  5
1CA5
330
1C3E
100
AcDbEntity
  8
Defpoints
 62
     0
100
AcDbPoint
 10
496.7403047589851
 20
446.9791468949531
 30
0.0
  0
POINT
  5
1CA6
330
1C3E
100
AcDbEntity
  8
Defpoints
 62
     0
100
AcDbPoint
 10
508.3595831771806
 20
440.601344685664
 30
0.0
  0
POINT
  5
1CA7
330
1C3E
100
AcDbEntity
  8
Defpoints
 62
     0
100
AcDbPoint
 10
494.5974021145213
 20
440.601344685664
 30
0.0
  0
ENDBLK
  5
1C4A
330
1C3E
100
AcDbEntity
  8
0
100
AcDbBlockEnd
  0
ENDSEC
  0
SECTION
  2
ENTITIES
  0
CIRCLE
  5
EC7
330
1F
100
AcDbEntity
  8
PIC05
  6
CENTER
 62
     6
100
AcDbCircle
 10
508.3595831771806
 20
440.601344685664
 30
0.0
 40
1.220457815098462
  0
ARC
  5
F9C
330
1F
100
AcDbEntity
  8
PIC05
  6
Continuous
 62
     6
100
AcDbCircle
 10
505.979109708342
 20
434.9998391513699
 30
0.0
 40
8.759732630585137
100
AcDbArc
 50
112.960421025764
 51
143.6196824010701
  0
ARC
  5
F9E
330
1F
100
AcDbEntity
  8
PIC05
  6
Continuous
 62
     6
100
AcDbCircle
 10
502.6509901710749
 20
437.4517761305711
 30
0.0
 40
4.625923902025817
100
AcDbArc
 50
143.6196816498162
 51
216.3803166689331
  0
ARC
  5
F9F
330
1F
100
AcDbEntity
  8
PIC05
  6
Continuous
 62
     6
100
AcDbCircle
 10
505.979109708342
 20
439.9037131097723
 30
0.0
 40
8.759732630585132
100
AcDbArc
 50
216.3803166689331
 51
247.0395789742359
  0
ARC
  5
FA0
330
1F
100
AcDbEntity
  8
PIC05
  6
Continuous
 62
     6
100
AcDbCircle
 10
508.3595831771806
 20
445.5225455529966
 30
0.0
 40
14.86202170607745
100
AcDbArc
 50
247.0395789742359
 51
292.960421025764
  0
ARC
  5
FA1
330
1F
100
AcDbEntity
  8
PIC05
  6
Continuous
 62
     6
100
AcDbCircle
 10
510.7400566460191
 20
439.9037131097723
 30
0.0
 40
8.759732630585132
100
AcDbArc
 50
292.960421025764
 51
323.6196833310669
  0
ARC
  5
FA2
330
1F
100
AcDbEntity
  8
PIC05
  6
Continuous
 62
     6
100
AcDbCircle
 10
514.0681761832864
 20
437.4517761305711
 30
0.0
 40
4.625923902025817
100
AcDbArc
 50
323.6196833310669
 51
36.38031904660611
  0
ARC
  5
FA3
330
1F
100
AcDbEntity
  8
PIC05
  6
Continuous
 62
     6
100
AcDbCircle
 10
510.7400566460191
 20
434.9998391513699
 30
0.0
 40
8.759732630585132
100
AcDbArc
 50
36.38031798419431
 51
67.03957897423594
  0
ARC
  5
FA4
330
1F
100
AcDbEntity
  8
PIC05
  6
Continuous
 62
     6
100
AcDbCircle
 10
508.3595831771806
 20
429.3810067081459
 30
0.0
 40
14.86202170607745
100
AcDbArc
 50
67.03957897423594
 51
112.960421025764
  0
CIRCLE
  5
FC5
330
1F
100
AcDbEntity
  8
0
 62
     6
100
AcDbCircle
 10
500.2123338736801
 20
430.857218705522
 30
0.0
 40
0.07874
  0
LINE
  5
FC6
330
1F
100
AcDbEntity
  8
0
 62
     6
100
AcDbLine
 10
500.2114074313998
 20
430.7097350722076
 30
0.0
 11
500.2132603159606
 21
431.0047023388363
 31
0.0
  0
LINE
  5
FC7
330
1F
100
AcDbEntity
  8
0
 62
     6
100
AcDbLine
 10
500.0575725433979
 20
430.8572189019956
 30
0.0
 11
500.3670952039623
 21
430.8572185090481
 31
0.0
  0
CIRCLE
  5
FCF
330
1F
100
AcDbEntity
  8
0
 62
     6
100
AcDbCircle
 10
516.5068308657472
 20
430.8572175679038
 30
0.0
 40
0.07874
  0
LINE
  5
FD0
330
1F
100
AcDbEntity
  8
0
 62
     6
100
AcDbLine
 10
516.5059044234668
 20
430.7097339345896
 30
0.0
 11
516.5077573080277
 21
431.0047012012181
 31
0.0
  0
LINE
  5
FD1
330
1F
100
AcDbEntity
  8
0
 62
     6
100
AcDbLine
 10
516.352069535465
 20
430.8572177643775
 30
0.0
 11
516.6615921960294
 21
430.8572173714299
 31
0.0
  0
CIRCLE
  5
FD9
330
1F
100
AcDbEntity
  8
0
 62
     6
100
AcDbCircle
 10
518.2020825000882
 20
446.2115179597029
 30
0.0
 40
0.07874
  0
LINE
  5
FDA
330
1F
100
AcDbEntity
  8
0
 62
     6
100
AcDbLine
 10
518.2011560578078
 20
446.0640343263886
 30
0.0
 11
518.2030089423687
 21
446.3590015930171
 31
0.0
  0
LINE
  5
FDB
330
1F
100
AcDbEntity
  8
0
 62
     6
100
AcDbLine
 10
518.047321169806
 20
446.2115181561767
 30
0.0
 11
518.3568438303705
 21
446.2115177632291
 31
0.0
  0
CIRCLE
  5
FE3
330
1F
100
AcDbEntity
  8
0
 62
     6
100
AcDbCircle
 10
498.5170838542731
 20
446.2115192156767
 30
0.0
 40
0.07874
  0
LINE
  5
FE4
330
1F
100
AcDbEntity
  8
0
 62
     6
100
AcDbLine
 10
498.5161574119926
 20
446.0640355823626
 30
0.0
 11
498.5180102965535
 21
446.359002848991
 31
0.0
  0
LINE
  5
FE5
330
1F
100
AcDbEntity
  8
0
 62
     6
100
AcDbLine
 10
498.3623225239908
 20
446.2115194121507
 30
0.0
 11
498.6718451845553
 21
446.2115190192029
 31
0.0
  0
INSERT
  5
117C
330
1F
100
AcDbEntity
  8
0
  6
Continuous
100
AcDbBlockReference
  2
A$C25F94DAA
 10
492.9074648103314
 20
449.8426354477043
 30
0.0
 41
0.0393700000000195
 42
0.0393700000000195
 43
0.03937
  0
LINE
  5
1B13
330
1F
100
AcDbEntity
  8
PIC05
  6
Continuous
 62
   253
100
AcDbLine
 10
520.1705833212173
 20
437.4517446472542
 30
0.0
 11
520.1705833212173
 21
445.5225947456794
 31
0.0
  0
LINE
  5
1B14
330
1F
100
AcDbEntity
  8
PIC05
  6
Continuous
 62
   253
100
AcDbLine
 10
496.5485830331438
 20
437.4517446472542
 30
0.0
 11
496.5485830331438
 21
445.5225947456794
 31
0.0
  0
LINE
  5
1B15
330
1F
100
AcDbEntity
  8
PIC05
  6
Continuous
 62
   253
100
AcDbLine
 10
496.7454330355443
 20
445.71944474808
 30
0.0
 11
519.9737333188168
 21
445.71944474808
 31
0.0
  0
ARC
  5
1B3E
330
1F
100
AcDbEntity
  8
PIC05
  6
Continuous
 62
   253
100
AcDbCircle
 10
508.3595831771806
 20
445.5225947456794
 30
0.0
 40
16.33855019925098
100
AcDbArc
 50
247.0395789742359
 51
292.960421025764
  0
ARC
  5
1B3F
330
1F
100
AcDbEntity
  8
PIC05
  6
Continuous
 62
   253
100
AcDbCircle
 10
510.7400804414056
 20
439.9037061361962
 30
0.0
 40
10.23620012483193
100
AcDbArc
 50
292.960421025764
 51
323.6196833310669
  0
ARC
  5
1B40
330
1F
100
AcDbEntity
  8
PIC05
  6
Continuous
 62
   253
100
AcDbCircle
 10
514.0682332467982
 20
437.4517446472542
 30
0.0
 40
6.102350074419037
100
AcDbArc
 50
323.6196833310669
 51
36.38031904660611
  0
ARC
  5
1B41
330
1F
100
AcDbEntity
  8
PIC05
  6
Continuous
 62
   253
100
AcDbCircle
 10
510.7400804414056
 20
434.9997831583122
 30
0.0
 40
10.23620012483193
100
AcDbArc
 50
36.38031798419431
 51
67.03957897423594
  0
ARC
  5
1B42
330
1F
100
AcDbEntity
  8
PIC05
  6
Continuous
 62
   253
100
AcDbCircle
 10
508.3595831771806
 20
429.3808945488289
 30
0.0
 40
16.33855019925098
100
AcDbArc
 50
67.03958026431276
 51
90.0
  0
ARC
  5
1B43
330
1F
100
AcDbEntity
  8
PIC05
  6
Continuous
 62
   253
100
AcDbCircle
 10
505.9790859129556
 20
434.9997831583122
 30
0.0
 40
10.23620012483193
100
AcDbArc
 50
112.960421025764
 51
143.6196824010701
  0
ARC
  5
1B44
330
1F
100
AcDbEntity
  8
PIC05
  6
Continuous
 62
   253
100
AcDbCircle
 10
502.6509331075628
 20
437.4517446472542
 30
0.0
 40
6.102350074419037
100
AcDbArc
 50
143.6196816498162
 51
216.3803166689331
  0
ARC
  5
1B45
330
1F
100
AcDbEntity
  8
PIC05
  6
Continuous
 62
   253
100
AcDbCircle
 10
505.9790859129556
 20
439.9037061361962
 30
0.0
 40
10.23620012483193
100
AcDbArc
 50
216.3803166689331
 51
247.0395789742359
  0
ARC
  5
1B46
330
1F
100
AcDbEntity
  8
PIC05
  6
Continuous
 62
   253
100
AcDbCircle
 10
510.4452879241303
 20
445.7048493597678
 30
0.0
 40
0.1181100014403705
100
AcDbArc
 50
172.9015556688116
 51
262.7187937016887
  0
ARC
  5
1B47
330
1F
100
AcDbEntity
  8
PIC05
  6
Continuous
 62
   253
100
AcDbCircle
 10
506.273878430231
 20
445.7048493597678
 30
0.0
 40
0.1181100014403682
100
AcDbArc
 50
277.2812062983113
 51
7.098444331188352
  0
ARC
  5
1B48
330
1F
100
AcDbEntity
  8
PIC05
  6
Continuous
 62
   253
100
AcDbCircle
 10
508.3595831771806
 20
429.3808945488289
 30
0.0
 40
16.33855019925098
100
AcDbArc
 50
90.0
 51
112.9604197356872
  0
CIRCLE
  5
1B49
330
1F
100
AcDbEntity
  8
PIC05
  6
CENTER
 62
     6
100
AcDbCircle
 10
508.3595831771806
 20
440.601344685664
 30
0.0
 40
0.8070850098425177
  0
ARC
  5
1B4B
330
1F
100
AcDbEntity
  8
PIC05
  6
Continuous
 62
   253
100
AcDbCircle
 10
519.9737333188168
 20
445.5225947456794
 30
0.0
 40
0.1968500024006141
100
AcDbArc
 50
0.0
 51
90.0
  0
ARC
  5
1B4C
330
1F
100
AcDbEntity
  8
PIC05
  6
Continuous
 62
   253
100
AcDbCircle
 10
496.7454330355443
 20
445.5225947456794
 30
0.0
 40
0.1968500024006141
100
AcDbArc
 50
90.0
 51
180.0
  0
LINE
  5
1BB3
330
1F
100
AcDbEntity
  8
PIC05
  6
CENTER
 62
     6
100
AcDbLine
 10
508.5784344467397
 20
440.601344685664
 30
0.0
 11
508.1407319076215
 21
440.601344685664
 31
0.0
  0
TEXT
  5
1C11
330
1F
100
AcDbEntity
  8
0
  6
Continuous
 62
     7
100
AcDbText
 10
515.2687326910581
 20
429.089452109643
 30
0.0
 40
0.19685039
  1
0GU127
  7
BLACK
100
AcDbText
  0
TEXT
  5
1C12
330
1F
100
AcDbEntity
  8
0
  6
Continuous
 62
     7
100
AcDbText
 10
515.296505834606
 20
428.7615286281897
 30
0.0
 40
0.19685039
  1
Aug. 2005
  7
BLACK
100
AcDbText
  0
LEADER
  5
1C13
330
1F
100
AcDbEntity
  8
0
  6
Continuous
 62
     7
100
AcDbLeader
  3
Standard
 40
0.511811014
 41
1.766029213142856
 76
     3
 10
516.2305955253538
 20
443.6388824810742
 30
0.0
 10
514.0634241992372
 20
440.4283611341723
 30
0.0
 10
513.3880312361393
 20
440.4283611341723
 30
0.0
213
0.0
223
0.059055117
233
0.0
1001
ACAD
1000
DSTYLE
1002
{
1070
   147
1040
0.6
1070
    77
1070
     0
1002
}
  0
LINE
  5
1C14
102
{ACAD_REACTORS
330
1C1A
330
1C1D
102
}
330
1F
100
AcDbEntity
  8
0
  6
CENTER
 62
     7
100
AcDbLine
 10
496.7403047589851
 20
446.9791468949531
 30
0.0
 11
519.9684188723352
 21
446.9791468949531
 31
0.0
  0
LINE
  5
1C15
102
{ACAD_REACTORS
330
1C1A
102
}
330
1F
100
AcDbEntity
  8
0
  6
PHANTOM
 62
     7
100
AcDbLine
 10
496.7403047589851
 20
448.9791468573534
 30
0.0
 11
519.9684188723352
 21
448.9791468573534
 31
0.0
  0
MTEXT
  5
1C16
330
1F
100
AcDbEntity
  8
0
 62
     7
100
AcDbMText
 10
510.3966764686268
 20
449.5681899593381
 30
0.0
 40
0.19685039
 41
5.218993890951871
 71
     6
 72
     5
  1
FINISHED WALL/BACK SPLASH\PPARED ACBADA/PARED POSTERIOR\PMUR FINI/DOSSERET
 73
     1
 44
1.0
1001
ACAD
1000
MTEXTBEGIN
1070
    73
1070
     1
1070
    44
1040
1.0
1070
    74
1070
     0
1000
MTEXTEND
  0
MTEXT
  5
1C17
330
1F
100
AcDbEntity
  8
0
 62
     7
100
AcDbMText
 10
515.5169818749993
 20
447.6299638694468
 30
0.0
 40
0.19685039
 41
5.218993890951871
 71
     6
 72
     5
  1
CENTERLINE OF FITTING\PLINEA CENTRAL DEL GRIFO\PAXE DU ROBINET
 73
     1
 44
1.0
1001
ACAD
1000
MTEXTBEGIN
1070
    73
1070
     1
1070
    44
1040
1.0
1070
    74
1070
     0
1000
MTEXTEND
  0
DIMENSION
  5
1C18
102
{ACAD_XDICTIONARY
360
1C19
102
}
102
{ACAD_REACTORS
330
1C1A
102
}
330
1F
100
AcDbEntity
  8
0
 62
     7
100
AcDbDimension
  2
*D11
 10
496.2335694475751
 20
446.9791468949531
 30
0.0
 11
496.2335694475751
 21
447.9791468761534
 31
0.0
 70
    32
 71
     5
 42
1.999999962400124
  3
Standard
100
AcDbAlignedDimension
 13
496.7403047589851
 23
448.9791468573534
 33
0.0
 14
496.7403047589851
 24
446.9791468949531
 34
0.0
 50
90.0
100
AcDbRotatedDimension
  0
DIMENSION
  5
1C1B
102
{ACAD_XDICTIONARY
360
1C1C
102
}
102
{ACAD_REACTORS
330
1C1D
102
}
330
1F
100
AcDbEntity
  8
0
 62
     7
100
AcDbDimension
  2
*D12
 10
494.5974021145213
 20
440.601344685664
 30
0.0
 11
494.5974021145211
 21
443.7902457903087
 31
0.0
 70
    32
 71
     5
 42
6.3778022092892
  3
Standard
100
AcDbAlignedDimension
 13
496.7403047589851
 23
446.9791468949531
 33
0.0
 14
508.3595831771806
 24
440.601344685664
 34
0.0
 50
90.0
100
AcDbRotatedDimension
  0
DIMENSION
  5
1C1E
330
1F
100
AcDbEntity
  8
0
 62
     7
100
AcDbDimension
  2
*D10
 10
497.4424271228186
 20
446.9791468949531
 30
0.0
 11
497.4424271228185
 21
446.3492958215167
 31
0.0
 70
    32
 71
     5
 42
1.259702146873222
  3
Standard
100
AcDbAlignedDimension
 13
496.7454330355443
 23
445.71944474808
 33
0.0
 14
497.9425286006268
 24
446.9791468949531
 34
0.0
 50
90.0
100
AcDbRotatedDimension
  0
MTEXT
  5
1C1F
330
1F
100
AcDbEntity
  8
0
 62
     7
100
AcDbMText
 10
513.3116146772323
 20
440.2824363275876
 30
0.0
 40
0.19685039
 41
5.218993890951871
 71
     6
 72
     5
  1
RIM OF LAVATORY\PBORDE DEL LAVABO\PBORD DU LAVABO
 73
     1
 44
1.0
1001
ACAD
1000
MTEXTBEGIN
1070
    73
1070
     1
1070
    44
1040
1.0
1070
    74
1070
     0
1000
MTEXTEND
  0
MTEXT
  5
1C20
330
1F
100
AcDbEntity
  8
0
 62
     7
100
AcDbMText
 10
510.9270076220226
 20
434.8731806348301
 30
0.0
 40
0.19685039
 41
5.431524892030432
 71
     6
 72
     5
  1
CUT ALONG THIS LINE\PCORTE A LO LARGO DE ESTA LINEA\PDECOUPER AU LONG DE CETTE LIGNE
 73
     1
 44
1.0
1001
ACAD
1000
MTEXTBEGIN
1070
    73
1070
     1
1070
    44
1040
1.0
1070
    74
1070
     0
1000
MTEXTEND
1000
ACAD_MTEXT_DEFINED_HEIGHT_BEGIN
1070
    46
1040
1.895578545603916
1000
ACAD_MTEXT_DEFINED_HEIGHT_END
  0
LEADER
  5
1C21
330
1F
100
AcDbEntity
  8
0
  6
Continuous
 62
     7
100
AcDbLeader
  3
Standard
 40
0.511811014
 41
1.766029213142856
 76
     3
 10
514.1571859991633
 20
431.8379742878653
 30
0.0
 10
511.8229495718322
 20
434.6294659091453
 30
0.0
 10
511.1475566087345
 20
434.6294659091453
 30
0.0
213
0.0
223
0.059055117
233
0.0
1001
ACAD
1000
DSTYLE
1002
{
1070
   147
1040
0.6
1070
    77
1070
     0
1002
}
  0
TEXT
  5
1C22
330
1F
100
AcDbEntity
  8
0
  6
HIDDEN
 62
     7
 48
10.0
100
AcDbText
 10
496.3091933190413
 20
448.0445761537755
 30
0.0
 40
0.125
  1
(MIN)
100
AcDbText
  0
TEXT
  5
1C23
330
1F
100
AcDbEntity
  8
0
  6
Continuous
 62
     7
100
AcDbText
 10
515.2687326910581
 20
429.4625682201964
 30
0.0
 40
0.19685039
  1
LT548
  7
BLACK
100
AcDbText
  0
LWPOLYLINE
  5
1CC4
330
1F
100
AcDbEntity
  8
viewport
100
AcDbPolyline
 90
        4
 70
     1
 43
0.0
 10
490.4887180291249
 20
427.3829069769142
 10
526.4887180291249
 20
427.3829069769142
 10
526.4887180291249
 20
451.3829069769142
 10
490.4887180291249
 20
451.3829069769142
  0
TEXT
  5
1CD0
330
1F
100
AcDbEntity
  8
DIM
  6
Continuous
 62
     7
100
AcDbText
 10
517.6442501463855
 20
426.2131033017558
 30
0.0
 40
0.23622
  1
70# OFFSET UNCOATED SHEET
  7
BLACK
100
AcDbText
  0
TEXT
  5
1CD1
330
1F
100
AcDbEntity
  8
DIM
  6
Continuous
 62
     7
100
AcDbText
 10
517.6442501463855
 20
425.7879522028807
 30
0.0
 40
0.23622
  1
BRIGHTNESS FACTOR- 86%%% OR HIGHER
  7
BLACK
100
AcDbText
  0
TEXT
  5
1CD2
330
1F
100
AcDbEntity
  8
DIM
  6
Continuous
 62
     7
100
AcDbText
 10
517.6442501463855
 20
426.6851423122668
 30
0.0
 40
0.23622
  1
SHT. 900mm x 600mm (36inX24in)
  7
BLACK
100
AcDbText
  0
VIEWPORT
  5
43D
102
{ACAD_XDICTIONARY
360
1DF8
102
}
330
43C
100
AcDbEntity
 67
     1
  8
0
100
AcDbViewport
 10
30.39942834288338
 20
10.72411589620335
 30
0.0
 40
30.63488734956647
 41
21.72379590354478
 68
     1
 69
     1
 12
30.39942834288338
 22
10.72411589620335
 13
0.0
 23
0.0
 14
0.5
 24
0.5
 15
0.5
 25
0.5
 16
0.0
 26
0.0
 36
1.0
 17
0.0
 27
0.0
 37
0.0
 42
50.0
 43
0.0
 44
0.0
 45
21.72379590354478
 50
0.0
 51
0.0
 72
  1000
 90
    32864
  1

281
     0
 71
     1
 74
     0
110
0.0
120
0.0
130
0.0
111
1.0
121
0.0
131
0.0
112
0.0
122
1.0
132
0.0
 79
     0
146
0.0
  0
VIEWPORT
  5
1CF2
102
{ACAD_XDICTIONARY
360
1E12
102
}
330
43C
100
AcDbEntity
 67
     1
  8
viewport
100
AcDbViewport
 10
17.94943821352184
 20
11.93520442434896
 30
0.0
 40
35.89887642704369
 41
23.87040884869793
 68
     2
 69
     2
 12
508.5392798190381
 22
439.4477025548495
 13
0.0
 23
0.0
 14
0.5
 24
0.5
 15
0.5
 25
0.5
 16
0.0
 26
0.0
 36
1.0
 17
0.0
 27
0.0
 37
0.0
 42
50.0
 43
0.0
 44
0.0
 45
23.87040884412948
 50
0.0
 51
0.0
 72
  1000
 90
    32864
  1

281
     0
 71
     1
 74
     0
110
0.0
120
0.0
130
0.0
111
1.0
121
0.0
131
0.0
112
0.0
122
1.0
132
0.0
 79
     0
146
0.0
  0
ENDSEC
  0
SECTION
  2
OBJECTS
  0
DICTIONARY
  5
C
330
0
100
AcDbDictionary
281
     1
  3
ACAD_COLOR
350
D30
  3
ACAD_GROUP
350
D
  3
ACAD_LAYOUT
350
1A
  3
ACAD_MATERIAL
350
D2F
  3
ACAD_MLINESTYLE
350
17
  3
ACAD_PLOTSETTINGS
350
19
  3
ACAD_PLOTSTYLENAME
350
E
  3
ACAD_TABLESTYLE
350
DC9
  3
ACAD_VISUALSTYLE
350
1DBA
  3
AcDbVariableDictionary
350
C08
  3
ASE_INDEX_DICTIONARY
350
1DA3
  3
DWGPROPS
350
1DD6
  0
DICTIONARY
  5
DDE
330
2
100
AcDbDictionary
280
     1
281
     1
  3
ACAD_LAYERSTATES
360
DDF
  0
DICTIONARY
  5
C39
330
1F
100
AcDbDictionary
280
     1
281
     1
  3
ACAD_LAYOUTSELFREF
360
C95
  3
ACAD_SORTENTS
360
F9D
  0
DICTIONARY
  5
C58
330
43C
100
AcDbDictionary
280
     1
281
     1
  3
ACAD_LAYOUTSELFREF
360
CCD
  0
DICTIONARY
  5
1DDB
330
77
100
AcDbDictionary
280
     1
281
     1
  3
ACAD_XREC_ROUNDTRIP
360
1DDC
  0
DICTIONARY
  5
1DDD
330
84
100
AcDbDictionary
280
     1
281
     1
  3
ACAD_XREC_ROUNDTRIP
360
1DDE
  0
DICTIONARY
  5
1C19
330
1C18
100
AcDbDictionary
280
     1
281
     1
  3
ACAD_DIMASSOC
360
1C1A
  0
DICTIONARY
  5
1C1C
330
1C1B
100
AcDbDictionary
280
     1
281
     1
  3
ACAD_DIMASSOC
360
1C1D
  0
DICTIONARY
  5
1DF8
330
43D
100
AcDbDictionary
280
     1
281
     1
  3
ACAD_XREC_ROUNDTRIP
360
1DF9
  0
DICTIONARY
  5
1E12
330
1CF2
100
AcDbDictionary
280
     1
281
     1
  3
ACAD_XREC_ROUNDTRIP
360
1E13
  0
DICTIONARY
  5
D30
102
{ACAD_REACTORS
330
C
102
}
330
C
100
AcDbDictionary
281
     1
  0
DICTIONARY
  5
D
102
{ACAD_REACTORS
330
C
102
}
330
C
100
AcDbDictionary
281
     1
  0
DICTIONARY
  5
1A
102
{ACAD_REACTORS
330
C
102
}
330
C
100
AcDbDictionary
281
     1
  3
layout
350
43B
  3
Model
350
22
  0
DICTIONARY
  5
D2F
102
{ACAD_REACTORS
330
C
102
}
330
C
100
AcDbDictionary
281
     1
  3
ByBlock
350
1DB8
  3
ByLayer
350
1DB7
  3
Global
350
1DB9
  0
DICTIONARY
  5
17
102
{ACAD_REACTORS
330
C
102
}
330
C
100
AcDbDictionary
281
     1
  3
Standard
350
18
  0
DICTIONARY
  5
19
102
{ACAD_REACTORS
330
C
102
}
330
C
100
AcDbDictionary
281
     1
  3
ANSI A title block (portrait) - no output device
350
62
  3
ANSI A title block - no output device
350
AE
  3
ANSI B title block - no output device
350
F4
  3
ANSI C title block - no output device
350
157
  3
ANSI D title block - no output device
350
1C8
  3
ANSI E title block - no output device
350
249
  3
Architectural English -no output device
350
279
  3
DIN A0 title block - no output device
350
2CB
  3
DIN A1 title block - no output device
350
31F
  3
DIN A2 title block - no output device
350
370
  3
DIN A3 title block - no output device
350
3C2
  3
DIN A4 title block - no output device
350
411
  3
Generic 24in x 36in title block - no output device
350
43A
  3
ISO A0 Title Block - no output device
350
51C
  3
ISO A1 title block - no output device
350
5DE
  3
ISO A2 title block - no output device
350
682
  3
ISO A3 title block - no output device
350
71C
  3
ISO A4 title block (portrait) - no output device
350
7A5
  3
JIS A1 title block - no output device
350
938
  3
JIS A2 title block - no output device
350
9E4
  3
JIS A3 title block - no output device
350
A80
  3
JIS A4 title block (landscape) - no output device
350
B0C
  3
JIS A4 title block (portrait) - no output device
350
B84
  3
JIS title block - no output device
350
884
  0
ACDBDICTIONARYWDFLT
  5
E
102
{ACAD_REACTORS
330
C
102
}
330
C
100
AcDbDictionary
281
     1
  3
Normal
350
F
100
AcDbDictionaryWithDefault
340
F
  0
DICTIONARY
  5
DC9
102
{ACAD_REACTORS
330
C
102
}
330
C
100
AcDbDictionary
281
     1
  3
Standard
350
DCA
  0
DICTIONARY
  5
1DBA
102
{ACAD_REACTORS
330
C
102
}
330
C
100
AcDbDictionary
281
     1
  3
2dWireframe
350
1DC0
  3
3D Hidden
350
1DC2
  3
3dWireframe
350
1DC1
  3
Basic
350
1DBF
  3
Brighten
350
1DC6
  3
ColorChange
350
1DCA
  3
Conceptual
350
1DC3
  3
Dim
350
1DC5
  3
Facepattern
350
1DC9
  3
Flat
350
1DBB
  3
FlatWithEdges
350
1DBC
  3
Gouraud
350
1DBD
  3
GouraudWithEdges
350
1DBE
  3
Linepattern
350
1DC8
  3
Realistic
350
1DC4
  3
Thicken
350
1DC7
  0
DICTIONARY
  5
C08
102
{ACAD_REACTORS
330
C
102
}
330
C
100
AcDbDictionary
281
     1
  3
CTABLESTYLE
350
DD2
  3
DIMASSOC
350
D2D
  3
HIDETEXT
350
D2C
  3
INDEXCTL
350
1DD5
  3
PROJECTNAME
350
11B8
  3
SORTENTS
350
C09
  0
DICTIONARY
  5
1DA3
102
{ACAD_REACTORS
330
C
102
}
330
C
100
AcDbDictionary
281
     1
  3
ASEBlockHierarchyIndexRecord
350
1DA4
1001
DCO15
1040
1651549408.984
  0
XRECORD
  5
1DD6
102
{ACAD_REACTORS
330
C
102
}
330
C
100
AcDbXrecord
280
     1
  1
DWGPROPS COOKIE
  2

  3

  4

  6

  7

  8
nnguyen
  9

300
=
301
=
302
=
303
=
304
=
305
=
306
=
307
=
308
=
309
=
 40
0.3148440162037037
 41
2453600.466110498
 42
2454918.367048426
  1

 90
        0
  0
DICTIONARY
  5
DDF
102
{ACAD_REACTORS
330
DDE
102
}
330
DDE
100
AcDbDictionary
281
     1
  0
XRECORD
  5
C95
102
{ACAD_REACTORS
330
C39
102
}
330
C39
100
AcDbXrecord
280
     1
340
1F
  0
SORTENTSTABLE
  5
F9D
102
{ACAD_REACTORS
330
C39
102
}
330
C39
100
AcDbSortentsTable
330
1F
331
FA1
  5
E9D
331
F9F
  5
E9F
331
FA4
  5
EA1
331
FA2
  5
E99
331
FA0
  5
E97
331
EC7
  5
ED9
331
F9E
  5
E9B
331
F9C
  5
EA5
331
FA3
  5
EA3
  0
XRECORD
  5
CCD
102
{ACAD_REACTORS
330
C58
102
}
330
C58
100
AcDbXrecord
280
     1
340
43C
  0
XRECORD
  5
1DDC
102
{ACAD_REACTORS
330
1DDB
102
}
330
1DDB
100
AcDbXrecord
280
     1
102
SHADEPLOT
 70
     0
  0
XRECORD
  5
1DDE
102
{ACAD_REACTORS
330
1DDD
102
}
330
1DDD
100
AcDbXrecord
280
     1
102
SHADEPLOT
 70
     0
  0
DIMASSOC
  5
1C1A
102
{ACAD_REACTORS
330
1C19
102
}
330
1C19
100
AcDbDimAssoc
330
1C18
 90
        3
 70
     0
 71
     0
  1
AcDbOsnapPointRef
 72
    13
331
1C15
 73
     2
 91
        0
 40
0.0
 10
0.0
 20
0.0
 30
2.000000000000000E+50
 75
     0
  1
AcDbOsnapPointRef
 72
    13
331
1C14
 73
     2
 91
        0
 40
0.0
 10
0.0
 20
0.0
 30
2.000000000000000E+50
 75
     0
  0
DIMASSOC
  5
1C1D
102
{ACAD_REACTORS
330
1C1C
102
}
330
1C1C
100
AcDbDimAssoc
330
1C1B
 90
        1
 70
     0
 71
     0
  1
AcDbOsnapPointRef
 72
    13
331
1C14
 73
     2
 91
        0
 40
0.0
 10
0.0
 20
0.0
 30
2.000000000000000E+50
 75
     0
  0
XRECORD
  5
1DF9
102
{ACAD_REACTORS
330
1DF8
102
}
330
1DF8
100
AcDbXrecord
280
     1
102
SHADEPLOT
 70
     0
  0
XRECORD
  5
1E13
102
{ACAD_REACTORS
330
1E12
102
}
330
1E12
100
AcDbXrecord
280
     1
102
SHADEPLOT
 70
     0
  0
LAYOUT
  5
43B
102
{ACAD_XDICTIONARY
360
1D5A
102
}
102
{ACAD_REACTORS
330
1A
102
}
330
1A
100
AcDbPlotSettings
  1

  2
none_device
  4
ARCH_D_(24.00_x_36.00_Inches)
  6

 40
6.4
 41
19.1
 42
6.4
 43
19.1
 44
609.5999755859375
 45
914.4000244140626
 46
6.022497075542843
 47
-0.3267267718291805
 48
0.0
 49
0.0
140
0.0
141
0.0
142
1.0
143
1.0
 70
   692
 72
     0
 73
     1
 74
     1
  7

 75
    16
147
1.0
148
0.2918430500568462
149
-4.790015632647501
100
AcDbLayout
  1
layout
 70
     1
 71
     1
 10
-0.7505951290640816
 20
-0.3004913953895802
 11
35.24940583211947
 21
23.69950764342686
 12
0.0
 22
0.0
 32
0.0
 14
-0.0000000000000036
 24
-0.0000000000000053
 34
0.0
 15
35.89887642704369
 25
23.87040884869793
 35
0.0
146
0.0
 13
0.0
 23
0.0
 33
0.0
 16
1.0
 26
0.0
 36
0.0
 17
0.0
 27
1.0
 37
0.0
 76
     0
330
43C
331
43D
  0
LAYOUT
  5
22
102
{ACAD_XDICTIONARY
360
1DD7
102
}
102
{ACAD_REACTORS
330
1A
102
}
330
1A
100
AcDbPlotSettings
  1

  2
none_device
  4
none_user_media
  6

 40
6.400000095367431
 41
6.400000095367431
 42
6.399993896484375
 43
4.6199951171875
 44
215.8999938964844
 45
279.3999938964844
 46
0.0
 47
0.0
 48
0.0
 49
0.0
140
0.0
141
0.0
142
1.0
143
1.0
 70
 11924
 72
     0
 73
     1
 74
     1
  7

 75
     0
147
1.0
148
0.0
149
0.0
100
AcDbLayout
  1
Model
 70
     1
 71
     0
 10
0.0
 20
0.0
 11
12.0
 21
9.0
 12
0.0
 22
0.0
 32
0.0
 14
0.0
 24
0.0
 34
0.0
 15
0.0
 25
0.0
 35
0.0
146
0.0
 13
0.0
 23
0.0
 33
0.0
 16
1.0
 26
0.0
 36
0.0
 17
0.0
 27
1.0
 37
0.0
 76
     0
330
1F
331
1DB5
  0
MATERIAL
  5
1DB8
102
{ACAD_XDICTIONARY
360
1E16
102
}
102
{ACAD_REACTORS
330
D2F
102
}
330
D2F
100
AcDbMaterial
  1
ByBlock
  0
MATERIAL
  5
1DB7
102
{ACAD_XDICTIONARY
360
1E14
102
}
102
{ACAD_REACTORS
330
D2F
102
}
330
D2F
100
AcDbMaterial
  1
ByLayer
  0
MATERIAL
  5
1DB9
102
{ACAD_XDICTIONARY
360
1E18
102
}
102
{ACAD_REACTORS
330
D2F
102
}
330
D2F
100
AcDbMaterial
  1
Global
  0
MLINESTYLE
  5
18
102
{ACAD_REACTORS
330
17
102
}
330
17
100
AcDbMlineStyle
  2
STANDARD
 70
     0
  3

 62
   256
 51
90.0
 52
90.0
 71
     2
 49
0.5
 62
   256
  6
BYLAYER
 49
-0.5
 62
   256
  6
BYLAYER
  0
PLOTSETTINGS
  5
62
102
{ACAD_XDICTIONARY
360
1DD9
102
}
102
{ACAD_REACTORS
330
19
102
}
330
19
100
AcDbPlotSettings
  1
ANSI A title block (portrait) - no output device
  2
None
  4
ANSI_A_(11.00_x_8.50_Inches)
  6

 40
6.4
 41
19.1
 42
6.4
 43
19.1
 44
279.3999938964844
 45
215.8999938964844
 46
0.0
 47
-12.7
 48
0.0
 49
0.0
140
0.0
141
0.0
142
1.0
143
1.0
 70
   692
 72
     0
 73
     1
 74
     1
  7

 75
    16
147
1.0
148
0.0093010481555268
149
0.0069757861166451
  0
PLOTSETTINGS
  5
AE
102
{ACAD_XDICTIONARY
360
1DDF
102
}
102
{ACAD_REACTORS
330
19
102
}
330
19
100
AcDbPlotSettings
  1
ANSI A title block - no output device
  2
None
  4
ANSI_A_(8.50_x_11.00_Inches)
  6

 40
6.4
 41
19.1
 42
6.4
 43
19.1
 44
215.8999938964844
 45
279.3999938964844
 46
0.0
 47
-12.7
 48
0.0
 49
0.0
140
0.0
141
0.0
142
1.0
143
1.0
 70
   692
 72
     0
 73
     1
 74
     1
  7

 75
    16
147
1.0
148
0.0069644747301673
149
0.0050344353087695
  0
PLOTSETTINGS
  5
F4
102
{ACAD_XDICTIONARY
360
1DE1
102
}
102
{ACAD_REACTORS
330
19
102
}
330
19
100
AcDbPlotSettings
  1
ANSI B title block - no output device
  2
None
  4
ANSI_B_(11.00_x_17.00_Inches)
  6

 40
6.4
 41
19.1
 42
6.4
 43
19.1
 44
279.3999938964844
 45
431.7999877929685
 46
6.349999999999997
 47
-6.349999999999997
 48
0.0
 49
0.0
140
0.0
141
0.0
142
1.0
143
1.0
 70
   692
 72
     0
 73
     1
 74
     1
  7

 75
    16
147
1.0
148
0.0199131222394598
149
0.0028019540496935
  0
PLOTSETTINGS
  5
157
102
{ACAD_XDICTIONARY
360
1DE3
102
}
102
{ACAD_REACTORS
330
19
102
}
330
19
100
AcDbPlotSettings
  1
ANSI C title block - no output device
  2
None
  4
ANSI_C_(17.00_x_22.00_Inches)
  6

 40
6.4
 41
19.1
 42
6.4
 43
19.1
 44
431.7999877929685
 45
558.7999877929686
 46
6.349999999999997
 47
-6.349999999999997
 48
0.0
 49
0.0
140
0.0
141
0.0
142
1.0
143
1.0
 70
   692
 72
     0
 73
     1
 74
     1
  7

 75
    16
147
1.0
148
0.0093010481555268
149
0.0069757861166451
  0
PLOTSETTINGS
  5
1C8
102
{ACAD_XDICTIONARY
360
1DE5
102
}
102
{ACAD_REACTORS
330
19
102
}
330
19
100
AcDbPlotSettings
  1
ANSI D title block - no output device
  2
None
  4
ANSI_D_(22.00_x_34.00_Inches)
  6

 40
6.4
 41
19.1
 42
6.4
 43
19.1
 44
558.7999877929686
 45
863.5999755859375
 46
6.349999999999997
 47
0.0
 48
0.0
 49
0.0
140
0.0
141
0.0
142
1.0
143
1.0
 70
   692
 72
     0
 73
     1
 74
     1
  7

 75
    16
147
1.0
148
0.0093010481555268
149
0.0069757861166451
  0
PLOTSETTINGS
  5
249
102
{ACAD_XDICTIONARY
360
1DE7
102
}
102
{ACAD_REACTORS
330
19
102
}
330
19
100
AcDbPlotSettings
  1
ANSI E title block - no output device
  2
None
  4
ANSI_E_(34.00_x_44.00_Inches)
  6

 40
6.4
 41
19.1
 42
6.4
 43
19.1
 44
863.5999755859375
 45
1117.599975585937
 46
6.349999999999997
 47
0.0
 48
0.0
 49
0.0
140
0.0
141
0.0
142
1.0
143
1.0
 70
   692
 72
     0
 73
     1
 74
     1
  7

 75
    16
147
1.0
148
0.0
149
0.0
  0
PLOTSETTINGS
  5
279
102
{ACAD_XDICTIONARY
360
1DE9
102
}
102
{ACAD_REACTORS
330
19
102
}
330
19
100
AcDbPlotSettings
  1
Architectural English -no output device
  2
None
  4
ARCH_D_(24.00_x_36.00_Inches)
  6

 40
6.4
 41
19.1
 42
6.4
 43
19.1
 44
609.5999755859375
 45
914.4000244140626
 46
6.349999999999997
 47
0.0
 48
0.0
 49
0.0
140
0.0
141
0.0
142
1.0
143
1.0
 70
   692
 72
     0
 73
     1
 74
     1
  7

 75
    16
147
1.0
148
0.0093010481555268
149
0.0069757861166451
  0
PLOTSETTINGS
  5
2CB
102
{ACAD_XDICTIONARY
360
1DEB
102
}
102
{ACAD_REACTORS
330
19
102
}
330
19
100
AcDbPlotSettings
  1
DIN A0 title block - no output device
  2
None
  4
ISO_A0_(841.00_x_1189.00_MM)
  6

 40
7.549999999999998
 41
20.05
 42
7.549999999999998
 43
20.05
 44
841.0
 45
1189.0
 46
-7.589999999999997
 47
-20.1
 48
0.0
 49
0.0
140
0.0
141
0.0
142
1.0
143
1.0
 70
   692
 72
     1
 73
     1
 74
     1
  7

 75
    16
147
1.0
148
0.0491001526820583
149
0.0347270453419242
  0
PLOTSETTINGS
  5
31F
102
{ACAD_XDICTIONARY
360
1DED
102
}
102
{ACAD_REACTORS
330
19
102
}
330
19
100
AcDbPlotSettings
  1
DIN A1 title block - no output device
  2
None
  4
ISO_A1_(841.00_x_594.00_MM)
  6

 40
7.549999999999998
 41
20.05
 42
7.549999999999998
 43
20.05
 44
841.0
 45
594.0
 46
-7.57
 47
-20.06
 48
0.0
 49
0.0
140
0.0
141
0.0
142
1.0
143
1.0
 70
   692
 72
     1
 73
     0
 74
     1
  7

 75
    16
147
1.0
148
0.0128164049386896
149
0.0090630292066862
  0
PLOTSETTINGS
  5
370
102
{ACAD_XDICTIONARY
360
1DEF
102
}
102
{ACAD_REACTORS
330
19
102
}
330
19
100
AcDbPlotSettings
  1
DIN A2 title block - no output device
  2
None
  4
ISO_A2_(594.00_x_420.00_MM)
  6

 40
7.549999999999998
 41
20.05
 42
7.549999999999998
 43
20.05
 44
594.0
 45
420.0
 46
-7.559999999999997
 47
-20.06
 48
0.0
 49
0.0
140
0.0
141
0.0
142
1.0
143
1.0
 70
   692
 72
     1
 73
     0
 74
     1
  7

 75
    16
147
1.0
148
0.0128164049386896
149
0.0090630292066862
  0
PLOTSETTINGS
  5
3C2
102
{ACAD_XDICTIONARY
360
1DF1
102
}
102
{ACAD_REACTORS
330
19
102
}
330
19
100
AcDbPlotSettings
  1
DIN A3 title block - no output device
  2
None
  4
ISO_A3_(297.00_x_420.00_MM)
  6

 40
7.549999999999998
 41
20.05
 42
7.549999999999998
 43
20.05
 44
297.0
 45
420.0
 46
-7.559999999999997
 47
-20.06
 48
0.0
 49
0.0
140
0.0
141
0.0
142
1.0
143
1.0
 70
   692
 72
     1
 73
     1
 74
     1
  7

 75
    16
147
1.0
148
0.0128164049386896
149
0.0090630292066862
  0
PLOTSETTINGS
  5
411
102
{ACAD_XDICTIONARY
360
1DF3
102
}
102
{ACAD_REACTORS
330
19
102
}
330
19
100
AcDbPlotSettings
  1
DIN A4 title block - no output device
  2
None
  4
ISO_A4_(210.00_x_297.00_MM)
  6

 40
7.549999999999998
 41
20.05
 42
7.549999999999998
 43
20.05
 44
210.0
 45
297.0
 46
-7.559999999999997
 47
-20.06
 48
0.0
 49
0.0
140
0.0
141
0.0
142
1.0
143
1.0
 70
   692
 72
     1
 73
     0
 74
     1
  7

 75
    16
147
1.0
148
0.0128164049386896
149
0.0090630292066862
  0
PLOTSETTINGS
  5
43A
102
{ACAD_XDICTIONARY
360
1DF5
102
}
102
{ACAD_REACTORS
330
19
102
}
330
19
100
AcDbPlotSettings
  1
Generic 24in x 36in title block - no output device
  2
None
  4
ARCH_D_(24.00_x_36.00_Inches)
  6

 40
6.4
 41
19.1
 42
6.4
 43
19.1
 44
609.5999755859375
 45
914.4000244140626
 46
6.095999999999999
 47
-0.254
 48
0.0
 49
0.0
140
0.0
141
0.0
142
1.0
143
1.0
 70
   692
 72
     0
 73
     1
 74
     1
  7

 75
    16
147
1.0
148
0.2650993882970653
149
0.268587724897764
  0
PLOTSETTINGS
  5
51C
102
{ACAD_XDICTIONARY
360
1DFA
102
}
102
{ACAD_REACTORS
330
19
102
}
330
19
100
AcDbPlotSettings
  1
ISO A0 Title Block - no output device
  2
None
  4
ISO_A0_(841.00_x_1189.00_MM)
  6

 40
7.549999999999998
 41
20.05
 42
7.549999999999998
 43
20.05
 44
841.0
 45
1189.0
 46
-7.059999999999997
 47
-19.63
 48
0.0
 49
0.0
140
0.0
141
0.0
142
1.0
143
1.0
 70
   692
 72
     1
 73
     1
 74
     1
  7

 75
    16
147
1.0
148
0.07329011000229
149
0.0091621212520749
  0
PLOTSETTINGS
  5
5DE
102
{ACAD_XDICTIONARY
360
1DFC
102
}
102
{ACAD_REACTORS
330
19
102
}
330
19
100
AcDbPlotSettings
  1
ISO A1 title block - no output device
  2
None
  4
ISO_A1_(594.00_x_841.00_MM)
  6

 40
7.549999999999998
 41
20.05
 42
7.549999999999998
 43
20.05
 44
594.0
 45
841.0
 46
-7.559999999999997
 47
-19.56
 48
0.0
 49
0.0
140
0.0
141
0.0
142
1.0
143
1.0
 70
   692
 72
     1
 73
     1
 74
     1
  7

 75
    16
147
1.0
148
0.0128164049386896
149
0.0090630292066862
  0
PLOTSETTINGS
  5
682
102
{ACAD_XDICTIONARY
360
1DFE
102
}
102
{ACAD_REACTORS
330
19
102
}
330
19
100
AcDbPlotSettings
  1
ISO A2 title block - no output device
  2
None
  4
ISO_A2_(420.00_x_594.00_MM)
  6

 40
7.549999999999998
 41
20.05
 42
7.549999999999998
 43
20.05
 44
420.0
 45
594.0
 46
-7.559999999999997
 47
-20.06
 48
0.0
 49
0.0
140
0.0
141
0.0
142
1.0
143
1.0
 70
   692
 72
     1
 73
     1
 74
     1
  7

 75
    16
147
1.0
148
0.0128164049386896
149
0.0090630292066862
  0
PLOTSETTINGS
  5
71C
102
{ACAD_XDICTIONARY
360
1E00
102
}
102
{ACAD_REACTORS
330
19
102
}
330
19
100
AcDbPlotSettings
  1
ISO A3 title block - no output device
  2
None
  4
ISO_A3_(297.00_x_420.00_MM)
  6

 40
7.549999999999998
 41
20.05
 42
7.549999999999998
 43
20.05
 44
297.0
 45
420.0
 46
-7.559999999999997
 47
-20.06
 48
0.0
 49
0.0
140
0.0
141
0.0
142
1.0
143
1.0
 70
   692
 72
     1
 73
     1
 74
     1
  7

 75
    16
147
1.0
148
0.0128164049386896
149
0.0090630292066862
  0
PLOTSETTINGS
  5
7A5
102
{ACAD_XDICTIONARY
360
1E02
102
}
102
{ACAD_REACTORS
330
19
102
}
330
19
100
AcDbPlotSettings
  1
ISO A4 title block (portrait) - no output device
  2
None
  4
ISO_A4_(210.00_x_297.00_MM)
  6

 40
7.549999999999998
 41
20.05
 42
7.549999999999998
 43
20.05
 44
210.0
 45
297.0
 46
-7.559999999999997
 47
-20.06
 48
0.0
 49
0.0
140
0.0
141
0.0
142
1.0
143
1.0
 70
   692
 72
     1
 73
     0
 74
     1
  7

 75
    16
147
1.0
148
0.0128164049386896
149
0.0090630292066862
  0
PLOTSETTINGS
  5
938
102
{ACAD_XDICTIONARY
360
1E06
102
}
102
{ACAD_REACTORS
330
19
102
}
330
19
100
AcDbPlotSettings
  1
JIS A1 title block - no output device
  2
None
  4
ISO_A1_(594.00_x_841.00_MM)
  6

 40
7.549999999999998
 41
20.05
 42
7.549999999999998
 43
20.05
 44
594.0
 45
841.0
 46
-7.559999999999997
 47
-20.07
 48
0.0
 49
0.0
140
0.0
141
0.0
142
1.0
143
1.0
 70
   692
 72
     1
 73
     1
 74
     1
  7

 75
    16
147
1.0
148
0.0128164049386896
149
0.0090630292066862
  0
PLOTSETTINGS
  5
9E4
102
{ACAD_XDICTIONARY
360
1E08
102
}
102
{ACAD_REACTORS
330
19
102
}
330
19
100
AcDbPlotSettings
  1
JIS A2 title block - no output device
  2
None
  4
ISO_A2_(420.00_x_594.00_MM)
  6

 40
7.549999999999998
 41
20.05
 42
7.549999999999998
 43
20.05
 44
420.0
 45
594.0
 46
-7.559999999999997
 47
-20.08
 48
0.0
 49
0.0
140
0.0
141
0.0
142
1.0
143
1.0
 70
   692
 72
     1
 73
     1
 74
     1
  7

 75
    16
147
1.0
148
0.0310265638195233
149
0.0127800040935426
  0
PLOTSETTINGS
  5
A80
102
{ACAD_XDICTIONARY
360
1E0A
102
}
102
{ACAD_REACTORS
330
19
102
}
330
19
100
AcDbPlotSettings
  1
JIS A3 title block - no output device
  2
None
  4
ISO_A3_(297.00_x_420.00_MM)
  6

 40
7.549999999999998
 41
20.05
 42
7.549999999999998
 43
20.05
 44
297.0
 45
420.0
 46
-7.559999999999997
 47
-20.06
 48
0.0
 49
0.0
140
0.0
141
0.0
142
1.0
143
1.0
 70
   692
 72
     1
 73
     1
 74
     1
  7

 75
    16
147
1.0
148
0.0128164049386896
149
0.0090630292066862
  0
PLOTSETTINGS
  5
B0C
102
{ACAD_XDICTIONARY
360
1E0C
102
}
102
{ACAD_REACTORS
330
19
102
}
330
19
100
AcDbPlotSettings
  1
JIS A4 title block (landscape) - no output device
  2
None
  4
ISO_A4_(210.00_x_297.00_MM)
  6

 40
7.549999999999998
 41
20.05
 42
7.549999999999998
 43
20.05
 44
210.0
 45
297.0
 46
-7.559999999999997
 47
-20.07
 48
0.0
 49
0.0
140
0.0
141
0.0
142
1.0
143
1.0
 70
   692
 72
     1
 73
     1
 74
     1
  7

 75
    16
147
1.0
148
0.0128164049386896
149
0.0090630292066862
  0
PLOTSETTINGS
  5
B84
102
{ACAD_XDICTIONARY
360
1E0E
102
}
102
{ACAD_REACTORS
330
19
102
}
330
19
100
AcDbPlotSettings
  1
JIS A4 title block (portrait) - no output device
  2
None
  4
ISO_A4_(210.00_x_297.00_MM)
  6

 40
7.549999999999998
 41
20.05
 42
7.549999999999998
 43
20.05
 44
210.0
 45
297.0
 46
-7.559999999999997
 47
-20.06
 48
0.0
 49
0.0
140
0.0
141
0.0
142
1.0
143
1.0
 70
   692
 72
     1
 73
     0
 74
     1
  7

 75
    16
147
1.0
148
0.0128164049386896
149
0.0090630292066862
  0
PLOTSETTINGS
  5
884
102
{ACAD_XDICTIONARY
360
1E04
102
}
102
{ACAD_REACTORS
330
19
102
}
330
19
100
AcDbPlotSettings
  1
JIS title block - no output device
  2
None
  4
ISO_A0_(841.00_x_1189.00_MM)
  6

 40
7.549999999999998
 41
20.05
 42
7.549999999999998
 43
20.05
 44
841.0
 45
1189.0
 46
-7.559999999999997
 47
-20.07
 48
0.0
 49
0.0
140
0.0
141
0.0
142
1.0
143
1.0
 70
   692
 72
     1
 73
     1
 74
     1
  7

 75
    16
147
1.0
148
0.0128164049386896
149
0.0090630292066862
  0
ACDBPLACEHOLDER
  5
F
102
{ACAD_REACTORS
330
E
102
}
330
E
  0
TABLESTYLE
  5
DCA
102
{ACAD_XDICTIONARY
360
1E10
102
}
102
{ACAD_REACTORS
330
DC9
102
}
330
DC9
100
AcDbTableStyle
  3
Standard
 70
     0
 71
     0
 40
0.06
 41
0.06
280
     0
281
     0
  7
Standard
140
0.18
170
     2
 62
     0
 63
     7
283
     0
274
    -2
284
     1
 64
     0
275
    -2
285
     1
 65
     0
276
    -2
286
     1
 66
     0
277
    -2
287
     1
 67
     0
278
    -2
288
     1
 68
     0
279
    -2
289
     1
 69
     0
  7
Standard
140
0.25
170
     5
 62
     0
 63
     7
283
     0
274
    -2
284
     1
 64
     0
275
    -2
285
     1
 65
     0
276
    -2
286
     1
 66
     0
277
    -2
287
     1
 67
     0
278
    -2
288
     1
 68
     0
279
    -2
289
     1
 69
     0
  7
Standard
140
0.18
170
     5
 62
     0
 63
     7
283
     0
274
    -2
284
     1
 64
     0
275
    -2
285
     1
 65
     0
276
    -2
286
     1
 66
     0
277
    -2
287
     1
 67
     0
278
    -2
288
     1
 68
     0
279
    -2
289
     1
 69
     0
  0
VISUALSTYLE
  5
1DC0
102
{ACAD_REACTORS
330
1DBA
102
}
330
1DBA
100
AcDbVisualStyle
  2
2dWireframe
 70
     4
 71
     0
 72
     2
 73
     0
 90
        0
 40
-0.6
 41
-30.0
 62
     5
 63
     7
 74
     1
 91
        4
 64
     7
 65
   257
 75
     1
175
     1
 42
1.0
 92
        0
 66
   257
 43
1.0
 76
     1
 77
     6
 78
     2
 67
     7
 79
     5
170
     0
171
     0
290
     0
174
     0
 93
        1
 44
0.0
173
     0
291
     0
 45
0.0
1001
ACAD
1000
AcDbSavedByObjectVersion
1070
     0
  0
VISUALSTYLE
  5
1DC2
102
{ACAD_REACTORS
330
1DBA
102
}
330
1DBA
100
AcDbVisualStyle
  2
3D Hidden
 70
     6
 71
     1
 72
     2
 73
     2
 90
        0
 40
-0.6
 41
-30.0
 62
     5
 63
     7
 74
     2
 91
        2
 64
     7
 65
   257
 75
     2
175
     1
 42
40.0
 92
        0
 66
   257
 43
1.0
 76
     1
 77
     6
 78
     2
 67
     7
 79
     3
170
     0
171
     0
290
     0
174
     0
 93
        1
 44
0.0
173
     0
291
     0
 45
0.0
1001
ACAD
1000
AcDbSavedByObjectVersion
1070
     0
  0
VISUALSTYLE
  5
1DC1
102
{ACAD_REACTORS
330
1DBA
102
}
330
1DBA
100
AcDbVisualStyle
  2
3dWireframe
 70
     5
 71
     0
 72
     2
 73
     0
 90
        0
 40
-0.6
 41
-30.0
 62
     5
 63
     7
 74
     1
 91
        4
 64
     7
 65
   257
 75
     1
175
     1
 42
1.0
 92
        0
 66
   257
 43
1.0
 76
     1
 77
     6
 78
     2
 67
     7
 79
     5
170
     0
171
     0
290
     0
174
     0
 93
        1
 44
0.0
173
     0
291
     0
 45
0.0
1001
ACAD
1000
AcDbSavedByObjectVersion
1070
     0
  0
VISUALSTYLE
  5
1DBF
102
{ACAD_REACTORS
330
1DBA
102
}
330
1DBA
100
AcDbVisualStyle
  2
Basic
 70
     7
 71
     1
 72
     0
 73
     1
 90
        0
 40
-0.6
 41
-30.0
 62
     5
 63
     7
 74
     0
 91
        4
 64
     7
 65
   257
 75
     1
175
     1
 42
1.0
 92
        8
 66
     7
 43
1.0
 76
     1
 77
     6
 78
     2
 67
     7
 79
     5
170
     0
171
     0
290
     0
174
     0
 93
        1
 44
0.0
173
     0
291
     1
 45
0.0
1001
ACAD
1000
AcDbSavedByObjectVersion
1070
     0
  0
VISUALSTYLE
  5
1DC6
102
{ACAD_REACTORS
330
1DBA
102
}
330
1DBA
100
AcDbVisualStyle
  2
Brighten
 70
    12
 71
     2
 72
     2
 73
     0
 90
        0
 40
-0.6
 41
-30.0
 62
     5
 63
     7
 74
     1
 91
        4
 64
     7
 65
   257
 75
     1
175
     1
 42
1.0
 92
        8
 66
     7
 43
1.0
 76
     1
 77
     6
 78
     2
 67
     7
 79
     5
170
     0
171
     0
290
     0
174
     0
 93
        1
 44
50.0
173
     0
291
     1
 45
0.0
1001
ACAD
1000
AcDbSavedByObjectVersion
1070
     0
  0
VISUALSTYLE
  5
1DCA
102
{ACAD_REACTORS
330
1DBA
102
}
330
1DBA
100
AcDbVisualStyle
  2
ColorChange
 70
    16
 71
     2
 72
     2
 73
     3
 90
        0
 40
-0.6
 41
-30.0
 62
     5
 63
     8
 74
     1
 91
        4
 64
     7
 65
   257
 75
     1
175
     1
 42
1.0
 92
        8
 66
     8
 43
1.0
 76
     1
 77
     6
 78
     2
 67
     7
 79
     5
170
     0
171
     0
290
     0
174
     0
 93
        1
 44
0.0
173
     0
291
     1
 45
0.0
1001
ACAD
1000
AcDbSavedByObjectVersion
1070
     0
  0
VISUALSTYLE
  5
1DC3
102
{ACAD_REACTORS
330
1DBA
102
}
330
1DBA
100
AcDbVisualStyle
  2
Conceptual
 70
     9
 71
     3
 72
     2
 73
     0
 90
        0
 40
-0.6
 41
-30.0
 62
     5
 63
     7
 74
     2
 91
        2
 64
     7
 65
   257
 75
     1
175
     1
 42
40.0
 92
        8
 66
     7
 43
1.0
 76
     1
 77
     6
 78
     2
 67
     7
 79
     3
170
     0
171
     0
290
     0
174
     0
 93
        1
 44
0.0
173
     0
291
     0
 45
0.0
1001
ACAD
1000
AcDbSavedByObjectVersion
1070
     0
  0
VISUALSTYLE
  5
1DC5
102
{ACAD_REACTORS
330
1DBA
102
}
330
1DBA
100
AcDbVisualStyle
  2
Dim
 70
    11
 71
     2
 72
     2
 73
     0
 90
        0
 40
-0.6
 41
-30.0
 62
     5
 63
     7
 74
     1
 91
        4
 64
     7
 65
   257
 75
     1
175
     1
 42
1.0
 92
        8
 66
     7
 43
1.0
 76
     1
 77
     6
 78
     2
 67
     7
 79
     5
170
     0
171
     0
290
     0
174
     0
 93
        1
 44
-50.0
173
     0
291
     1
 45
0.0
1001
ACAD
1000
AcDbSavedByObjectVersion
1070
     0
  0
VISUALSTYLE
  5
1DC9
102
{ACAD_REACTORS
330
1DBA
102
}
330
1DBA
100
AcDbVisualStyle
  2
Facepattern
 70
    15
 71
     2
 72
     2
 73
     0
 90
        0
 40
-0.6
 41
-30.0
 62
     5
 63
     7
 74
     1
 91
        4
 64
     7
 65
   257
 75
     1
175
     1
 42
1.0
 92
        8
 66
     7
 43
1.0
 76
     1
 77
     6
 78
     2
 67
     7
 79
     5
170
     0
171
     0
290
     0
174
     0
 93
        1
 44
0.0
173
     0
291
     1
 45
0.0
1001
ACAD
1000
AcDbSavedByObjectVersion
1070
     0
  0
VISUALSTYLE
  5
1DBB
102
{ACAD_REACTORS
330
1DBA
102
}
330
1DBA
100
AcDbVisualStyle
  2
Flat
 70
     0
 71
     2
 72
     1
 73
     1
 90
        2
 40
-0.6
 41
30.0
 62
     5
 63
     7
 74
     0
 91
        4
 64
     7
 65
   257
 75
     1
175
     1
 42
1.0
 92
        8
 66
     7
 43
1.0
 76
     1
 77
     6
 78
     2
 67
     7
 79
     5
170
     0
171
     0
290
     0
174
     0
 93
       13
 44
0.0
173
     0
291
     1
 45
0.0
1001
ACAD
1000
AcDbSavedByObjectVersion
1070
     0
  0
VISUALSTYLE
  5
1DBC
102
{ACAD_REACTORS
330
1DBA
102
}
330
1DBA
100
AcDbVisualStyle
  2
FlatWithEdges
 70
     1
 71
     2
 72
     1
 73
     1
 90
        2
 40
-0.6
 41
30.0
 62
     5
 63
     7
 74
     1
 91
        4
 64
     7
 65
   257
 75
     1
175
     1
 42
1.0
 92
        0
 66
   257
 43
1.0
 76
     1
 77
     6
 78
     2
 67
     7
 79
     5
170
     0
171
     0
290
     0
174
     0
 93
       13
 44
0.0
173
     0
291
     1
 45
0.0
1001
ACAD
1000
AcDbSavedByObjectVersion
1070
     0
  0
VISUALSTYLE
  5
1DBD
102
{ACAD_REACTORS
330
1DBA
102
}
330
1DBA
100
AcDbVisualStyle
  2
Gouraud
 70
     2
 71
     2
 72
     2
 73
     1
 90
        2
 40
-0.6
 41
30.0
 62
     5
 63
     7
 74
     0
 91
        4
 64
     7
 65
   257
 75
     1
175
     1
 42
1.0
 92
        0
 66
     7
 43
1.0
 76
     1
 77
     6
 78
     2
 67
     7
 79
     5
170
     0
171
     0
290
     0
174
     0
 93
       13
 44
0.0
173
     0
291
     1
 45
0.0
1001
ACAD
1000
AcDbSavedByObjectVersion
1070
     0
  0
VISUALSTYLE
  5
1DBE
102
{ACAD_REACTORS
330
1DBA
102
}
330
1DBA
100
AcDbVisualStyle
  2
GouraudWithEdges
 70
     3
 71
     2
 72
     2
 73
     1
 90
        2
 40
-0.6
 41
30.0
 62
     5
 63
     7
 74
     1
 91
        4
 64
     7
 65
   257
 75
     1
175
     1
 42
1.0
 92
        0
 66
   257
 43
1.0
 76
     1
 77
     6
 78
     2
 67
     7
 79
     5
170
     0
171
     0
290
     0
174
     0
 93
       13
 44
0.0
173
     0
291
     1
 45
0.0
1001
ACAD
1000
AcDbSavedByObjectVersion
1070
     0
  0
VISUALSTYLE
  5
1DC8
102
{ACAD_REACTORS
330
1DBA
102
}
330
1DBA
100
AcDbVisualStyle
  2
Linepattern
 70
    14
 71
     2
 72
     2
 73
     0
 90
        0
 40
-0.6
 41
-30.0
 62
     5
 63
     7
 74
     1
 91
        4
 64
     7
 65
   257
 75
     7
175
     7
 42
1.0
 92
        8
 66
     7
 43
1.0
 76
     1
 77
     6
 78
     2
 67
     7
 79
     5
170
     0
171
     0
290
     0
174
     0
 93
        1
 44
0.0
173
     0
291
     1
 45
0.0
1001
ACAD
1000
AcDbSavedByObjectVersion
1070
     0
  0
VISUALSTYLE
  5
1DC4
102
{ACAD_REACTORS
330
1DBA
102
}
330
1DBA
100
AcDbVisualStyle
  2
Realistic
 70
     8
 71
     2
 72
     2
 73
     0
 90
        0
 40
-0.6
 41
-30.0
 62
     5
 63
     7
 74
     1
 91
        0
 64
     7
 65
   257
 75
     1
175
     1
 42
1.0
 92
        8
 66
     8
 43
1.0
 76
     1
 77
     6
 78
     2
 67
     7
 79
     5
170
     0
171
     0
290
     0
174
     0
 93
       13
 44
0.0
173
     0
291
     0
 45
0.0
1001
ACAD
1000
AcDbSavedByObjectVersion
1070
     0
  0
VISUALSTYLE
  5
1DC7
102
{ACAD_REACTORS
330
1DBA
102
}
330
1DBA
100
AcDbVisualStyle
  2
Thicken
 70
    13
 71
     2
 72
     2
 73
     0
 90
        0
 40
-0.6
 41
-30.0
 62
     5
 63
     7
 74
     1
 91
        4
 64
     7
 65
   257
 75
     1
175
     1
 42
1.0
 92
       12
 66
     7
 43
1.0
 76
     1
 77
     6
 78
     2
 67
     7
 79
     5
170
     0
171
     0
290
     0
174
     0
 93
        1
 44
0.0
173
     0
291
     1
 45
0.0
1001
ACAD
1000
AcDbSavedByObjectVersion
1070
     0
  0
DICTIONARYVAR
  5
DD2
102
{ACAD_REACTORS
330
C08
102
}
330
C08
100
DictionaryVariables
280
     0
  1
STANDARD
  0
DICTIONARYVAR
  5
D2D
102
{ACAD_REACTORS
330
C08
102
}
330
C08
100
DictionaryVariables
280
     0
  1
2
  0
DICTIONARYVAR
  5
D2C
102
{ACAD_REACTORS
330
C08
102
}
330
C08
100
DictionaryVariables
280
     0
  1
1
  0
DICTIONARYVAR
  5
1DD5
102
{ACAD_REACTORS
330
C08
102
}
330
C08
100
DictionaryVariables
280
     0
  1
0
  0
DICTIONARYVAR
  5
11B8
102
{ACAD_REACTORS
330
C08
102
}
330
C08
100
DictionaryVariables
280
     0
  1

  0
DICTIONARYVAR
  5
C09
102
{ACAD_REACTORS
330
C08
102
}
330
C08
100
DictionaryVariables
280
     0
  1
127
  0
XRECORD
  5
1DA4
102
{ACAD_REACTORS
330
1DA3
102
}
330
1DA3
100
AcDbXrecord
280
     1
330
117C
  0
DICTIONARY
  5
1D5A
330
43B
100
AcDbDictionary
280
     1
281
     1
  3
ACAD_XREC_ROUNDTRIP
360
1DF7
  3
ADSK_XREC_LAYOUTTHUMBNAIL
360
1D5B
  0
DICTIONARY
  5
1DD7
330
22
100
AcDbDictionary
280
     1
281
     1
  3
ACAD_XREC_ROUNDTRIP
360
1DD8
  0
DICTIONARY
  5
1E16
330
1DB8
100
AcDbDictionary
280
     1
281
     1
  3
ACAD_XREC_ROUNDTRIP
360
1E17
  0
DICTIONARY
  5
1E14
330
1DB7
100
AcDbDictionary
280
     1
281
     1
  3
ACAD_XREC_ROUNDTRIP
360
1E15
  0
DICTIONARY
  5
1E18
330
1DB9
100
AcDbDictionary
280
     1
281
     1
  3
ACAD_XREC_ROUNDTRIP
360
1E19
  0
DICTIONARY
  5
1DD9
330
62
100
AcDbDictionary
280
     1
281
     1
  3
ACAD_XREC_ROUNDTRIP
360
1DDA
  0
DICTIONARY
  5
1DDF
330
AE
100
AcDbDictionary
280
     1
281
     1
  3
ACAD_XREC_ROUNDTRIP
360
1DE0
  0
DICTIONARY
  5
1DE1
330
F4
100
AcDbDictionary
280
     1
281
     1
  3
ACAD_XREC_ROUNDTRIP
360
1DE2
  0
DICTIONARY
  5
1DE3
330
157
100
AcDbDictionary
280
     1
281
     1
  3
ACAD_XREC_ROUNDTRIP
360
1DE4
  0
DICTIONARY
  5
1DE5
330
1C8
100
AcDbDictionary
280
     1
281
     1
  3
ACAD_XREC_ROUNDTRIP
360
1DE6
  0
DICTIONARY
  5
1DE7
330
249
100
AcDbDictionary
280
     1
281
     1
  3
ACAD_XREC_ROUNDTRIP
360
1DE8
  0
DICTIONARY
  5
1DE9
330
279
100
AcDbDictionary
280
     1
281
     1
  3
ACAD_XREC_ROUNDTRIP
360
1DEA
  0
DICTIONARY
  5
1DEB
330
2CB
100
AcDbDictionary
280
     1
281
     1
  3
ACAD_XREC_ROUNDTRIP
360
1DEC
  0
DICTIONARY
  5
1DED
330
31F
100
AcDbDictionary
280
     1
281
     1
  3
ACAD_XREC_ROUNDTRIP
360
1DEE
  0
DICTIONARY
  5
1DEF
330
370
100
AcDbDictionary
280
     1
281
     1
  3
ACAD_XREC_ROUNDTRIP
360
1DF0
  0
DICTIONARY
  5
1DF1
330
3C2
100
AcDbDictionary
280
     1
281
     1
  3
ACAD_XREC_ROUNDTRIP
360
1DF2
  0
DICTIONARY
  5
1DF3
330
411
100
AcDbDictionary
280
     1
281
     1
  3
ACAD_XREC_ROUNDTRIP
360
1DF4
  0
DICTIONARY
  5
1DF5
330
43A
100
AcDbDictionary
280
     1
281
     1
  3
ACAD_XREC_ROUNDTRIP
360
1DF6
  0
DICTIONARY
  5
1DFA
330
51C
100
AcDbDictionary
280
     1
281
     1
  3
ACAD_XREC_ROUNDTRIP
360
1DFB
  0
DICTIONARY
  5
1DFC
330
5DE
100
AcDbDictionary
280
     1
281
     1
  3
ACAD_XREC_ROUNDTRIP
360
1DFD
  0
DICTIONARY
  5
1DFE
330
682
100
AcDbDictionary
280
     1
281
     1
  3
ACAD_XREC_ROUNDTRIP
360
1DFF
  0
DICTIONARY
  5
1E00
330
71C
100
AcDbDictionary
280
     1
281
     1
  3
ACAD_XREC_ROUNDTRIP
360
1E01
  0
DICTIONARY
  5
1E02
330
7A5
100
AcDbDictionary
280
     1
281
     1
  3
ACAD_XREC_ROUNDTRIP
360
1E03
  0
DICTIONARY
  5
1E06
330
938
100
AcDbDictionary
280
     1
281
     1
  3
ACAD_XREC_ROUNDTRIP
360
1E07
  0
DICTIONARY
  5
1E08
330
9E4
100
AcDbDictionary
280
     1
281
     1
  3
ACAD_XREC_ROUNDTRIP
360
1E09
  0
DICTIONARY
  5
1E0A
330
A80
100
AcDbDictionary
280
     1
281
     1
  3
ACAD_XREC_ROUNDTRIP
360
1E0B
  0
DICTIONARY
  5
1E0C
330
B0C
100
AcDbDictionary
280
     1
281
     1
  3
ACAD_XREC_ROUNDTRIP
360
1E0D
  0
DICTIONARY
  5
1E0E
330
B84
100
AcDbDictionary
280
     1
281
     1
  3
ACAD_XREC_ROUNDTRIP
360
1E0F
  0
DICTIONARY
  5
1E04
330
884
100
AcDbDictionary
280
     1
281
     1
  3
ACAD_XREC_ROUNDTRIP
360
1E05
  0
DICTIONARY
  5
1E10
330
DCA
100
AcDbDictionary
280
     1
281
     1
  3
ACAD_XREC_ROUNDTRIP
360
1E11
  0
XRECORD
  5
1DF7
102
{ACAD_REACTORS
330
1D5A
102
}
330
1D5A
100
AcDbXrecord
280
     1
102
SHADEPLOT
 70
     0
102
SHADEPLOTRESLEVEL
 70
     2
102
SHADEPLOTCUSTOMDPI
 70
   300
  0
XRECORD
  5
1D5B
102
{ACAD_REACTORS
330
1D5A
102
}
330
1D5A
100
AcDbXrecord
280
     1
310
28000000B4000000770000000100080000000000AC530000000000000000000000010000000000000000000000000000FFFFFF000000000000000000000000000000000000000000000000000000000000000000330000006600000099000000CC000000FF00000000330000333300006633000099330000CC330000FF3300
310
0000660000336600006666000099660000CC660000FF66000000990000339900006699000099990000CC990000FF99000000CC000033CC000066CC000099CC0000CCCC0000FFCC000000FF000033FF000066FF000099FF0000CCFF0000FFFF000000003300330033006600330099003300CC003300FF003300003333003333
310
33006633330099333300CC333300FF33330000663300336633006666330099663300CC663300FF66330000993300339933006699330099993300CC993300FF99330000CC330033CC330066CC330099CC3300CCCC3300FFCC330000FF330033FF330066FF330099FF3300CCFF3300FFFF330000006600330066006600660099
310
006600CC006600FF00660000336600333366006633660099336600CC336600FF33660000666600336666006666660099666600CC666600FF66660000996600339966006699660099996600CC996600FF99660000CC660033CC660066CC660099CC6600CCCC6600FFCC660000FF660033FF660066FF660099FF6600CCFF6600
310
FFFF660000009900330099006600990099009900CC009900FF00990000339900333399006633990099339900CC339900FF33990000669900336699006666990099669900CC669900FF66990000999900339999006699990099999900CC999900FF99990000CC990033CC990066CC990099CC9900CCCC9900FFCC990000FF99
310
0033FF990066FF990099FF9900CCFF9900FFFF99000000CC003300CC006600CC009900CC00CC00CC00FF00CC000033CC003333CC006633CC009933CC00CC33CC00FF33CC000066CC003366CC006666CC009966CC00CC66CC00FF66CC000099CC003399CC006699CC009999CC00CC99CC00FF99CC0000CCCC0033CCCC0066CC
310
CC0099CCCC00CCCCCC00FFCCCC0000FFCC0033FFCC0066FFCC0099FFCC00CCFFCC00FFFFCC000000FF003300FF006600FF009900FF00CC00FF00FF00FF000033FF003333FF006633FF009933FF00CC33FF00FF33FF000066FF003366FF006666FF009966FF00CC66FF00FF66FF000099FF003399FF006699FF009999FF00CC
310
99FF00FF99FF0000CCFF0033CCFF0066CCFF0099CCFF00CCCCFF00FFCCFF0000FFFF0033FFFF0066FFFF0099FFFF00CCFFFF00FFFFFF00000000000D0D0D001A1A1A00282828003535350043434300505050005D5D5D006B6B6B00787878008686860093939300A1A1A100AEAEAE00BBBBBB00C9C9C900D6D6D600E4E4E400
310
F1F1F100FFFFFF0000000000000000000000000000000000000000000000000000000000000000000000000000000000E2E2E2E2E2E2E2E2E2E2E2E2E2E2E2E2E2E2E2E2E2E2E2E2E2E2E2E2E2E2E2E2E2E2E2E2E2E2E2E2E2E2E2E2E2E2E2E2E2E2E2E2E2E2E2E2E2E2E2E2E2E2E2E2E2E2E2E2E2E2E2E2E2E2E2E2E2E2E2
310
E2E2E2E2E2E2E2E2E2E2E2E2E2E2E2E2E2E2E2E2E2E2E2E2E2E2E2E2E2E2E2E2E2E2E2E2E2E2E2E2E2E2E2E2E2E2E2E2E2E2E2E2E2E2E2E2E2E2E2E2E2E2E2E2E2E2E2E2E2E2E2E2E2E2E2E2E2E2E2E2E2E2E2E2E2E2E2E2E2E2E2E2E2E2E2E2E2E2E2E2E2E2E2E2E2F5F5F5F5F5F5F5F5F5F5F5F5F5F5F5F5F5F5F5F5F5F5
310
F5F5F5F5F5F5F5F5F5F5F5F5F5F5F5F5F5F5F5F5F5F5F5F5F5F5F5F5F5F5F5F5F5F5F5F5F5F5F5F5F5F5F5F5F5F5F5F5F5F5F5F5F5F5F5F5F5F5F5F5F5F5F5F5F5F5F5F5F5F5F5F5F5F5F5F5F5F5F5F5F5F5F5F5F5F5F5F5F5F5F5F5F5F5F5F5F5F5F5F5F5F5F5F5F5F5F5F5F5F5F5F5F5F5F5F5F5F5F5F5F5F5F5F5F5F5F5
310
F5F5F5F5F5F5F5F5F5F5F5F5F5F5F5F5F5F5F5F5F5F5F5F5F5F5F5E2E2E2E2F5E2E2E2E2E2E2E2E2E2E2E2E2E2E2E2E2E2E2E2E2E2E2E2E2E2E2E2E2E2E2E2E2E2E2E2E2E2E2E2E2E2E2E2E2E2E2E2E2E2E2E2E2E2E2E2E2E2E2E2E2E2E2E2E2E2E2E2E2E2E2E2E2E2E2E2E2E2E2E2E2E2E2E2E2E2E2E2E2E2E2E2E2E2E2E2
310
E2E2E2E2E2E2E2E2E2E2E2E2E2E2E2E2E2E2E2E2E2E2E2E2E2E2E2E2E2E2E2E2E2E2E2E2E2E2E2E2E2E2E2E2E2E2E2E2E2E2E2E2E2E2E2E2E2E2E2E2E2E2E2E2E2E2E2E2E2E2E2E2E2E2E2E2E2E2E2E2E2E2E2E2F5E2E2E2E2E2E2E2E2E2E2E2E2E2E2E2E2E2E2E2E2E2E2E2E2E2E2E2E2E2E2E2E2E2E2E2E2E2E2E2E2E2E2
310
E2E2E2E2E2E2E2E2E2E2E2E2E2E2E2E2E2E2E2E2E2E2E2E2E2E2E2E2E2E2E2E2E2E2E2E2E2E2E2E2E2E2E2E2E2E2E2E2E2E2E2E2E2E2E2E2E2E2E2E2E2E2E2E2E2E2E2E2E2E2E2E2E2E2E2E2E2E2E2E2E2E2E2E2E2E2E2E2E2E2E2E2E2E2E2E2E2E2E2E2E2E2E2E2E2E2E2E2E2E2E2E2E2E2E2E2E2E2E2E2E2E2E2E2E2E2E2
310
E2E2E2E2E2E2E2E2E2E2F5E2E2E2E2E2E2E2E2E2E2E2E2E2E2E2E2E2E2E2E2E2E2E2E2E2E2E2E2E2E2E2E2E2E2E2E2E2E2E2E2E2E2E2E2E2E2E2E2E2E2E2E2E2E2E2E2E2E2E2E2E2E2E2E2E2E2E2E2E2E2E2E2E2E2E2E2E2E2E2E2E2E2E2E2E2E2E2E2E2E2E2E2E2E2E2E2E2E2E2E2E2E2E2E2E2E2E2E2E2E2E2E2E2E2E2E2
310
E2E2E2E2E2E2E2E2E2E2E2E2E2E2E2E2E2E2E2E2E2E2E2E2E2E2E2E2E2E2E2E2E2E2E2E2E2E2E2E2E2E2E2E2E2E2E2E2E2E2E2E2E2E2E2E2E2E2E2E2E2E2E2F5E2E2E2E2E2E2E2E2E2E2E2E2E2E2E2E2E2E2E2E2E2E2E2E2E2E2E2E2E2E2E2E2E2E2E2E2E2E2E2E2E2E2E2E2E2E2E2E2E2E2E2E2E2E2E2E2E2E2E2E2E2E2E2
310
E2E2E2E2E2E2E2E2E2E2E2E2E2E2E2E2E2E2E2E2E2E2E2E2E2E2E2E2E2E2E2E2E2E2E2E2E2E2E2E2E2E2E2E2E2E2E2E2E2E2E2E2E2E2E2E2E2E2E2E2E2E2E2E2E2E2E2E2E2E2E2E2E2E2E2E2E2E2E2E2E2E2E2E2E2E2E2E2E2E2E2E2E2E2E2E2E2E2E2E2E2E2E2E2E2E2E2E2E2E2E2E2E2E2E2E2F5E2E2E2E2E2E2E2E2E2E2
310
E2E2E2E2E2E2E2E2E2E2E2E2E2E2E2E2E2E2E2E2E2E2E2E2E2E2E2E2E2E2E2E2E2E2E2E2E2E2E2E2E2E2E2E2E2E2E2E2E2E2E2E2E2E2E2E2E2E2E2E2E2E2E2E2E2E2E2E2E2E2E2E2E2E2E2E2E2E2E2E2E2E2E2E2E2E2E2E2E2E2E2E2E2E2E2E2E2E2E2E2E2E2E2E2E2E2E2E2E2E2E2E2E2E2E2E2E2E2E2E2E2E2E2E2E2E2E2
310
E2E2E2E2E2E2E2E2E2E2E2E2E2E2E2E2E2E2E2E2E2E2E2E2E2E2E2E2E2E2E2E2E2E2E2E2E2E2E2E2E2E2F5E2E2E2E2E2E2E2E2E2E2E2E2E2E2E2E2E2E2E2E2E2E2E2E2E2E2E2E2E2E2E2E2E2E2E2E2E2E2E2E2E2E2E2E2E2E2E2E2E2E2E2E2E2E2E2E2E2E2E2E2E2E2E2E2E2E2E2E2E2E2E2E2E2E2E2E2E2E2E2E2E2E2E2E2
310
E2E2E2E2E2E2E2E2E2E2E2E2E2E2E2E2E2E2E2E2E2E2E2E2E2E2E2E2E2E2E2E2E2E2E2E2E2E2E2E2E2E2E2E2E2E2E2E2E2E2E2E2E2E2E2E2E2E2E2E2E2E2E2E2E2E2E2E2E2E2E2E2E2E2E2E2E2E2E2E2E2E2E2E2E2E2E2E2E2E2E2E2E2E2E2F5E2E2E2E2E2E2E2E2E2E2E2E2E2E2E2E2E2E2E2E2E2E2E2E2E2E2E2E2E2E2E2
310
E2E2E2E2E2E2E2E2E2E2E2E2E2E2E2E2E2E2E2E2E2E2E2E2E2E2E2E2E2E2E2E2E2E2E2E2E2E2E2E2E2E2E2E2E2E2E2E2E2E2E2E2E2E2E2E2E2E2E2E2E2E2E2E2E2E2E2E2E2E2E2E2E2E2E2E2E2E2E2E2E2E2E2E2E2E2E2E2E2E2F5F5F5F5F5F5E2E2E2E2E2E2E2E2E2E2E2E2E2E2E2E2E2E2E2E2E2E2E2E2E2E2E2E2E2E2E2
310
E2E2E2E2E2E2E2E2E2E2E2E2E2E2E2E2E2E2E2E2E2F5E2E2E2E2E2E2E2E2E2E2E2E2E2E2E2E2E2E2E2E2E2E2E2E2E2E2E2E2E2E2E2E2E2E2E2E2E2E2E2E2E2E2E2E2E2E2E2E2E2E2E2E2E2E2E2E2E2E2E2E2E2E2E2E2E2E2E2E2E2E2E2E2E2E2E2E2E2E2E2E2E2E2E2E2E2E2E2E2E2E2E2E2E2E2E2E2E2E2E2E2E2E2E2E2E2
310
E2E2E2E2E2E2E2E2E2E2E2E2E2E2E2E2F5F5F5F5F5E2E2E2E2E2E2E2E2E2E2E2E2E2E2E2E2E2E2E2E2E2E2E2E2E2E2E2E2E2E2E2E2E2E2E2E2E2E2E2E2E2E2E2E2E2E2E2E2E2E2E2E2E2F5E2E2E2E2E2E2E2E2E2E2E2E2E2E2E2E2E2E2E2E2E2E2E2E2E2E2E2E2E2E2E2E2E2E2E2E2E2E2E2E2E2E2E2E2E2E2E2E2E2E2E2E2
310
E2E2E2E2E2E2E2E2E2E2E2E2E2E2E2E2E2E2E2E2E2E2E2E2E2E2E2EFEFEFEFEFEFEFEFEFEFEFEFEFEFEFEFE2E2E2E2E2E2E2E2E2E2E2E2E2E2E2E2E2E2E2E2E2E2E2E2E2E2F5F5F5F5F5E2E2E2E2E2E2E2E2E2E2E2E2E2E2E2E2E2E2E2E2E2E2E2E2E2E2E2E2E2E2E2E2E2E2E2E2E2E2E2E2E2E2E2E2E2E2E2E2E2E2E2E2E2
310
F5E2E2E2E2E2E2E2E2E2E2E2E2E2E2E2E2E2E2E2E2E2E2E2E2E2E2E2E2E2E2E2E2E2E2E2E2E2E2E2E2E2E2E2E2E2E2E2E2E2E2E2E2E2E2E2E2E2E2E2E2E2E2E2E2E2E2E2E2E2E2EFEFEFEFEFEFEFEFEFE2E2E2E2E2E2E2E2E2E2E2E2E2E2E2E2EFEFEFEFEFEFEFEFEFE2E2E2E2E2E2E2E2E2E2E2E2E2E2E2E2E2F5F5F5F5E2
310
E2E2E2E2E2E2E2E2E2E2E2E2E2E2E2E2E2E2E2E2E2E2E2E2E2E2E2E2E2E2E2E2E2E2E2E2E2E2E2E2E2E2E2E2E2E2E2E2E2E2E2E2E2F5E2E2E2E2E2E2E2E2E2E2E2E2E2E2E2E2E2E2E2E2E2E2E2E2E2E2E2E2E2E2E2E2E2E2E2E2E2E2E2E2E2E2E2E2E2E2E2E2E2E2E2E2E2E2E2E2E2E2E2E2E2E2E2E2E2E2E2E2EFEFE2E2E2
310
E2E2E2E2E2E2E2E2E2E2E2E2E2E2E2E2E2E2E2E2E2E2E2E2E2E2E2E2E2E2E2EFEFE2E2E2E2E2E2E2E2E2E2E2E2E2E2E2F5F5F5F5E2E2E2E2E2E2E2E2E2E2E2E2E2E2E2E2E2E2E2E2E2E2E2E2E2E2E2E2E2E2E2E2E2E2E2E2E2E2E2E2E2E2E2E2E2E2E2E2E2E2E2E2E2E2F5E2E2E2E2E2E2E2E2E2E2E2E2E2E2E2E2E2E2E2E2
310
E2E2E2E2E2E2E2E2E2E2E2E2E2E2E2E2E2E2E2E2E2E2E2E2E2E2E2E2E2E2E2E2E2E2E2E2E2E2E2E2E2E2EFEFEFEFEFEFE2E2E2E2E2E2E2E2E2E2E2E2E2E2E2E2E2E2E2E2E2E2E2E2E2E2E2E2E2E2E2E2E2E2E2E2E2E2EFEFEFEFEFEFE2E2E2E2E2E2E2E2E2E2E2E2E2E2E2E2E2E2E2E2E2E2E2E2E2E2E2E2E2E2E2E2E2E2E2
310
E2E2E2E2E2E2E2E2E2E2E2E2E2E2E2E2E2E2E2E2E2E2E2E2E2E2E2E2E2E2E2E2F5E2E2E2E2E2E2E2E2E2E2E2E2E2E2E2E2E2E2E2E2E2E2E2E2E2E2E2E2E2E2E2E2E2E2E2E2E2E2E2E2E2E2E2E2E2E2E2E2E2E2E2E2E2E2E2E2E2E2E2E2EFEFE2E2E2E2E2E2E2E2E2E2E2E2E2E2E2E2E2E2E2E2E2E2E2E2E2E2E2E2E2E2E2E2
310
E2E2E2E2E2E2E2E2E2E2E2E2E2E2E2E2E2E2EFEFEFE2E2E2E2E2E2E2E2E2E2E2E2E2E2E2E2E2E2E2E2E2E2E2E2E2E2E2E2E2E2E2E2E2E2E2E2E2E2E2E2E2E2E2E2E2E2E2E2E2E2E2E2E2E2E2E2E2E2E2E2E2E2E2E2F5E2E2E2E2E2E2E2E2E2E2E2E2E2E2E2E2E2E2E2E2E2E2E2E2E2E2E2E2E2E2E2E2E2E2E2E2E2E2E2E2E2
310
E2E2E2E2E2E2E2E2E2E2E2E2E2E2E2E2EFEFEFE2E2E2E2E2E2E2E2E2E2E2E2E2E2E2E2E2E2E2E2E2E2E2E2E2E2E2E2E2E2E2E2E2E2E2E2E2E2E2E2E2E2E2E2E2E2E2E2E2E2E2E2E2E2E2EFEFE2E2E2E2E2E2E2E2E2E2E2E2E2E2E2E2E2E2E2E2E2E2E2E2E2E2E2E2E2E2E2E2E2E2E2E2E2E2E2E2E2E2E2E2E2E2E2E2E2E2E2
310
E2E2E2E2E2E2E2E2E2E2E2F5E2E2E2E2E2E2E2E2E2E2E2E2E2E2E2E2E2E2E2E2E2E2E2E2E2E2E2E2E2E2E2E2E2E2E2E2E2E2E2E2E2E2E2E2E2E2E2E2E2E2E2E2E2E2E2EFEFE2E2E2E2E2E2E2E2E2E2E2E2E2E2E2E2E2E2E2E2E2E2E2E2E2E2E2E2E2E2E2E2E2E2E2E2E2E2E2E2E2E2E2E2E2E2E2E2E2E2E2E2E2E2E2E2E2E2
310
E2E2EFEFE2E2E2E2E2E2E2E2E2E2E2E2E2E2E2E2E2E2E2E2E2E2E2E2E2E2E2E2E2E2E2E2E2E2E2E2E2E2E2E2E2E2E2E2E2E2E2E2E2E2E2E2E2E2E2E2E2E2E2E2F5E2E2E2E2E2E2E2E2E2E2E2E2E2E2E2E2E2E2E2E2E2E2E2E2E2E2E2E2E2E2E2E2E2E2E2E2E2E2E2E2E2E2E2E2E2E2C3E2E2E2E2E2E2EFEFE2E2E2E2E2E2E2
310
E2E2E2E2E2E2E2E2E2E2E2E2E2E2E2E2E2E2E2C3C3C3C3C3C3C3C3C3C3C3C3C3E2E2E2E2E2E2E2E2E2E2E2E2E2E2E2E2E2E2E2E2E2E2E2E2E2EFEFE2E2E2E2E2E2C3E2E2E2E2E2E2E2E2E2E2E2E2E2E2E2E2E2E2E2E2E2E2E2E2E2E2E2E2E2E2E2E2E2E2E2E2E2E2E2E2E2E2E2E2E2E2E2E2E2E2E2F5E2E2E2E2E2E2E2E2E2
310
E2E2E2E2E2E2E2E2E2E2E2E2E2E2E2E2E2E2E2E2E2E2E2E2E2E2E2E2E2E2E2E2E2E2E2E2E2C3C3E2E2E2EFEFE2E2E2E2E2E2E2E2E2E2E2E2E2E2E2E2E2E2E2E2C3C3C3C3C3C3C3C3E2E2E2E2E2E2E2E2E2E2E2E2E2C3C3C3C3C3C3C3C3E2E2E2E2E2E2E2E2E2E2E2E2E2E2E2E2E2E2E2EFEFE2E2E2C3C3C3E2E2E2E2E2E2E2
310
E2E2E2E2E2E2E2E2E2E2E2E2E2E2E2E2E2E2E2E2E2E2E2E2E2E2E2E2E2E2E2E2E2E2E2E2E2E2E2E2E2E2E2F5E2E2E2E2E2E2E2E2E2E2E2E2E2E2E2E2E2E2E2E2E2E2E2E2E2E2E2E2E2E2E2E2E2E2E2E2E2E2E2E2E2E2E2E2E2E2C3C3E2EFEFE2E2E2E2E2E2E2E2E2E2E2E2E2E2E2E2E2E2E2C3C3C3E2E2E2E2E2E2E2E2E2E2
310
E2E2E2E2E2E2E2E2E2E2E2E2E2E2E2E2E2E2E2C3C3E2E2E2E2E2E2E2E2E2E2E2E2E2E2E2E2E2E2E2EFEFE2E2C3E2E2E2E2E2E2E2E2E2E2E2E2E2E2E2E2E2E2E2E2E2E2E2E2E2E2E2E2E2E2E2E2E2E2E2E2E2E2E2E2E2E2E2E2E2E2E2E2E2E2E2F5E2E2E2E2E2E2E2E2E2E2E2E2E2E2E2E2E2E2E2E2E2E2E2E2E2E2E2E2E2E2
310
E2E2E2E2E2E2E2E2E2E2E2E2E2E2E2E2E2E2EFE2E2E2E2E2E2E2E2E2E2E2E2E2E2E2E2C3C3C3C3C3E2E2E2E2E2E2E2E2E2E2E2E2E2E2E2E2E2E2E2E2E2E2E2E2E2E2E2E2E2E2E2E2E2E2C3C3C3C3C3E2E2E2E2E2E2E2E2E2E2E2E2E2E2E2E2EFEFE2E2E2E2E2E2E2E2E2E2E2E2E2E2E2E2E2E2E2E2E2E2E2E2E2E2E2E2E2E2
310
E2E2E2E2E2E2E2E2E2E2E2E2E2E2E2E2E2E2E2E2E2E2F5E2E2E2E2E2E2E2E2E2E2E2E2E2E2E2E2E2E2E2E2E2E2E2E2E2E2E2E2E2E2E2E2E2E2E2E2E2E2E2E2E2E2E2E2E2E2EFEFE2E2E2E2E2E2E2E2E2E2E2E2E2E2C3C3C3E2E2E2E2E2E2E2E2E2E2E2E2E2E2E2E2E2E2E2E2E2E2E2E2E2E2E2E2E2E2E2E2E2E2E2E2E2E2E2
310
E2E2E2E2E2C3C3C3E2E2E2E2E2E2E2E2E2E2E2E2E2E2E2EFE2E2E2E2E2E2E2E2E2E2E2E2E2E2E2E2E2E2E2E2E2E2E2E2E2E2E2E2E2E2E2E2E2E2E2E2E2E2E2E2E2E2E2E2E2E2E2E2E2E2E2F5E2E2E2E2E2E2E2E2E2E2E2E2E2E2E2E2E2E2E2E2E2E2E2E2E2E2E2E2E2E2E2E2E2E2E2E2E2E2E2E2E2E2E2E2E2EFE2E2E2E2E2
310
E2E2E2E2E2E2E2E2E2C3C3E2E2E2E2E2E2E2E2E2E2E2E2E2E2E2E2E2E2E2E2E2E2E2E2E2E2E2E2E2E2E2E2E2E2E2E2E2E2E2E2E2E2E2E2E2E2E2E2E2E2C3C3E2E2E2E2E2E2E2E2E2E2E2E2E2E2EFE2E2E2E2E2E2E2E2E2E2E2E2E2E2E2E2E2E2E2E2E2E2E2E2E2E2E2E2E2E2E2E2E2E2E2E2E2E2E2E2E2E2E2E2E2E2E2E2E2
310
E2F5E2E2E2E2E2E2E2E2E2E2E2E2E2E2E2E2E2E2E2E2E2E2E2E2E2E2E2E2E2E2E2E2E2E2E2E2E2E2E2E2E2E2E2E2EFE2E2E2E2E2E2E2E2E2E2E2E2E2C3C3E2E2E2E2E2E2E2E2E2E2E2E2E2E2E2E2E2E2E2E2E2E2E2E2E2E2E2E2E2E2E2E2E2E2E2E2E2E2E2E2E2E2E2E2E2E2E2E2E2E2E2E2E2E2C3F5E2E2E2E2E2E2E2E2E2
310
E2E2E2E2EFE2E2E2E2E2E2E2E2E2E2E2E2E2E2E2E2E2E2E2E2E2E2E2E2E2E2E2E2E2E2E2E2E2E2E2E2E2E2E2E2E2E2E2E2E2E2E2E2E2F5E2E2E2E2E2E2E2E2E2E2E2E2E2E2E2E2E2E2E2E2E2E2E2E2E2E2E2E2E2E2E2E2E2E2E2E2E2E2E2E2E2E2E2EFE2E2E2E2E2E2E2E2E2E2E2E2C3C3E2E2E2E2E2E2E2E2E2E2E2E2E2E2
310
E2E2E2E2E2E2E2E2E2E2E2E2E2E2E2E2E2E2E2E2E2E2E2E2E2E2E2E2E2E2E2E2E2E2E2E2E2E2E2E2E2E2E2F5C3C3E2E2E2E2E2E2E2E2E2E2E2E2EFEFE2E2E2E2E2E2E2E2E2E2E2E2E2E2E2E2E2E2E2E2E2E2E2E2E2E2E2E2E2E2E2E2E2E2E2E2E2E2E2E2E2E2E2E2E2E2E2F5E2E2E2E2E2E2E2E2E2E2E2E2E2E2E2E2E2E2E2
310
E2E2E2E2E2E2E2E2E2E2E2E2E2E2E2E2E2E2E2E2E2E2EFEFE2E2E2E2E2E2E2E2E2E2E2C3C3E2E2E2E2E2E2E2E2E2E2E2E2E2E2E2E2E2E2E2E2E2E2E2E2E2E2E2E2E2E2E2E2E2E2E2E2E2E2E2E2E2E2E2E2E2E2E2E2E2E2E2E2E2E2E2E2E2E2F5E2E2E2C3C3E2E2E2E2E2E2E2E2E2E2E2E2EFE2E2E2E2E2E2E2E2E2E2E2E2E2
310
E2E2E2E2E2E2E2E2E2E2E2E2E2E2E2E2E2E2E2E2E2E2E2E2E2E2E2E2E2E2E2E2E2F5E2E2E2E2E2E2E2E2E2E2E2E2E2E2E2E2E2E2E2E2E2E2E2E2E2E2E2E2E2E2E2E2E2E2E2E2E2E2E2E2E2EFE2E2E2E2E2E2E2E2E2E2E2C3E2E2E2E2E2E2E2E2E2E2E2E2E2E2E2E2E2E2E2E2E2E2E2E2E2E2E2E2E2E2E2E2E2E2E2E2E2E2E2
310
E2E2E2E2E2E2E2E2E2E2E2E2E2E2E2E2E2E2E2E2F5E2E2E2E2E2E2C3E2E2E2E2E2E2E2E2E2E2E2E2EFE2E2E2E2E2E2E2E2E2E2E2E2E2E2E2E2E2E2E2E2E2E2E2E2E2E2E2E2E2E2E2E2E2E2E2E2E2E2E2E2E2E2E2E2E2F5E2E2E2E2E2E2E2E2E2E2E2E2E2E2E2E2E2E2E2E2E2E2E2E2E2E2E2E2E2E2E2E2E2E2E2E2E2E2E2E2
310
EFE2E2E2E2E2E2E2E2E2E2C3C3E2E2E2E2E2E2E2E2E2E2E2E2E2E2E2E2E2E2E2E2E2E2E2E2E2E2E2E2E2E2E2E2E2E2E2E2E2E2E2E2E2E2E2E2E2E2E2E2E2E2E2E2E2E2E2E2E2E2E2F5E2E2E2E2E2E2E2E2C3C3E2E2E2E2E2E2E2E2E2E2E2EFE2E2E2E2E2E2E2E2E2E2E2E2E2E2E2E2E2E2E2E2E2E2E2E2E2E2E2E2E2E2E2E2
310
E2E2E2E2E2E2E2E2E2E2E2E2F5E2E2E2E2E2E2E2E2E2E2E2E2E2E2E2E2E2E2E2E2E2E2E2E2E2E2E2E2E2E2E2E2E2E2E2E2E2E2EFEFE2E2E2E2E2E2E2E2E2E2C3E2E2E2E2E2E2E2E2E2E2E2E2E2E2E2E2E2E2E2E2E2E2E2E2E2E2E2E2E2E2E2E2E2E2E2E2E2E2E2E2E2E2E2E2E2E2E2E2E2E2E2E2E2E2E2E2E2E2E2E2E2F5E2
310
E2E2E2E2E2E2E2E2E2C3C3E2E2E2E2E2E2E2E2E2E2EFE2E2E2E2E2E2E2E2E2E2E2E2E2E2E2E2E2E2E2E2E2E2E2E2E2E2E2E2E2E2E2E2E2E2E2E2E2E2E2E2E2E2E2F5E2E2E2E2E2E2E2E2E2E2E2E2E2E2E2E2E2E2E2E2E2E2E2E2E2E2E2E2E2E2E2E2E2E2E2E2E2E2EFE2E2E2E2E2E2E2E2E2C3C3E2E2E2E2E2E2E2E2E2E2E2
310
E2E2E2E2E2E2E2E2E2E2E2E2E2E2E2E2E2E2E2E2E2E2E2E2E2E2E2E2E2E2E2E2E2E2E2E2E2E2E2E2E2E2E2E2E2E2E2E2E2E2F5E2E2E2E2E2E2E2E2E2E2E2E2E2C3E2E2E2E2E2E2E2E2E2E2EFE2E2E2E2E2E2E2E2E2E2E2E2E2E2E2E2E2E2E2E2E2E2E2E2E2E2E2E2E2E2E2E2E2E2E2E2E2E2E2E2E2E2F5E2E2E2E2E2E2E2E2
310
E2E2E2E2E2E2E2E2E2E2E2E2E2E2E2E2E2E2E2E2E2E2E2E2E2E2E2E2E2EFE2E2E2E2E2E2E2E2C3C3E2E2E2E2E2E2E2E2E2E2E2E2E2E2E2E2E2E2E2E2E2E2E2E2E2E2E2E2E2E2E2E2E2E2E2E2E2E2E2E2E2E2E2E2E2E2E2E2E2E2E2E2E2E2E2E2E2E2E2E2E2E2F5E2E2E2E2E2E2E2E2E2E2E2E2E2E2E2C3C3E2E2E2E2E2E2E2
310
E2E2EFE2E2E2E2E2E2E2E2E2E2E2E2E2E2E2E2E2E2E2E2E2E2E2E2E2E2E2E2E2E2E2E2E2E2E2E2E2E2E2E2E2F5E2E2E2E2E2E2E2E2E2E2E2E2E2E2E2E2E2E2E2E2E2E2E2E2E2E2E2E2E2E2E2E2E2E2E2EFEFE2E2E2E2E2E2E2E2C3E2E2E2E2E2E2E2E2E2E2E2E2E2E2E2E2E2E2E2E2E2E2E2E2E2E2E2E2E2E2E2E2E2E2E2E2
310
E2E2E2E2E2E2E2E2E2E2E2E2E2E2E2E2E2E2E2E2E2E2E2E2E2E2E2F5E2E2E2E2E2E2E2E2E2E2E2E2E2E2E2E2E2E2C3E2E2E2E2E2E2E2E2E2EFE2E2E2E2E2E2E2E2E2E2E2E2E2E2E2E2E2E2E2E2E2E2E2E2E2E2E2E2E2E2E2E2E2E2E2E2E2E2E2E2F5E2E2E2E2E2E2E2E2E2E2E2E2E2E2E2E2E2E2E2E2E2E2E2E2E2E2E2E2E2
310
E2E2E2E2E2E2EFE2E2E2E2E2E2E2E2E2C3E2E2E2E2E2E2E2E2E2E2E2E2E2E2E2E2E2E2E2E2E2E2E2E2E2E2E2E2E2E2E2E2E2E2E2E2E2E2E2E2E2E2E2E2E2E2E2E2E2E2E2E2E2E2E2E2E2E2E2E2E2E2F5E2E2E2E2E2E2E2E2E2E2E2E2E2E2E2E2E2E2E2E2C3E2E2E2E2E2E2E2E2E2EFE2E2E2E2E2E2E2E2E2E2E2E2E2E2E2E2
310
E2E2E2E2E2E2E2E2E2E2E2E2E2E2E2E2E2E2E2E2E2E2E2F5E2E2E2E2E2E2E2E2E2E2E2E2E2E2E2E2E2E2E2E2E2E2E2E2E2E2E2E2E2E2E2E2E2E2EFE2E2E2E2E2E2E2E2E2C3E2E2E2E2E2E2E2E2E2E2E2E2E2E2E2E2E2E2E2E2E2E2E2E2E2E2E2E2E2E2E2E2E2E2E2E2E2E2E2E2E2E2E2E2E2E2E2E2E2E2E2E2E2E2E2E2E2E2
310
E2E2E2E2F5E2E2E2E2E2E2E2E2E2E2E2E2E2E2E2E2E2E2E2E2E2E2C3E2E2E2E2E2E2E2E2EFE2E2E2E2E2E2E2E2E2E2E2E2E2E2E2E2E2E2E2E2E2E2E2E2E2E2E2E2E2E2E2E2E2E2E2E2E2E2E2F5E2E2E2E2E2E2E2E2E2E2E2E2E2E2E2E2E2E2E2E2E2E2E2E2E2E2E2E2E2E2E2E2E2EFE2E2E2E2E2E2E2E2C3C3E2E2E2E2E2E2
310
E2E2E2E2E2E2E2E2E2E2E2E2E2E2E2E2E2E2E2E2E2E2E2E2E2E2E2E2E2E2E2E2E2E2E2E2E2E2E2E2E2E2E2E2E2E2E2E2E2E2E2E2E2E2E2E2E2F5E2E2E2E2E2E2E2E2E2E2E2E2E2E2E2E2E2E2E2E2E2E2E2C3E2E2E2E2E2E2E2E2EFE2E2E2E2E2E2E2E2E2E2E2E2E2E2E2E2E2E2E2E2E2E2E2E2E2E2E2E2E2E2E2E2E2E2E2E2
310
E2E2F5E2E2E2E2E2E2E2E2E2E2E2E2E2E2E2E2E2E2E2E2E2E2E2E2E2E2E2E2E2E2E2E2E2EFE2E2E2E2E2E2E2E2C3E2E2E2E2E2E2E2E2E2E2E2E2E2E2E2E2E2E2E2E2E2E2E2E2E2E2E2E2E2E2E2E2E2E2E2E2E2E2E2E2E2E2E2E2E2E2E2E2E2E2E2E2E2E2E2E2E2E2E2E2E2E2E2F5E2E2E2E2E2E2E2E2E2E2E2E2E2E2E2E2E2
310
E2E2E2E2E2E2E2E2C3E2E2E2E2E2E2E2E2EFE2E2E2E2E2E2E2E2E2E2E2E2E2E2E2E2E2E2E2E2E2E2E2E2E2E2E2E2E2E2E2E2E2E2E2E2E2F5E2E2E2E2E2E2E2E2E2E2E2E2E2E2E2E2E2E2E2E2E2E2E2E2E2E2E2E2E2E2E2E2EFE2E2E2E2E2E2E2E2C3E2E2E2E2E2E2E2E2E2E2E2E2E2E2E2E2E2E2E2E2E2E2E2E2E2E2E2E2E2
310
E2E2E2F5F5F5F5F5F5F5F5F5F5F5F5F5F5F5F5F5F5F5F5F5F5F5F5F5E2E2E2E2E2E2F5E2E2E2E2E2E2E2E2E2E2E2E2E2E2E2E2E2E2E2E2E2E2E2E2E2E2C3E2E2E2E2E2E2E2E2EFE2E2E2E2E2E2E2E2E2E2E2E2E2E2E2E2E2E2E2E2E2E2E2E2E2E2E2E2E2E2E2E2E2E2E2E2E2F5E2E2E2E2E2E2E2E2E2E2E2E2E2E2E2E2E2E2
310
E2E2E2E2E2E2E2E2E2E2E2E2E2EFE2E2E2E2E2E2E2E2C3E2E2E2E2E2E2E2E2E2E2E2E2E2E2E2E2E2E2E2E2E2E2E2E2E2E2E2E2E2E2E2E2E2E2F5F5F5F5F5F5F5F5F5F5F5F5F5F5F5F5F5F5F5F5F5F5F5F5E2F5F5F5F5F5E2E2E2E2E2E2E2E2E2E2E2E2E2E2E2E2E2E2E2E2E2E2E2E2E2E2E2E2C3E2E2E2E2E2E2E2E2EFE2E2
310
E2E2E2E2E2E2E2E2E2E2E2E2E2E2E2E2E2E2E2E2E2E2E2E2E2E2E2E2E2E2E2E2E2E2F5E2E2E2E2E2E2E2E2E2E2E2E2E2E2E2E2E2E2E2E2E2E2E2E2E2E2E2E2E2E2E2EFE2E2E2E2E2E2E2C3E2E2E2E2E2E2E2E2E2E2E2E2E2E2E2E2E2E2E2E2E2E2E2E2E2E2E2E2E2E2E2E2E2E2E2F5F5F5F5F5F5F5F5F5F5F5F5F5F5F5F5F5
310
F5F5F5F5F5F5F5E2E2E2E2E2E2E2E2E2E2E2E2E2E2E2E2E2E2E2E2E2E2E2E2E2E2E2E2E2E2E2E2E2E2E2C3E2E2E2E2E2E2E2EFE2E2E2E2E2E2E2E2E2E2E2E2E2E2E2E2E2E2E2E2E2E2E2E2E2E2E2E2E2E2E2E2E2E2E2E2F5E2E2E2E2E2E2E2E2E2E2E2E2E2E2E2E2E2E2E2E2E2E2E2E2E2E2E2E2E2E2E2EFE2E2E2E2E2E2E2
310
C3E2E2E2E2E2E2E2E2E2E2E2E2E2E2E2E2E2E2E2E2E2E2E2E2E2E2E2E2E2E2E2E2E2E2E2E2E2E2E2E2E2E2E2E2E2F5F5F5F5F5F5F5F5F5F5F5F5F5F5E2E2E2E2E2E2E2E2E2E2E2E2E2E2E2E2E2E2E2E2E2E2E2E2E2E2E2E2E2E2E2E2E2E2E2E2C3E2E2E2E2E2E2EFE2E2E2E2E2E2E2E2E2E2E2E2E2E2E2E2E2E2E2E2E2E2E2
310
E2E2E2E2E2E2E2E2E2E2E2E2E2F5E2E2E2E2E2E2E2E2E2E2E2E2E2E2E2E2E2E2E2E2E2E2E2E2E2E2E2E2E2E2EFE2E2E2E2E2E2E2C3E2E2E2E2E2E2E2E2E2E2E2E2E2E2E2E2E2E2E2E2E2E2E2E2E2E2E2E2E2E2E2E2E2E2E2E2E2E2E2E2E2E2E2E2E2E2E2E2E2E2E2E2E2E2E2E2E2E2E2E2E2E2E2E2E2E2E2E2E2E2E2E2E2E2
310
E2E2E2E2E2E2E2E2E2E2E2E2E2E2E2E2E2E2E2E2E2E2C3E2E2E2E2E2E2E2EFE2E2E2E2E2E2E2E2E2E2E2E2E2E2E2E2E2E2E2E2E2E2E2E2E2E2E2E2E2E2E2E2E2E2E2F5E2E2E2E2E2E2E2E2E2E2E2E2E2E2E2E2E2E2E2E2E2E2E2E2E2E2E2E2E2E2EFE2E2E2E2E2E2E2C3E2E2E2E2E2E2E2E2E2E2E2E2E2E2E2E2E2E2E2E2E2
310
E2E2E2E2E2E2E2E2E2E2E2E2E2E2E2E2E2E2E2E2E2E2E2E2E2E2E2E2E2E2E2E2E2E2E2E2E2E2E2E2E2E2E2E2E2E2E2E2E2E2E2E2E2E2E2E2E2E2E2E2E2E2E2E2E2E2E2E2E2E2E2E2E2E2E2E2C3E2E2E2E2E2E2E2EFE2E2E2E2E2E2E2E2E2E2E2E2E2E2E2E2E2E2E2E2E2E2E2E2E2E2E2E2E2E2E2E2E2E2F5E2E2E2E2E2E2E2
310
E2E2E2E2E2E2E2E2E2E2E2E2E2E2E2E2E2E2E2E2E2E2E2EFE2E2E2E2E2E2C3E2E2E2E2E2E2E2E2E2E2E2E2E2E2E2E2E2E2E2E2E2E2E2E2E2E2E2E2E2E2E2E2E2E2E2E2E2E2E2E2E2E2E2E2E2E2E2E2E2E2E2E2E2E2E2E2E2E2E2E2E2E2E2E2E2E2E2E2E2E2E2E2E2E2E2E2E2E2E2E2E2E2E2E2E2E2E2E2E2E2E2E2E2E2E2E2
310
E2E2C3E2E2E2E2E2E2E2EFE2E2E2E2E2E2E2E2E2E2E2E2E2E2E2E2E2E2E2E2E2E2E2E2E2E2E2E2E2E2E2E2E2E2F5E2E2E2E2E2E2E2E2E2E2E2E2E2E2E2E2E2E2E2E2E2E2E2E2E2E2E2E2E2EFE2E2E2E2E2E2E2C3E2E2E2E2E2E2E2E2E2E2E2E2E2E2E2E2E2E2E2E2E2E2E2E2E2E2E2E2E2E2E2E2E2E2E2E2E2E2E2E2E2E2E2
310
E2E2E2E2E2E2E2E2E2E2E2E2E2E2E2E2E2E2E2E2E2E2E2E2E2E2E2E2E2E2E2E2E2E2E2E2E2E2E2E2E2E2E2E2E2E2E2E2E2E2E2E2E2E2E2E2C3E2E2E2E2E2E2EFE2E2E2E2E2E2E2E2E2E2E2E2E2E2E2E2E2E2E2E2E2E2E2E2E2E2E2E2E2E2E2E2E2E2F5E2E2E2E2E2E2E2E2E2E2E2E2E2E2E2E2E2E2E2E2E2E2E2E2E2E2E2E2
310
E2EFE2E2E2E2E2E2E2C3E2E2E2E2E2E2E2E2E2E2E2E2E2E2E2E2E2E2E2E2E2E2E2E2E2E2E2E2E2E2E2E2E2E2E2E2E2E2E2E2E2E2E2E2E2E2E2E2E2E2E2E2E2E2E2E2E2E2E2E2E2E2E2E2E2E2E2E2E2E2E2E2E2E2E2E2E2E2E2E2E2E2E2E2E2E2E2E2E2E2E2E2E2E2E2E2E2E2E2C3E2E2E2E2E2E2EFE2E2E2E2E2E2E2E2E2E2
310
E2E2E2E2E2E2E2E2E2E2E2E2E2E2E2E2E2E2E2E2E2E2E2E2F5E2E2E2E2E2E2E2E2E2E2E2E2E2E2E2E2E2E2E2E2E2E2E2E2E2E2E2E2E2EFE2E2E2E2E2E2C3E2E2E2E2E2E2E2E2E2E2E2E2E2E2E2E2E2E2E2E2E2E2E2E2E2E2E2E2E2E2E2E2E2E2E2E2E2E2E2E2E2E2E2E2E2E2E2E2E2E2E2E2E2E2E2E2E2E2E2E2E2E2E2E2E2
310
E2E2E2E2E2E2E2E2E2E2E2E2E2E2E2E2E2E2E2E2E2E2E2E2E2E2E2E2E2E2E2E2E2E2E2C3E2E2E2E2E2E2EFE2E2E2E2E2E2E2E2E2E2E2E2E2E2E2E2E2E2E2E2E2E2E2E2E2E2E2E2E2E2E2E2E2E2F5E2E2E2E2E2E2E2E2E2E2E2E2E2E2E2E2E2E2E2E2E2E2E2E2E2E2E2E2E2EFE2E2E2E2E2E2C3E2E2E2E2E2E2E2E2E2E2E2E2
310
E2E2E2E2E2E2E2E2E2E2E2E2E2E2E2E2E2E2E2E2E2E2E2E2E2E2E2E2E2E2E2E2E2E2E2E2E2E2E2E2E2E2E2E2E2E2E2E2E2E2E2E2E2E2E2E2E2E2E2E2E2E2E2E2E2E2E2E2E2E2E2E2E2E2E2E2E2E2E2E2E2E2E2E2E2E2E2E2C3E2E2E2E2E2E2E2EFE2E2E2E2E2E2E2E2E2E2E2E2E2E2E2E2E2E2E2E2E2E2E2E2E2E2E2E2E2E2
310
E2E2E2F5E2E2E2E2E2E2E2E2E2E2E2E2E2E2E2E2E2E2E2E2E2E2E2E2E2E2E2E2EFE2E2E2E2E2E2E2C3E2E2E2E2E2E2E2E2E2E2E2E2E2E2E2E2E2E2E2E2E2E2E2E2E2E2E2E2E2E2E2E2E2E2E2E2E2E2E2E2E2E2E2E2E2E2E2E2E2E2E2E2E2E2E2E2E2E2E2E2E2E2E2E2E2E2E2E2E2E2E2E2E2E2E2E2E2E2E2E2E2E2E2E2E2E2
310
E2E2E2E2E2E2E2E2E2E2E2E2E2E2E2C3E2E2E2E2E2E2EFE2E2E2E2E2E2E2E2E2E2E2E2E2E2E2E2E2E2E2E2E2E2E2E2E2E2E2E2E2E2E2E2E2F5E2E2E2E2E2E2E2E2E2E2E2E2E2E2E2E2E2E2E2E2E2E2E2E2E2E2E2E2EFE2E2E2E2E2E2E2C3E2E2E2E2E2E2E2E2E2E2E2E2E2E2E2E2E2E2E2E2E2E2E2E2E2E2E2E2E2E2E2E2E2
310
E2E2E2E2E2E2E2E2E2E2E2E2E2E2E2E2E2E2E2E2E2E2E2E2E2E2E2E2E2E2E2E2E2E2E2E2E2E2E2E2E2E2E2E2E2E2E2E2E2E2E2E2E2E2E2E2E2E2E2E2E2E2E2E2E2E2E2E2C3E2E2E2E2E2E2EFE2E2E2E2E2E2E2E2E2E2E2E2E2E2E2E2E2E2E2E2E2E2E2E2E2E2E2E2E2E2E2E2E2F5E2E2E2E2E2E2E2E2E2E2E2E2E2E2E2E2E2
310
E2E2E2E2E2E2E2E2E2E2E2EFE2E2E2E2E2E2E2C3E2E2E2E2E2E2E2E2E2E2E2E2E2E2E2E2E2E2E2E2E2E2E2E2E2E2E2E2E2E2E2E2E2E2E2E2E2E2E2E2E2E2E2E2E2E2E2E2E2E2E2E2E2E2E2E2E2E2E2E2E2E2E2E2E2E2E2E2E2E2E2E2E2E2E2E2E2E2E2E2E2E2E2E2E2E2E2E2E2E2E2E2E2E2E2E2E2E2E2E2E2C3E2E2E2E2E2
310
E2EFE2E2E2E2E2E2E2E2E2E2E2E2E2E2E2E2E2E2E2E2E2E2E2E2E2E2E2E2E2E2E2E2E2F5E2E2E2E2E2E2E2E2E2E2E2E2E2E2E2E2E2E2E2E2E2E2E2E2E2E2E2E2EFE2E2E2E2E2E2E2C3E2E2E2E2E2E2E2E2E2E2E2E2E2E2E2E2E2E2E2E2E2E2E2E2E2E2E2E2E2E2E2E2E2E2E2E2E2E2E2E2E2E2E2E2E2E2E2E2E2E2E2E2E2E2
310
E2E2E2E2E2E2E2E2E2E2E2E2E2E2E2E2E2E2E2E2E2E2E2E2E2E2E2E2E2E2E2E2E2E2E2E2E2E2E2E2E2E2E2E2E2E2E2C3E2E2E2E2E2E2EFE2E2E2E2E2E2E2E2E2E2E2E2E2E2E2E2E2E2E2E2E2E2E2E2E2E2E2E2E2E2E2E2E2F5E2E2E2E2E2E2E2E2E2E2E2E2E2E2E2E2E2E2E2E2E2E2E2E2E2E2E2E2EFE2E2E2E2E2E2C3E2E2
310
E2E2E2E2E2E2E2E2E2E2E2E2E2E2E2E2E2E2E2E2E2E2E2E2E2E2E2E2E2E2E2E2E2E2E2E2E2E2E2E2E2E2E2E2E2E2E2E2E2E2E2E2E2E2E2E2E2E2E2E2E2E2E2E2E2E2E2E2E2E2E2E2E2E2E2E2E2E2E2E2E2E2E2E2E2E2E2E2E2E2E2E2E2E2E2E2E2E2E2E2C3E2E2E2E2E2E2EFE2E2E2E2E2E2E2E2E2E2E2E2E2E2E2E2E2E2E2
310
E2E2E2E2E2E2E2E2E2E2E2E2E2E2F5E2E2E2E2E2E2E2E2E2E2E2E2E2E2E2E2E2E2E2E2E2E2E2E2E2E2E2E2EFE2E2E2E2E2E2E2C3E2E2E2E2E2E2E2E2E2E2E2E2E2E2E2E2E2E2E2E2E2E2E2E2E2E2E2E2E2E2E2E2E2E2E2E2E2E2E2E2E2E2E2E2E2E2E2E2E2E2E2E2E2E2E2E2E2E2E2E2E2E2E2E2E2E2E2E2E2E2E2E2E2E2E2
310
E2E2E2E2E2E2E2E2E2E2E2E2E2E2E2E2E2E2E2E2E2E2E2E2E2E2C3E2E2E2E2E2E2EFE2E2E2E2E2E2E2E2E2E2E2E2E2E2E2E2E2E2E2E2E2E2E2E2E2E2E2E2E2E2E2E2E2F5E2E2E2E2E2E2E2E2E2E2E2E2E2E2E2E2E2E2E2E2E2E2E2E2E2E2E2E2EFE2E2E2E2E2E2E2C3E2E2E2E2E2E2E2E2E2E2E2E2E2E2E2E2E2E2E2E2E2E2
310
E2E2E2E2E2E2E2E2E2E2E2E2E2E2E2E2E2E2E2E2E2E2E2E2E2E2E2E2E2E2E2E2E2E2E2E2E2E2E2E2E2E2E2E2E2E2E2E2E2E2E2E2E2E2E2E2E2E2E2E2E2E2E2E2E2E2E2E2E2E2E2E2E2E2E2E2E2E2E2C3E2E2E2E2E2E2EFE2E2E2E2E2E2E2E2E2E2E2E2E2E2E2E2E2E2E2E2E2E2E2E2E2E2E2E2E2E2E2E2E2F5E2E2E2E2E2E2
310
E2E2E2E2E2E2E2E2E2E2E2E2E2E2E2E2E2E2E2E2E2E2EFE2E2E2E2E2E2E2C3E2E2E2E2E2E2E2E2E2E2E2E2E2E2E2E2E2E2E2E2E2E2E2E2E2E2E2E2E2E2E2E2E2E2E2E2E2E2E2E2E2E2E2E2E2E2E2E2E2E2E2E2E2E2E2E2E2E2E2E2E2E2E2E2E2E2E2E2E2E2E2E2E2E2E2E2E2E2E2E2E2E2E2E2E2E2E2E2E2E2E2E2E2E2E2E2
310
E2E2E2E2E2C3E2E2E2E2E2E2EFE2E2E2E2E2E2E2E2E2E2E2E2E2E2E2E2E2E2E2E2E2E2E2E2E2E2E2E2E2E2E2E2E2F5E2E2E2E2E2E2E2E2E2E2E2E2E2E2E2E2E2E2E2E2E2E2E2E2E2E2E2E2EFE2E2E2E2E2E2E2C3E2E2E2E2E2E2E2E2E2E2E2E2E2E2E2E2E2E2E2E2E2E2E2E2E2E2E2E2E2E2E2E2E2E2E2E2E2E2E2E2E2E2E2
310
E2E2E2E2E2E2E2E2E2E2E2E2E2E2E2E2E2E2E2E2E2E2E2E2E2E2E2E2E2E2E2E2E2E2E2E2E2E2E2E2E2E2E2E2E2E2E2E2E2E2E2E2E2E2E2E2E2C3E2E2E2E2E2E2E2EFE2E2E2E2E2E2E2E2E2E2E2E2E2E2E2E2E2E2E2E2E2E2E2E2E2E2E2E2E2E2E2E2E2F5E2E2E2E2E2E2E2E2E2E2E2E2E2E2E2E2E2E2E2E2E2E2E2E2E2E2E2
310
E2EFEFE2E2E2E2E2E2C3E2E2E2E2E2E2E2E2E2E2E2E2E2E2E2E2E2E2E2E2E2E2E2E2E2E2E2E2E2E2E2E2E2E2E2E2E2E2E2E2E2E2E2E2E2E2E2E2E2E2E2E2E2E2E2E2E2E2E2E2E2E2E2E2E2E2E2E2E2E2E2E2E2E2E2E2E2E2E2E2E2E2E2E2E2E2E2E2E2E2E2E2E2E2E2E2E2E2E2E2C3E2E2E2E2E2E2EFEFE2E2E2E2E2E2E2E2
310
E2E2E2E2E2E2E2E2E2E2E2E2E2E2E2E2E2E2E2E2E2E2E2E2E2F5E2E2E2E2E2E2E2E2E2E2E2E2E2E2E2E2E2E2E2E2E2E2E2E2E2E2E2E2EFEFE2E2E2E2E2E2E2C3E2E2E2E2E2E2E2E2E2E2E2E2E2E2E2E2E2E2E2E2E2E2E2E2E2E2E2E2E2E2E2E2E2E2E2E2E2E2E2E2E2E2E2E2E2E2E2E2E2E2E2E2E2E2E2E2E2E2E2E2E2E2E2
310
E2E2E2E2E2E2E2E2E2E2E2E2E2E2E2E2E2E2E2E2E2E2E2E2E2E2E2E2E2E2E2E2E2E2E2E2C3E2E2E2E2E2E2EFEFE2E2E2E2E2E2E2E2E2E2E2E2E2E2E2E2E2E2E2E2E2E2E2E2E2E2E2E2E2E2E2E2E2F5E2E2E2E2E2E2E2E2E2E2E2E2E2E2E2E2E2E2E2E2E2E2E2E2E2E2E2E2EFEFE2E2E2E2E2E2E2C3E2E2E2E2E2E2E2E2E2E2
310
E2E2E2E2E2E2E2E2E2E2E2E2E2E2E2E2E2E2E2E2E2E2E2E2E2E2E2E2E2E2E2E2E2E2E2E2E2E2E2E2E2E2E2E2E2E2E2E2E2E2E2E2E2E2E2E2E2E2E2E2E2E2E2E2E2E2E2E2E2E2E2E2E2E2E2E2E2E2E2E2E2E2E2E2E2E2E2E2E2C3E2E2E2E2E2E2EFEFE2E2E2E2E2E2E2E2E2E2E2E2E2E2E2E2E2E2E2E2E2E2E2E2E2E2E2E2E2
310
E2E2E2E2F5E2E2E2E2E2E2E2E2E2E2E2E2E2E2E2E2E2E2E2E2E2E2E2E2E2E2E2E2EFE2EFE2E2E2E2E2E2C3E2E2E2E2E2E2E2E2E2E2E2E2E2E2E2E2E2E2E2E2E2E2E2E2E2E2E2E2E2E2E2E2E2E2E2E2E2E2E2E2E2E2E2E2E2E2E2E2E2E2E2E2E2E2E2E2E2E2E2E2E2E2E2E2E2E2E2E2E2E2E2E2E2E2E2E2E2E2E2E2E2E2E2E2
310
E2E2E2E2E2E2E2E2E2E2E2E2E2E2C3E2E2E2E2E2E2E2EFEFE2E2E2E2E2E2E2E2E2E2E2E2E2E2E2E2E2E2E2E2E2E2E2E2E2E2E2E2E2E2E2E2E2F5E2E2E2E2E2E2E2E2E2E2E2E2E2E2E2E2E2E2E2E2E2E2E2E2E2E2E2E2EFE2EFE2E2E2E2E2E2E2C3E2E2E2E2E2E2E2E2E2E2E2E2E2E2E2E2E2E2E2E2E2E2E2E2E2E2E2E2E2E2
310
E2E2E2E2E2E2E2E2E2E2E2E2E2E2E2E2C3C3C3E2E2E2E2E2E2E2E2E2E2E2E2E2E2E2E2E2E2E2E2E2E2E2E2E2E2E2E2E2E2E2E2E2E2E2E2E2E2E2E2E2E2E2E2E2E2E2E2C3E2E2E2E2E2E2E2EFEFE2E2E2E2E2E2E2E2E2E2E2E2E2E2E2E2E2E2E2E2E2E2E2E2E2E2E2E2E2E2E2E2E2F5E2E2E2E2E2E2E2E2E2E2E2E2E2E2E2E2
310
E2E2E2E2E2E2E2E2E2E2E2E2EFE2EFE2E2E2E2E2E2E2C3E2E2E2E2E2E2E2E2E2E2E2E2E2E2E2E2E2E2E2E2E2E2E2E2E2E2E2E2E2E2E2E2E2E2E2E2E2E2E2E2E2E2E2E2C3C3E2E2E2E2E2C3E2E2E2E2E2E2E2E2E2E2E2E2E2E2E2E2E2E2E2E2E2E2E2E2E2E2E2E2E2E2E2E2E2E2E2E2E2E2E2E2E2E2E2E2E2C3E2E2E2E2E2E2
310
EFE2EFE2E2E2E2E2E2E2E2E2E2E2E2E2E2E2E2E2E2E2E2E2E2E2E2E2E2E2E2E2E2E2E2E2F5E2E2E2E2E2E2E2E2E2E2E2E2E2E2E2E2E2E2E2E2E2E2E2E2E2E2E2E2EFE2E2EFE2E2E2E2E2E2C3E2E2E2E2E2E2E2E2E2E2E2E2E2E2E2E2E2E2E2E2E2E2E2E2E2E2E2E2E2E2E2E2E2E2E2E2E2E2E2E2E2E2E2C3C3E2C3C3C3C3E2
310
E2C3E2E2E2E2F5F5F5F5F5F5F5F5F5F5F5F5F5F5F5E2E2E2E2E2E2E2E2E2E2E2E2E2E2E2E2E2E2E2E2E2E2E2E2C3E2E2E2E2E2E2E2EFE2EFE2E2E2E2E2E2E2E2E2E2E2E2E2E2E2E2E2E2E2E2E2E2E2E2E2E2E2E2E2E2E2E2E2F5E2E2E2E2E2E2E2E2E2E2E2E2E2E2E2E2E2E2E2E2E2E2E2E2E2E2E2E2EFE2E2EFE2E2E2E2E2
310
E2E2C3E2E2E2E2E2E2E2E2E2E2E2E2E2E2E2E2E2E2E2E2E2E2E2E2E2E2E2E2E2E2E2E2E2E2E2E2E2E2E2E2E2C3C3E2C3C3E2E2C3C3E2E2C3E2E2E2F5F5F5F5F5F5F5F5F5F5F5F5F5F5F5E2E2E2E2E2E2E2E2E2E2E2E2E2E2E2E2E2E2E2E2E2E2E2C3E2E2E2E2E2E2E2EFE2E2EFE2E2E2E2E2E2E2E2E2E2E2E2E2E2E2E2E2E2
310
E2E2E2E2E2E2E2E2E2E2E2E2E2E2E2F5E2E2E2E2E2E2E2E2E2E2E2E2E2E2E2E2E2E2E2E2E2E2E2E2E2E2E2E2EFE2E2EFE2E2E2E2E2E2E2E2C3E2E2E2E2E2E2E2E2E2E2E2E2E2E2E2E2E2E2E2E2E2E2E2E2E2E2E2E2E2E2E2E2E2E2E2E2E2E2E2E2C3E2C3E2E2E2E2E2E2C3E2E2E2E2E2E2F5F5F5F5F5F5F5F5F5F5F5F5F5F5
310
E2E2E2E2E2E2E2E2E2E2E2E2E2E2E2E2E2E2E2E2E2E2C3E2E2E2E2E2E2E2E2EFE2E2EFE2E2E2E2E2E2E2E2E2E2E2E2E2E2E2E2E2E2E2E2E2E2E2E2E2E2E2E2E2E2E2E2E2F5E2E2E2E2E2E2E2E2E2E2E2E2E2E2E2E2E2E2E2E2E2E2E2E2E2E2E2E2EFE2E2E2EFE2E2E2E2E2E2E2E2C3E2E2E2E2E2E2E2E2E2E2E2E2E2E2E2E2
310
E2E2E2E2E2E2E2E2E2E2E2E2E2E2E2E2E2E2E2E2E2E2E2C3E2C3E2E2E2E2E2E2C3E2E2E2E2E2E2E2E2F5F5F5F5F5F5F5F5F5F5F5F5F5F5F5F5F5E2E2E2E2E2E2E2E2E2E2E2E2E2E2E2E2E2C3E2E2E2E2E2E2E2E2EFE2E2EFE2E2E2E2E2E2E2E2E2E2E2E2E2E2E2E2E2E2E2E2E2E2E2E2E2E2E2E2E2E2E2E2E2F5E2E2E2E2E2
310
E2E2E2E2E2E2E2E2E2E2E2E2E2F5F5F5F5F5F5F5F5F5F5F5F5F5F5F5F5F5F5F5F5F5F5F5F5F5F5F5F5F5F5F5F5F5F5F5F5F5F5F5F5F5F5F5F5F5F5F5F5F5F5F5F5F5F5F5F5F5F5F5F5F5F5F5F5F5F5F5F5F5F5C3E2E2C3E2C3E2E2E2E2E2F5F5F5F5F5F5F5F5F5F5F5F5E2E2E2E2E2F5E2E2E2E2E2E2E2E2E2E2E2E2E2E2E2
310
C3E2E2E2E2E2E2E2E2EFE2E2E2EFE2E2E2E2E2E2E2E2E2E2E2E2E2E2E2E2E2E2E2E2E2E2E2E2E2E2E2E2E2E2E2E2E2F5E2E2E2E2E2E2E2E2E2E2E2E2E2E2E2E2E2E2F5F5E2E2E2E2E2E2E2E2EFE2E2E2E2EFE2E2E2E2E2E2E2E2C3E2E2E2E2E2E2E2E2E2E2E2E2E2E2E2E2E2E2E2E2E2E2E2E2E2E2E2E2E2E2E2E2E2E2E2E2
310
E2E2E2E2C3E2E2E2E2E2E2C3C3E2C3E2E2E2E2E2E2E2E2E2E2E2E2E2E2E2E2E2E2E2E2E2E2F5E2E2E2E2E2E2E2E2E2E2E2E2E2E2C3E2E2E2E2E2E2E2E2EFE2E2E2E2EFE2E2E2E2E2E2E2E2E2E2E2E2E2E2E2E2E2E2E2E2E2E2E2E2E2E2E2E2E2E2E2E2E2F5E2E2E2E2E2E2E2E2E2E2E2E2E2E2E2E2E2E2E2F5E2E2E2E2E2E2
310
E2E2EFE2E2E2E2E2EFE2E2E2E2E2E2E2E2C3E2E2E2E2E2E2E2E2E2E2E2E2E2E2E2E2E2E2E2E2E2E2E2E2E2E2E2E2E2E2E2E2E2E2E2E2E2E2E2C3E2E2E2E2E2E2C3E2C3E2E2E2E2E2E2E2E2E2E2E2E2E2E2E2E2E2E2E2E2E2E2E2E2F5E2E2E2E2E2E2E2E2E2E2E2E2E2C3E2E2E2E2E2E2E2EFE2E2E2E2E2EFE2E2E2E2E2E2E2
310
E2E2E2E2E2E2E2E2E2E2E2E2E2E2E2E2E2E2E2E2E2E2E2E2E2E2F5E2E2E2E2E2E2E2E2E2E2E2E2E2E2E2E2E2E2E2F5E2E2E2E2E2E2E2E2EFE2E2E2E2E2E2EFE2E2E2E2E2E2E2E2C3E2E2E2E2E2E2E2E2E2E2E2E2E2E2E2E2E2E2E2E2E2E2E2E2E2E2E2E2E2E2E2E2E2E2E2E2C3E2C3C3E2E2E2E2C3C3E2C3E2E2E2E2E2E2E2
310
E2E2E2E2E2E2E2E2E2E2E2E2E2E2E2E2E2E2F5E2E2E2E2E2E2E2E2E2E2E2C3E2E2E2E2E2E2E2E2EFE2E2E2E2E2EFE2E2E2E2E2E2E2E2E2E2E2E2E2E2E2E2E2E2E2E2E2E2E2E2E2E2E2E2E2E2E2E2E2F5E2E2E2E2E2E2E2E2E2E2E2E2E2E2E2E2E2E2E2F5E2E2E2E2E2E2E2E2EFE2E2E2E2E2E2EFE2E2E2E2E2E2E2E2E2C3E2
310
E2E2E2E2E2E2E2E2E2E2E2E2E2E2E2E2E2E2E2E2E2E2E2E2E2E2E2E2E2E2E2E2E2E2E2C3E2E2C3C3C3C3E2E2C3C3E2E2E2E2E2E2E2E2E2E2E2E2E2E2E2E2E2E2E2E2E2E2E2E2E2F5E2E2E2E2E2E2E2E2E2C3C3E2E2E2E2E2E2E2E2EFE2E2E2E2E2E2EFE2E2E2E2E2E2E2E2E2E2E2E2E2E2E2E2E2E2E2E2E2E2E2E2E2E2E2E2
310
E2E2E2E2E2F5E2E2E2E2E2E2E2E2E2E2E2E2E2E2E2E2E2E2E2F5E2E2E2E2E2E2E2E2EFE2E2E2E2E2E2E2EFE2E2E2E2E2E2E2E2E2C3E2E2E2E2E2E2E2E2E2E2E2E2E2E2E2E2E2E2E2E2E2E2E2E2E2E2E2E2E2E2E2E2E2E2E2E2C3C3E2E2E2E2E2C3C3E2E2E2E2E2E2E2E2E2E2E2E2E2E2E2E2E2E2E2E2E2E2E2E2E2E2E2F5E2
310
E2E2E2E2E2E2C3E2E2E2E2E2E2E2E2E2E2EFE2E2E2E2E2E2EFE2E2E2E2E2E2E2E2E2E2E2E2E2E2E2E2E2E2E2E2E2E2E2E2E2E2E2E2E2E2E2E2E2F5E2E2E2E2E2E2E2E2E2E2E2E2E2E2E2E2E2E2E2F5E2E2E2E2E2E2E2E2EFE2E2E2E2E2E2E2E2EFE2E2E2E2E2E2E2E2E2C3C3E2E2E2E2E2E2E2E2E2E2E2E2E2E2E2E2E2E2E2
310
E2E2E2E2E2E2E2E2E2E2E2E2E2E2E2E2E2E2E2C3C3C3E2E2E2E2E2E2E2E2E2E2E2E2E2E2E2E2E2E2E2E2E2E2E2E2E2E2E2E2E2E2F5E2E2E2E2C3C3E2E2E2E2E2E2E2E2E2E2EFE2E2E2E2E2E2E2EFE2E2E2E2E2E2E2E2E2E2E2E2E2E2E2E2E2E2E2E2E2E2E2E2E2E2E2E2E2E2E2E2E2F5E2E2E2E2E2E2E2E2E2E2E2E2E2E2E2
310
E2E2E2E2F5E2E2E2E2E2E2E2E2EFE2E2E2E2E2E2E2E2E2EFE2E2E2E2E2E2E2E2E2E2C3E2E2E2E2E2E2E2E2E2E2E2E2E2E2E2E2E2E2E2E2E2E2E2E2E2E2E2E2E2E2E2E2E2E2E2E2E2E2E2E2E2E2E2E2E2E2E2E2E2E2E2E2E2E2E2E2E2E2E2E2E2E2E2E2E2E2E2E2E2E2F5E2E2E2E2C3E2E2E2E2E2E2E2E2E2EFEFE2E2E2E2E2
310
E2E2E2EFE2E2E2E2E2E2E2E2E2E2E2E2E2E2E2E2E2E2E2E2E2E2E2E2E2E2E2E2E2E2E2E2E2F5E2E2E2E2E2E2E2E2E2E2E2E2E2E2E2E2E2E2E2F5E2E2E2E2E2E2E2E2EFE2E2E2E2E2E2E2E2E2E2EFE2E2E2E2E2E2E2E2E2E2C3E2E2E2E2E2E2E2E2E2E2E2E2E2E2E2E2E2E2E2E2E2E2E2E2E2E2E2E2E2E2E2E2E2E2E2E2E2E2
310
E2E2E2E2E2E2E2E2E2E2E2E2E2E2E2E2E2E2E2E2E2E2E2E2E2E2E2E2E2E2E2E2F5E2E2C3E2E2E2E2E2E2E2E2E2E2EFE2E2E2E2E2E2E2E2E2EFE2E2E2E2E2E2E2E2E2E2E2E2E2E2E2E2E2E2E2E2E2E2E2E2E2E2E2E2E2E2E2E2E2F5E2E2E2E2E2E2E2E2E2E2E2E2E2E2E2E2E2E2E2F5E2E2E2E2E2E2E2E2EFE2E2E2E2E2E2E2
310
E2E2E2E2EFE2E2E2E2E2E2E2E2E2E2C3E2E2E2E2E2E2E2E2E2E2E2E2E2E2E2E2E2E2E2E2E2E2E2E2E2E2E2E2E2E2E2E2E2E2E2E2E2E2E2E2E2E2E2E2E2E2E2E2E2E2E2E2E2E2E2E2E2E2E2E2E2E2E2E2E2E2E2E2E2E2F5C3E2E2E2E2E2E2E2E2E2E2EFE2E2E2E2E2E2E2E2E2E2EFE2E2E2E2E2E2E2E2E2E2E2E2E2E2E2E2E2
310
E2E2E2E2E2E2E2E2E2E2E2E2E2E2E2E2F5E2E2E2E2E2E2E2E2E2E2E2E2E2E2E2E2E2E2E2F5E2E2E2E2E2E2E2E2EFE2E2E2E2E2E2E2E2E2E2E2E2EFE2E2E2E2E2E2E2E2E2E2C3C3E2E2E2E2E2E2E2E2E2E2E2E2E2E2E2E2E2E2E2E2E2E2E2E2E2E2E2E2E2E2E2E2E2E2E2E2E2E2E2E2E2E2E2E2E2E2E2E2E2E2E2E2E2E2E2E2
310
E2E2E2E2E2E2E2E2E2E2C3C3F5E2E2E2E2E2E2E2E2E2EFEFE2E2E2E2E2E2E2E2E2E2E2EFE2E2E2E2E2E2E2E2E2E2E2E2E2E2E2E2E2E2E2E2E2E2E2E2E2E2E2E2E2E2E2E2E2F5E2E2E2E2E2E2E2E2E2E2E2E2E2E2E2E2E2E2E2F5E2E2E2E2E2E2E2E2EFE2E2E2E2E2E2E2E2E2E2E2E2E2EFE2E2E2E2E2E2E2E2E2E2E2C3E2E2
310
E2E2E2E2E2E2E2E2E2E2E2E2E2E2E2E2E2E2E2E2E2E2E2E2E2E2E2E2E2E2E2E2E2E2E2E2E2E2E2E2E2E2E2E2E2E2E2E2E2E2E2E2E2E2E2E2E2E2E2E2E2E2C3E2E2E2F5E2E2E2E2E2E2E2E2EFE2E2E2E2E2E2E2E2E2E2E2E2EFE2E2E2E2E2E2E2E2E2E2E2E2E2E2E2E2E2E2E2E2E2E2E2E2E2E2E2E2E2E2E2E2E2F5E2E2E2E2
310
E2E2E2E2E2E2E2E2E2E2E2E2E2E2E2F5E2E2E2E2E2E2E2E2EFE2E2E2E2E2E2E2E2E2E2E2E2E2E2EFE2E2E2E2E2E2E2E2E2E2E2C3C3C3C3E2E2E2E2E2E2E2E2E2E2E2E2E2E2E2E2E2E2E2E2E2E2E2E2E2E2E2E2E2E2E2E2E2E2E2E2E2E2E2E2E2E2E2E2E2E2E2E2E2E2E2E2E2E2E2E2C3C3C3C3E2E2E2E2E2F5E2E2E2E2E2E2
310
EFE2E2E2E2E2E2E2E2E2E2E2E2E2EFE2E2E2E2E2E2E2E2E2E2E2E2E2E2E2E2E2E2E2E2E2E2E2E2E2E2E2E2E2E2E2E2E2F5E2E2E2E2E2E2E2E2E2E2E2E2E2E2E2E2E2E2E2F5E2E2E2E2E2E2E2E2EFE2E2E2E2E2E2E2E2E2E2E2E2E2E2E2EFE2E2E2E2E2E2E2E2E2E2E2E2E2E2C3C3C3E2E2E2E2E2E2E2E2E2E2E2E2E2E2E2E2
310
E2E2E2E2E2E2E2E2E2E2E2E2E2E2E2E2E2E2E2E2E2E2E2E2E2E2E2E2E2E2E2E2E2E2C3C3C3E2E2E2E2E2E2E2E2E2F5E2E2E2E2EFEFE2E2E2E2E2E2E2E2E2E2E2E2E2E2EFE2E2E2E2E2E2E2E2E2E2E2E2E2E2E2E2E2E2E2E2E2E2E2E2E2E2E2E2E2E2E2E2E2F5E2E2E2E2E2E2E2E2E2E2E2E2E2E2E2E2E2E2E2F5E2E2E2E2E2
310
E2E2E2EFE2E2E2E2E2E2E2E2E2E2E2E2E2E2E2E2EFEFE2E2E2E2E2E2E2E2E2E2E2E2E2E2E2C3C3E2E2E2E2E2E2E2E2E2E2E2E2E2E2E2E2E2E2E2E2E2E2E2E2E2E2E2E2E2E2E2E2E2E2E2E2E2E2E2E2E2E2E2E2E2E2C3C3E2E2E2E2E2E2E2E2E2E2E2E2E2F5E2EFEFE2E2E2E2E2E2E2E2E2E2E2E2E2E2E2E2EFE2E2E2E2E2E2
310
E2E2E2E2E2E2E2E2E2E2E2E2E2E2E2E2E2E2E2E2E2E2E2E2E2E2E2F5E2E2E2E2E2E2E2E2E2E2E2E2E2E2E2E2E2F5F5F5E2E2E2E2E2E2E2E2EFE2E2E2E2E2E2E2E2E2E2E2E2E2E2E2E2E2E2EFEFE2E2E2E2E2E2E2E2E2E2E2E2E2E2E2C3C3C3E2E2E2E2E2E2E2E2E2E2E2E2E2E2E2E2E2E2E2E2E2E2E2E2E2E2E2E2E2E2E2E2
310
E2E2E2E2E2E2E2E2C3C3C3E2E2E2E2E2E2E2E2E2E2E2E2E2E2E2E2F5E2E2E2E2E2E2E2E2E2E2E2E2E2E2E2E2E2E2EFE2E2E2E2E2E2E2E2E2E2E2E2E2E2E2E2E2E2E2E2E2E2E2E2E2E2E2E2E2E2E2E2E2F5E2E2E2E2E2E2E2E2E2E2E2E2E2E2E2E2E2F5F5F5E2E2E2E2E2E2E2E2EFE2E2E2E2E2E2E2E2E2E2E2E2E2E2E2E2E2
310
E2E2E2EFE2E2E2E2E2E2E2E2E2E2E2E2E2E2E2E2E2C3C3C3C3C3E2E2E2E2E2E2E2E2E2E2E2E2E2E2E2E2E2E2E2E2E2E2E2E2E2E2E2E2E2E2C3C3C3C3C3E2E2E2E2E2E2E2E2E2E2E2E2E2E2E2E2E2EFEFE2E2E2E2E2E2E2E2E2E2E2E2E2E2E2E2E2E2E2EFE2E2E2E2E2E2E2E2E2E2E2E2E2E2E2E2E2E2E2E2E2E2E2E2E2E2E2
310
E2E2E2E2E2E2F5E2E2E2E2E2E2E2E2E2E2E2E2E2E2E2E2E2E2E2F5E2E2E2E2E2E2E2E2EFE2E2E2E2E2E2E2E2E2E2E2E2E2E2E2E2E2E2E2E2E2EFEFE2E2E2E2E2E2E2E2E2E2E2E2E2E2E2E2E2E2E2E2C3C3C3C3C3C3E2E2E2E2E2E2E2E2E2E2E2E2E2E2E2E2E2E2E2C3C3C3C3C3E2E2E2E2E2E2E2E2E2E2E2E2E2E2E2E2E2E2
310
E2E2EFEFE2E2E2E2E2E2E2E2E2E2E2E2E2E2E2E2E2E2E2E2E2EFE2E2E2E2E2E2E2E2E2E2E2E2E2E2E2E2E2E2E2E2E2E2E2E2E2E2E2E2E2E2E2E2E2F5E2E2E2E2E2E2E2E2E2E2E2E2E2E2E2E2E2E2E2F5E2E2E2E2E2E2E2E2EFE2E2E2E2E2E2E2E2E2E2E2E2E2E2E2E2E2E2E2E2E2E2E2EFEFE2E2E2E2E2E2E2E2E2E2E2E2E2
310
E2E2E2E2E2E2E2E2E2E2E2C3C3C3C3C3C3C3C3C3C3C3C3C3C3C3C3C3C3C3E2E2E2E2E2E2E2E2E2E2E2E2E2E2E2E2E2E2E2E2E2E2E2EFEFE2E2E2E2E2E2E2E2E2E2E2E2E2E2E2E2E2E2E2E2E2E2E2EFE2E2E2E2E2E2E2E2E2E2E2E2E2E2E2E2E2E2E2E2E2E2E2E2E2E2E2E2E2E2E2E2E2F5E2E2E2E2E2E2E2E2E2E2E2E2E2E2
310
E2E2E2E2E2F5E2E2E2E2E2E2E2E2EFE2E2E2E2E2E2E2E2E2E2E2E2E2E2E2E2E2E2E2E2E2E2E2E2E2EFEFEFE2E2E2E2E2E2E2E2E2E2E2E2E2E2E2E2E2E2E2E2E2E2E2E2E2E2E2E2E2E2E2E2E2E2E2E2E2E2E2E2E2E2E2E2E2E2E2E2E2E2E2E2E2E2E2E2E2E2E2E2E2EFEFE2E2E2E2E2E2E2E2E2E2E2E2E2E2E2E2E2E2E2E2E2
310
E2E2E2E2EFE2E2E2E2E2E2E2E2E2E2E2E2E2E2E2E2E2E2E2E2E2E2E2E2E2E2E2E2E2E2E2E2E2F5E2E2E2E2E2E2E2E2E2E2E2E2E2E2E2E2E2E2E2F5E2E2E2E2E2E2E2E2EFE2E2E2E2E2E2E2E2E2E2E2E2E2E2E2E2E2E2E2E2E2E2E2E2E2E2E2E2EFEFE2E2E2E2E2E2E2E2E2E2E2E2E2E2E2E2E2E2E2E2E2E2E2E2E2E2E2E2E2
310
E2E2E2E2E2E2E2E2E2E2E2E2E2E2E2E2E2E2E2E2E2E2E2E2E2E2E2EFEFEFE2E2E2E2E2E2E2E2E2E2E2E2E2E2E2E2E2E2E2E2E2E2E2E2E2E2E2EFE2E2E2E2E2E2E2E2E2E2E2E2E2E2E2E2E2E2E2E2E2E2E2E2E2E2E2E2E2E2E2E2E2F5E2E2E2E2E2E2E2E2E2E2E2E2E2E2E2E2E2E2E2F5E2E2E2E2E2E2E2E2EFE2E2E2E2E2E2
310
E2E2E2E2E2E2E2E2E2E2E2E2E2E2E2E2E2E2E2E2E2E2E2E2EFEFEFE2E2E2E2E2E2E2E2E2E2E2E2E2E2E2E2E2E2E2E2E2E2E2E2E2E2E2E2E2E2E2E2E2E2E2E2E2E2E2E2E2E2E2E2E2E2E2E2E2E2E2EFEFE2E2E2E2E2E2E2E2E2E2E2E2E2E2E2E2E2E2E2E2E2E2E2E2E2E2E2E2E2E2EFE2E2E2E2E2E2E2E2E2E2E2E2E2E2E2E2
310
E2E2E2E2E2E2E2E2E2E2E2E2E2E2E2E2E2F5E2E2E2E2E2E2E2E2E2E2E2E2E2E2E2E2E2E2E2F5E2E2E2E2E2E2E2E2EFE2E2E2E2E2E2E2E2E2E2E2E2E2E2E2E2E2E2E2E2E2E2E2E2E2E2E2E2E2E2E2E2E2EFEFE2E2E2E2E2E2E2E2E2E2E2E2E2E2E2E2E2E2E2E2E2E2E2E2E2E2E2E2E2E2E2E2E2E2E2E2E2E2E2E2E2E2E2E2E2
310
E2EFEFEFE2E2E2E2E2E2E2E2E2E2E2E2E2E2E2E2E2E2E2E2E2E2E2E2E2E2E2E2E2E2E2E2EFE2E2E2E2E2E2E2E2E2E2E2E2E2E2E2E2E2E2E2E2E2E2E2E2E2E2E2E2E2E2E2E2E2F5E2E2E2E2E2E2E2E2E2E2E2E2E2E2E2E2E2E2E2F5E2E2E2E2E2E2E2E2EFE2E2E2E2E2E2E2E2E2E2E2E2E2E2E2E2E2E2E2E2E2E2E2E2E2E2E2
310
E2E2E2E2E2E2E2E2EFEFEFEFEFEFE2E2E2E2E2E2E2E2E2E2E2E2E2E2E2E2E2E2E2E2E2E2E2E2E2E2E2E2E2E2E2E2E2E2E2EFEFEFEFEFE2E2E2E2E2E2E2E2E2E2E2E2E2E2E2E2E2E2E2E2E2E2E2E2E2E2E2E2E2E2E2E2E2E2E2EFE2E2E2E2E2E2E2E2E2E2E2E2E2E2E2E2E2E2E2E2E2E2E2E2E2E2E2E2E2E2E2E2E2F5E2E2E2
310
E2E2E2E2E2E2E2E2E2E2E2E2E2E2E2E2F5E2E2E2E2E2E2E2E2EFE2E2E2E2E2E2E2E2E2E2E2E2E2E2E2E2E2E2E2E2E2E2E2E2E2E2E2E2E2E2E2E2E2E2E2E2E2E2E2E2E2EFEFEFEFEFE2E2E2E2E2E2E2E2E2E2E2E2E2E2E2E2E2E2E2E2E2E2E2E2EFEFEFEFEFEFE2E2E2E2E2E2E2E2E2E2E2E2E2E2E2E2E2E2E2E2E2E2E2E2E2
310
E2E2E2E2E2E2E2E2E2E2E2E2E2E2E2EFE2E2E2E2E2E2E2E2E2E2E2E2E2E2E2E2E2E2E2E2E2E2E2E2E2E2E2E2E2E2E2E2E2F5E2E2E2E2E2E2E2E2E2E2E2E2E2E2E2E2E2E2E2F5E2E2E2E2E2E2E2E2EFF5F5F5F5F5EFEFEFEFEFEFEFEFEFEFEFEFEFEFEFEFEFEFEFEFEFEFEFEFEFEFEFEFEFEFEFEFEFEFEFEFEFEFEFEFEFEFEF
310
EFEFEFEFEFEFEFEFEFEFEFEFEFEFEFEFEFEFEFEFEFEFEFEFEFEFEFEFEFEFEFEFEFEFEFEFEFEFEFEFEFEFEFEFEFEFEFEFEFEFEFEFEFEFEFEFEFEFEFEFEFEFEFEFEFEFEFEFEFE2E2E2E2E2E2E2E2E2E2E2E2E2E2E2E2E2E2E2E2E2E2E2E2E2E2E2E2E2E2E2E2E2F5E2E2E2E2E2E2E2E2E2E2E2E2E2E2E2E2E2E2E2F5E2E2E2E2
310
E2E2E2E2E2E2E2E2F5F5E2E2E2E2E2E2E2E2E2E2E2E2E2E2E2E2E2E2E2E2E2E2E2E2E2E2E2E2E2E2E2E2E2E2E2E2E2E2E2E2E2E2E2E2E2E2E2E2E2E2E2E2E2E2E2E2E2E2E2E2E2E2E2E2E2E2E2E2E2E2E2E2E2E2E2E2E2E2E2E2E2E2E2E2E2E2E2E2E2E2E2E2E2E2E2E2E2E2E2E2E2E2E2E2E2E2E2E2E2E2E2E2E2E2E2E2E2
310
E2E2E2E2E2E2E2E2E2E2E2E2E2E2E2E2E2E2E2E2E2E2E2E2E2E2E2E2F5E2E2E2E2E2E2E2E2E2E2E2E2E2E2E2E2E2E2E2F5E2E2E2E2E2E2E2E2E2E2E2E2E2F5E2E2E2E2C3E2E2E2E2E2E2E2E2E2E2E2E2E2E2E2E2E2E2E2E2E2E2E2E2E2E2E2E2E2E2E2E2E2E2E2E2E2E2E2E2E2E2E2E2E2E2E2E2E2E2E2E2E2E2E2E2E2E2E2
310
E2E2E2E2E2E2E2E2E2E2E2E2E2E2E2E2E2E2E2E2E2E2E2E2E2E2E2E2E2E2E2E2E2E2E2E2E2C3E2E2E2E2E2E2E2E2E2E2E2E2E2E2E2E2E2E2E2E2E2E2E2E2E2E2E2E2E2E2E2E2E2E2E2E2E2E2E2E2E2E2E2F5E2E2E2E2E2E2E2E2E2E2E2E2E2E2E2E2E2E2E2F5E2E2E2E2E2E2E2E2E2E2E2F5F5F5E2E2E2C3C3C3E2E2E2E2E2
310
E2E2E2E2E2E2E2E2E2E2E2E2E2E2E2E2E2E2E2E2E2E2E2E2E2E2E2E2E2E2E2E2E2E2E2E2E2E2E2E2E2E2E2E2E2E2E2E2E2E2E2E2E2E2E2E2E2E2E2E2E2E2E2E2E2E2E2E2E2E2E2E2E2E2E2E2E2E2E2E2E2E2E2E2E2E2E2E2E2E2C3C3E2E2E2E2E2E2E2E2E2E2E2E2E2E2E2E2E2E2E2E2E2E2E2E2E2E2E2E2E2E2E2E2E2E2E2
310
E2E2E2E2E2E2E2F5E2E2E2E2E2E2E2E2E2E2E2E2E2E2E2E2E2E2E2F5E2E2E2E2E2E2E2E2E2E2E2E2E2F5E2E2E2E2C3E2E2E2E2E2E2E2E2E2E2E2E2E2E2E2E2E2E2E2E2E2E2E2E2E2E2E2E2E2E2E2E2E2E2E2E2E2E2E2E2E2E2E2E2E2E2E2E2E2E2E2E2E2E2E2E2E2E2E2E2E2E2E2E2E2E2E2E2E2E2E2E2E2E2E2E2E2E2E2E2
310
E2E2E2E2E2E2E2E2E2E2E2E2E2E2E2E2C3E2E2E2E2E2E2E2E2E2E2E2E2E2E2E2E2E2E2E2E2E2E2E2E2E2E2E2E2E2E2E2E2E2E2E2E2E2E2E2E2E2E2E2F5E2E2E2E2E2E2E2E2E2E2E2E2E2E2E2E2E2E2E2F5E2E2E2E2E2E2E2E2E2E2E2E2E2F5E2E2E2E2E2E2E2E2E2E2E2E2E2E2E2E2E2E2E2E2E2E2E2E2E2E2E2E2E2E2E2E2
310
E2E2E2E2E2E2E2E2E2E2E2E2E2E2E2E2E2E2E2E2E2E2E2E2E2E2E2E2E2E2E2E2E2E2E2E2E2E2E2E2E2E2E2E2E2E2E2E2E2E2E2E2E2E2E2E2E2E2E2E2E2E2E2E2E2E2E2E2E2E2E2E2E2E2E2E2E2E2E2E2E2E2E2E2E2E2E2E2E2E2E2E2E2E2E2E2E2E2E2E2E2E2E2E2E2E2E2E2E2E2E2E2E2F5E2E2E2E2E2E2E2E2E2E2E2E2E2
310
E2E2E2E2E2F5F5E2E2E2E2E2E2E2E2E2E2E2E2F5F5E2E2E2E2E2E2E2E2E2E2E2E2E2E2E2E2E2E2E2E2E2E2E2E2E2E2E2E2E2E2E2E2E2E2E2E2E2E2E2E2E2E2E2E2E2E2E2E2E2E2E2E2E2E2E2E2E2E2E2E2E2E2E2E2E2E2E2E2E2E2E2E2E2E2E2E2E2E2E2E2E2E2E2E2E2E2E2E2E2E2E2E2E2E2E2E2E2E2E2E2E2E2E2E2E2E2
310
E2E2E2E2E2E2E2E2E2E2E2E2E2E2E2E2E2E2E2E2E2E2E2E2E2E2E2E2E2E2E2E2E2E2E2E2E2E2E2F5E2E2E2E2E2E2E2E2E2E2E2E2E2E2E2E2E2E2F5F5F5F5F5F5F5F5F5F5F5F5F5F5F5F5F5F5F5F5F5F5F5F5F5F5F5F5F5F5F5F5E2E2E2E2F5F5F5F5F5F5E2E2E2E2F5F5F5F5F5F5F5F5F5F5F5F5F5F5F5F5E2E2E2E2F5F5F5
310
F5F5F5E2E2E2E2F5F5F5F5F5F5F5F5F5F5F5F5F5F5F5F5E2F5F5F5F5F5F5F5F5F5F5F5E2E2F5F5F5F5F5F5F5F5F5F5F5F5F5F5F5F5F5F5F5F5F5E2E2E2E2E2E2E2E2E2E2E2E2E2E2E2E2E2E2E2E2E2E2E2E2E2E2E2E2E2E2E2E2E2E2F5E2E2E2E2E2E2E2E2E2E2E2E2E2E2E2E2E2E2E2E2E2E2E2E2E2E2E2F5E2E2E2E2E2E2
310
E2E2E2E2E2E2E2E2E2E2E2E2E2E2E2E2E2E2E2E2E2E2E2E2E2E2E2E2E2E2E2E2E2E2E2E2E2E2E2E2E2E2E2E2E2E2E2E2E2E2E2E2E2E2E2E2E2E2E2E2E2E2E2E2E2E2E2E2E2E2E2E2E2E2E2E2E2F5F5F5F5F5F5F5F5F5F5F5E2E2E2E2E2E2E2E2E2E2E2E2E2E2E2E2E2E2E2E2E2E2E2E2E2E2E2E2E2E2E2E2E2E2E2E2E2E2E2
310
E2E2E2E2E2E2E2E2E2E2E2E2E2E2E2E2E2E2F5E2E2E2E2E2E2E2E2E2E2E2E2E2E2E2E2E2E2E2E2E2E2E2E2E2E2E2F5E2E2E2E2E2E2E2E2E2E2E2E2E2E2E2E2E2E2E2E2E2E2E2E2E2E2E2E2E2E2E2E2E2E2E2E2E2E2E2E2E2E2E2E2E2E2E2E2E2E2E2E2E2E2E2E2E2E2E2E2E2E2E2E2E2E2E2E2E2E2E2E2E2E2E2E2F5F5F5F5
310
F5F5F5F5F5F5F5F5F5F5F5F5F5F5E2E2E2E2E2E2E2E2E2E2E2E2E2E2E2E2E2E2E2E2E2E2E2E2E2E2E2E2E2E2E2E2E2E2E2E2E2E2E2E2E2E2E2E2E2E2E2E2E2E2E2E2E2E2E2E2E2F5E2E2E2E2E2E2E2E2E2E2E2E2E2E2E2E2E2E2E2E2E2E2E2E2E2E2E2F5E2E2E2E2E2E2E2E2E2E2E2E2E2E2E2E2E2E2E2E2E2E2E2E2E2E2E2
310
E2E2E2E2E2E2E2E2E2E2E2E2E2E2E2E2E2E2E2E2E2E2E2E2E2E2E2E2E2E2E2E2E2E2E2E2E2E2E2E2E2E2E2E2E2E2E2E2E2F5F5F5F5F5F5F5F5F5F5F5F5F5F5F5F5F5F5E2E2E2E2E2E2E2E2E2E2E2E2E2E2E2E2E2E2E2E2E2E2E2E2E2E2E2E2E2E2E2E2E2E2E2E2E2E2E2E2E2E2E2E2E2E2E2E2E2E2E2E2E2E2E2E2E2F5E2E2
310
E2E2E2E2E2E2E2E2E2E2E2E2E2E2E2E2E2E2E2E2E2E2E2F5F5F5F5E2E2E2E2E2E2E2E2E2E2E2E2E2E2E2E2E2E2E2E2E2E2E2E2E2E2E2E2E2E2E2E2E2E2E2E2E2E2E2E2E2E2E2E2E2E2E2E2E2E2E2E2E2E2E2E2E2E2E2E2E2E2E2E2E2E2E2E2E2E2E2E2E2E2E2E2E2F5F5F5F5F5F5F5F5F5F5F5F5F5F5F5F5E2E2E2E2E2E2E2
310
E2E2E2E2E2E2E2E2E2E2E2E2E2E2E2E2E2E2E2E2E2E2E2E2E2E2E2E2E2E2E2E2E2E2E2E2E2E2E2E2E2E2E2E2E2E2E2E2E2E2F5E2E2E2E2E2E2E2E2E2E2E2E2E2E2E2E2E2E2E2E2E2E2E2E2E2E2E2F5F5E2E2E2E2E2E2E2E2E2E2E2E2E2E2E2E2E2E2E2E2E2E2E2E2E2E2E2E2E2E2E2E2E2E2E2E2E2E2E2E2E2E2E2E2E2E2E2
310
E2E2E2E2E2E2E2E2E2E2E2E2E2E2E2E2E2E2E2E2E2E2E2E2E2E2E2E2E2E2E2E2E2E2E2E2E2E2E2E2E2E2E2E2E2E2E2E2E2E2E2E2E2E2E2E2E2E2E2E2E2E2E2E2E2E2E2E2E2E2E2E2E2E2E2E2E2E2E2E2E2E2E2E2E2E2E2E2E2E2E2E2E2E2E2E2E2E2E2E2E2E2E2F5E2E2E2E2E2E2E2E2E2E2E2E2E2E2E2E2E2E2E2E2E2E2E2
310
E2E2E2E2F5E2E2E2E2E2E2E2E2E2E2E2E2E2E2E2E2E2E2E2E2E2E2E2E2E2E2E2E2E2E2E2E2E2E2E2E2E2E2E2E2E2E2E2E2E2E2E2E2E2E2E2E2E2E2E2E2E2E2E2E2E2E2E2E2E2E2E2E2E2E2E2E2E2E2E2E2E2E2E2E2E2E2E2E2E2E2E2E2E2E2E2E2E2E2E2E2E2E2E2E2E2E2E2E2E2E2E2E2E2E2E2E2E2E2E2E2E2E2E2E2E2E2
310
E2E2E2E2E2E2E2E2E2E2E2E2E2E2E2E2E2E2E2E2E2E2E2E2E2E2E2E2E2F5E2E2E2E2E2E2E2E2E2E2E2E2E2E2E2E2E2E2E2E2E2E2E2E2E2E2E2F5E2E2E2E2E2E2E2E2E2E2E2E2E2E2E2E2E2E2E2E2E2E2E2E2E2E2E2E2E2E2E2E2E2E2E2E2E2E2E2E2E2E2E2E2E2E2E2E2E2E2E2E2E2E2E2E2E2E2E2E2E2E2E2E2E2E2E2E2E2
310
E2E2E2E2E2E2E2E2E2E2E2E2E2E2E2E2E2E2E2E2E2E2E2E2E2E2E2E2E2E2E2E2E2E2E2E2E2E2E2E2E2E2E2E2E2E2E2E2E2E2E2E2E2E2E2E2E2E2E2E2E2E2E2E2E2E2E2E2E2E2E2E2E2E2E2E2E2E2E2E2E2E2F5E2E2E2E2E2E2E2E2E2E2E2E2E2E2E2E2E2E2E2E2E2E2E2E2E2E2E2F5E2E2E2E2E2E2E2E2E2E2E2E2E2E2E2E2
310
E2E2E2E2E2E2E2E2E2E2E2E2E2E2E2E2E2E2E2E2E2E2E2E2E2E2E2E2E2E2E2E2E2E2E2E2E2E2E2E2E2E2E2E2E2E2E2E2E2E2E2E2E2E2E2E2E2E2E2E2E2E2E2E2E2E2E2E2E2E2E2E2E2E2E2E2E2E2E2E2E2E2E2E2E2E2E2E2E2E2E2E2E2E2E2E2E2E2E2E2E2E2E2E2E2E2E2E2E2E2E2E2E2E2E2E2E2E2E2E2E2E2E2E2E2E2E2
310
E2E2E2E2E2E2E2E2F5E2E2E2E2E2E2E2E2E2E2E2E2E2E2E2E2E2E2E2E2E2E2E2E2E2E2F5F5F5F5F5F5F5F5F5F5F5E2F5F5F5F5F5F5F5F5F5E2F5F5F5F5E2F5F5F5F5F5F5F5F5F5F5F5F5F5F5F5F5F5F5F5F5F5F5F5F5F5F5F5F5F5F5F5E2F5F5F5F5E2F5F5F5F5F5F5F5F5F5E2F5F5F5F5F5F5F5F5F5F5F5F5F5F5F5F5F5F5
310
F5F5F5F5F5F5F5F5F5F5F5F5F5F5F5F5F5F5E2F5F5F5F5F5F5F5F5E2E2E2E2E2E2E2E2E2E2E2E2E2E2E2E2E2E2E2E2E2E2E2E2E2E2E2E2E2E2E2E2E2E2F5E2E2E2E2E2E2E2E2E2E2E2E2E2E2E2E2E2E2E2E2E2E2E2E2E2E2E2E2E2E2E2E2E2E2E2E2E2E2E2E2E2E2E2E2E2E2E2E2E2E2E2E2E2E2E2E2E2E2E2E2E2E2E2E2E2
310
E2E2E2E2E2E2E2E2E2E2E2E2E2E2E2E2E2E2F5F5F5F5F5F5F5F5F5F5F5F5F5F5E2E2E2E2E2E2E2E2E2E2E2E2E2E2E2E2E2E2E2E2E2E2E2E2E2E2E2E2E2E2E2E2E2E2E2E2E2E2E2E2E2E2E2E2E2E2E2E2E2E2E2E2E2E2E2E2E2E2E2E2E2E2E2E2E2E2E2E2E2E2E2E2E2E2E2E2E2E2E2E2E2E2F5E2E2E2E2E2E2E2E2E2E2E2E2
310
E2E2E2E2E2E2E2E2E2E2E2E2E2E2E2E2E2E2E2E2E2E2E2E2E2E2E2E2E2E2E2E2E2E2E2E2E2E2E2E2E2E2E2E2E2E2E2E2E2E2E2E2E2E2E2E2E2E2E2E2E2E2E2E2E2E2E2E2E2E2E2E2E2E2E2E2E2E2E2E2E2E2E2E2E2E2E2E2E2E2E2E2E2E2E2E2E2E2E2E2E2E2E2E2E2E2E2E2E2E2E2E2E2E2E2E2E2E2E2E2E2E2E2E2E2E2E2
310
E2E2E2E2E2E2E2E2E2E2E2E2E2E2E2E2E2E2E2E2E2E2E2E2E2E2E2E2E2E2E2E2E2E2E2E2E2E2E2E2F5E2E2E2E2E2E2E2E2E2E2E2E2E2E2E2E2E2E2E2E2E2E2E2E2E2E2E2E2E2E2E2E2E2E2E2E2E2E2E2E2E2E2E2E2E2E2E2E2E2E2E2E2E2E2E2E2E2E2E2E2E2E2E2E2E2E2E2E2E2E2E2E2E2F5F5F5F5F5F5F5F5F5F5F5F5F5
310
F5F5F5F5F5F5F5F5F5F5F5E2E2E2E2E2E2E2E2E2E2E2E2E2E2E2E2E2E2E2E2E2E2E2E2E2E2E2E2E2E2E2E2E2E2E2E2E2E2E2E2E2E2E2E2E2E2E2E2E2E2E2E2E2E2E2E2E2E2E2E2E2E2E2E2E2E2E2E2E2E2E2E2E2E2E2E2E2E2E2E2E2E2F5E2E2E2E2E2E2E2E2E2E2E2E2E2E2E2E2E2E2E2E2E2E2E2E2E2E2E2E2E2E2E2E2E2
310
E2E2E2E2E2E2E2E2E2E2E2E2E2E2E2E2E2E2E2E2E2E2E2E2E2E2E2E2E2E2E2E2E2E2E2E2E2E2E2E2E2E2E2E2F5F5F5F5F5F5F5F5F5F5F5F5F5F5F5F5F5F5F5F5E2E2E2E2E2E2E2E2E2E2E2E2E2E2E2E2E2E2E2E2E2E2E2E2E2E2E2E2E2E2E2E2E2E2E2E2E2E2E2E2E2E2E2E2E2E2E2E2E2E2E2E2E2E2E2E2E2E2E2E2E2E2E2
310
E2E2E2E2E2E2E2E2E2E2E2E2E2E2E2E2E2E2E2F5E2E2E2E2E2E2E2E2E2E2E2F5F5F5F5E2F5F5F5F5E2F5F5F5F5E2F5F5F5F5E2E2E2E2E2E2E2E2E2E2E2E2E2E2E2E2E2E2E2E2E2E2E2E2E2E2E2E2E2E2E2E2E2E2E2E2E2E2E2E2E2E2E2E2E2E2E2F5F5F5F5F5F5F5F5F5F5F5F5F5F5F5F5F5F5F5F5E2E2E2E2E2E2E2E2E2E2
310
E2E2E2E2E2E2E2E2E2E2E2E2E2E2E2E2E2E2E2E2E2E2E2E2E2E2E2E2E2E2E2E2E2E2E2E2E2E2E2E2E2E2E2E2E2E2E2E2E2E2E2E2E2E2E2E2E2E2E2E2E2E2E2E2E2E2E2E2E2E2E2E2F5E2E2E2E2E2E2E2E2E2E2E2E2F5F5E2F5F5E2F5F5F5E2F5F5E2F5F5E2F5F5F5E2E2E2E2E2E2E2E2E2E2E2E2E2E2E2E2E2E2E2E2E2E2E2
310
E2E2E2E2E2E2E2E2E2E2E2E2E2E2E2E2E2E2E2E2E2E2E2E2E2E2E2E2E2E2E2E2E2E2E2E2E2E2E2E2E2E2E2E2E2E2E2E2E2E2E2E2E2E2E2E2E2E2E2E2E2E2E2E2E2E2E2E2E2E2E2E2E2E2E2E2E2E2E2E2E2E2E2E2E2E2E2E2E2E2E2E2E2E2E2E2E2E2E2E2E2E2E2E2E2E2E2E2E2E2E2E2E2E2E2E2E2E2E2E2E2E2E2E2E2F5E2
310
E2E2E2E2E2E2E2E2E2F5F5F5F5F5F5F5E2F5F5F5F5F5F5F5F5F5E2F5F5F5E2E2E2E2E2E2E2E2E2E2E2E2E2E2E2E2E2E2E2E2E2E2E2E2E2E2E2E2E2E2E2E2E2E2E2E2E2E2E2E2E2E2E2E2E2E2E2E2E2E2E2E2E2E2E2E2E2E2E2E2E2E2E2E2E2E2E2E2E2E2E2E2E2E2E2E2E2E2E2E2E2E2E2E2E2E2E2E2E2E2E2E2E2E2E2E2E2
310
E2E2E2E2E2E2E2E2E2E2E2E2E2E2E2E2E2E2E2E2E2E2E2E2E2E2E2E2E2E2E2E2E2E2E2E2E2E2E2E2E2E2E2E2E2E2E2E2E2E2E2F5E2E2E2E2E2E2E2E2E2E2F5F5F5F5F5F5F5F5F5F5F5F5F5F5F5F5F5F5F5F5F5F5E2E2E2E2E2E2E2E2E2E2E2E2E2E2E2E2E2E2E2E2E2E2E2E2E2E2E2E2E2E2E2E2E2E2E2E2E2E2E2E2E2E2E2
310
E2E2E2E2E2E2E2E2E2E2E2E2E2E2E2E2E2E2E2E2E2E2E2E2E2E2E2E2E2E2E2E2E2E2E2E2E2E2E2E2E2E2E2E2E2E2E2E2E2E2E2E2E2E2E2E2E2E2E2E2E2E2E2E2E2E2E2E2E2E2E2E2E2E2E2E2E2E2E2E2E2E2E2E2E2E2E2E2E2E2E2E2E2E2E2E2E2E2E2E2E2E2E2E2F5E2E2E2E2E2E2E2E2E2E2F5F5F5F5F5E2F5F5F5F5F5F5
310
F5F5F5E2F5F5F5F5F5F5E2E2E2E2E2E2E2E2E2E2E2E2E2E2E2E2E2E2E2E2E2E2E2E2E2E2E2E2E2E2E2E2E2E2E2E2E2E2E2E2E2E2E2E2E2E2E2E2E2E2E2E2E2E2E2E2E2E2E2E2E2E2E2E2E2E2E2E2E2E2E2E2E2E2E2E2E2E2E2E2E2E2E2E2E2E2E2E2E2E2E2E2E2E2E2E2E2E2E2E2E2E2E2E2E2E2E2E2E2E2E2E2E2E2E2E2E2
310
E2E2E2E2E2E2E2E2E2E2E2E2E2E2E2E2E2E2E2E2E2E2E2E2E2E2E2E2E2E2F5E2E2E2E2E2E2E2E2E2E2E2E2E2E2E2E2E2E2E2E2E2E2E2E2E2E2E2E2E2E2E2E2E2E2E2E2E2E2E2E2E2E2E2E2E2E2E2E2E2E2E2E2E2E2E2E2E2E2E2E2E2E2E2E2E2E2E2E2E2E2E2E2E2E2E2E2E2E2E2E2E2E2E2E2E2E2E2E2E2E2E2E2E2E2E2E2
310
E2E2E2E2E2E2E2E2E2E2E2E2E2E2E2E2E2E2E2E2E2E2E2E2E2E2E2E2E2E2E2E2E2E2E2E2E2E2E2E2E2E2E2E2E2E2E2E2E2E2E2E2E2E2E2E2E2E2E2E2E2E2E2E2E2E2E2E2E2E2E2E2E2E2E2E2E2E2E2E2E2E2E2F5E2E2E2E2E2E2E2E2E2E2E2E2E2E2E2E2E2E2E2E2E2E2E2E2E2E2E2E2E2E2E2E2E2E2E2E2E2E2E2E2E2E2E2
310
E2E2E2E2E2E2E2E2E2E2E2E2E2E2E2E2E2E2E2E2E2E2E2E2E2E2E2E2E2E2E2E2E2E2E2E2E2E2E2E2E2E2E2E2E2E2E2E2E2E2E2E2E2E2E2E2E2E2E2E2E2E2E2E2E2E2E2E2E2E2E2E2E2E2E2E2E2E2E2E2E2E2E2E2E2E2E2E2E2E2E2E2E2E2E2E2E2E2E2E2E2E2E2E2E2E2E2E2E2E2E2E2E2E2E2E2E2E2E2E2E2E2E2E2E2E2E2
310
E2E2E2E2E2
  0
XRECORD
  5
1DD8
102
{ACAD_REACTORS
330
1DD7
102
}
330
1DD7
100
AcDbXrecord
280
     1
102
SHADEPLOT
 70
     0
102
SHADEPLOTRESLEVEL
 70
     2
102
SHADEPLOTCUSTOMDPI
 70
   300
  0
XRECORD
  5
1E17
102
{ACAD_REACTORS
330
1E16
102
}
330
1E16
100
AcDbXrecord
280
     1
102
MATERIAL
148
0.0
149
0.0
149
0.0
 93
        0
 94
       63
282
     0
 72
     1
 77
     1
171
     1
175
     1
179
     1
273
     0
  0
XRECORD
  5
1E15
102
{ACAD_REACTORS
330
1E14
102
}
330
1E14
100
AcDbXrecord
280
     1
102
MATERIAL
148
0.0
149
0.0
149
0.0
 93
        0
 94
       63
282
     0
 72
     1
 77
     1
171
     1
175
     1
179
     1
273
     0
  0
XRECORD
  5
1E19
102
{ACAD_REACTORS
330
1E18
102
}
330
1E18
100
AcDbXrecord
280
     1
102
MATERIAL
148
0.0
149
0.0
149
0.0
 93
        0
 94
       63
282
     0
 72
     1
 77
     1
171
     1
175
     1
179
     1
273
     0
  0
XRECORD
  5
1DDA
102
{ACAD_REACTORS
330
1DD9
102
}
330
1DD9
100
AcDbXrecord
280
     1
102
SHADEPLOT
 70
     0
102
SHADEPLOTRESLEVEL
 70
     2
102
SHADEPLOTCUSTOMDPI
 70
   300
  0
XRECORD
  5
1DE0
102
{ACAD_REACTORS
330
1DDF
102
}
330
1DDF
100
AcDbXrecord
280
     1
102
SHADEPLOT
 70
     0
102
SHADEPLOTRESLEVEL
 70
     2
102
SHADEPLOTCUSTOMDPI
 70
   300
  0
XRECORD
  5
1DE2
102
{ACAD_REACTORS
330
1DE1
102
}
330
1DE1
100
AcDbXrecord
280
     1
102
SHADEPLOT
 70
     0
102
SHADEPLOTRESLEVEL
 70
     2
102
SHADEPLOTCUSTOMDPI
 70
   300
  0
XRECORD
  5
1DE4
102
{ACAD_REACTORS
330
1DE3
102
}
330
1DE3
100
AcDbXrecord
280
     1
102
SHADEPLOT
 70
     0
102
SHADEPLOTRESLEVEL
 70
     2
102
SHADEPLOTCUSTOMDPI
 70
   300
  0
XRECORD
  5
1DE6
102
{ACAD_REACTORS
330
1DE5
102
}
330
1DE5
100
AcDbXrecord
280
     1
102
SHADEPLOT
 70
     0
102
SHADEPLOTRESLEVEL
 70
     2
102
SHADEPLOTCUSTOMDPI
 70
   300
  0
XRECORD
  5
1DE8
102
{ACAD_REACTORS
330
1DE7
102
}
330
1DE7
100
AcDbXrecord
280
     1
102
SHADEPLOT
 70
     0
102
SHADEPLOTRESLEVEL
 70
     2
102
SHADEPLOTCUSTOMDPI
 70
   300
  0
XRECORD
  5
1DEA
102
{ACAD_REACTORS
330
1DE9
102
}
330
1DE9
100
AcDbXrecord
280
     1
102
SHADEPLOT
 70
     0
102
SHADEPLOTRESLEVEL
 70
     2
102
SHADEPLOTCUSTOMDPI
 70
   300
  0
XRECORD
  5
1DEC
102
{ACAD_REACTORS
330
1DEB
102
}
330
1DEB
100
AcDbXrecord
280
     1
102
SHADEPLOT
 70
     0
102
SHADEPLOTRESLEVEL
 70
     2
102
SHADEPLOTCUSTOMDPI
 70
   300
  0
XRECORD
  5
1DEE
102
{ACAD_REACTORS
330
1DED
102
}
330
1DED
100
AcDbXrecord
280
     1
102
SHADEPLOT
 70
     0
102
SHADEPLOTRESLEVEL
 70
     2
102
SHADEPLOTCUSTOMDPI
 70
   300
  0
XRECORD
  5
1DF0
102
{ACAD_REACTORS
330
1DEF
102
}
330
1DEF
100
AcDbXrecord
280
     1
102
SHADEPLOT
 70
     0
102
SHADEPLOTRESLEVEL
 70
     2
102
SHADEPLOTCUSTOMDPI
 70
   300
  0
XRECORD
  5
1DF2
102
{ACAD_REACTORS
330
1DF1
102
}
330
1DF1
100
AcDbXrecord
280
     1
102
SHADEPLOT
 70
     0
102
SHADEPLOTRESLEVEL
 70
     2
102
SHADEPLOTCUSTOMDPI
 70
   300
  0
XRECORD
  5
1DF4
102
{ACAD_REACTORS
330
1DF3
102
}
330
1DF3
100
AcDbXrecord
280
     1
102
SHADEPLOT
 70
     0
102
SHADEPLOTRESLEVEL
 70
     2
102
SHADEPLOTCUSTOMDPI
 70
   300
  0
XRECORD
  5
1DF6
102
{ACAD_REACTORS
330
1DF5
102
}
330
1DF5
100
AcDbXrecord
280
     1
102
SHADEPLOT
 70
     0
102
SHADEPLOTRESLEVEL
 70
     2
102
SHADEPLOTCUSTOMDPI
 70
   300
  0
XRECORD
  5
1DFB
102
{ACAD_REACTORS
330
1DFA
102
}
330
1DFA
100
AcDbXrecord
280
     1
102
SHADEPLOT
 70
     0
102
SHADEPLOTRESLEVEL
 70
     2
102
SHADEPLOTCUSTOMDPI
 70
   300
  0
XRECORD
  5
1DFD
102
{ACAD_REACTORS
330
1DFC
102
}
330
1DFC
100
AcDbXrecord
280
     1
102
SHADEPLOT
 70
     0
102
SHADEPLOTRESLEVEL
 70
     2
102
SHADEPLOTCUSTOMDPI
 70
   300
  0
XRECORD
  5
1DFF
102
{ACAD_REACTORS
330
1DFE
102
}
330
1DFE
100
AcDbXrecord
280
     1
102
SHADEPLOT
 70
     0
102
SHADEPLOTRESLEVEL
 70
     2
102
SHADEPLOTCUSTOMDPI
 70
   300
  0
XRECORD
  5
1E01
102
{ACAD_REACTORS
330
1E00
102
}
330
1E00
100
AcDbXrecord
280
     1
102
SHADEPLOT
 70
     0
102
SHADEPLOTRESLEVEL
 70
     2
102
SHADEPLOTCUSTOMDPI
 70
   300
  0
XRECORD
  5
1E03
102
{ACAD_REACTORS
330
1E02
102
}
330
1E02
100
AcDbXrecord
280
     1
102
SHADEPLOT
 70
     0
102
SHADEPLOTRESLEVEL
 70
     2
102
SHADEPLOTCUSTOMDPI
 70
   300
  0
XRECORD
  5
1E07
102
{ACAD_REACTORS
330
1E06
102
}
330
1E06
100
AcDbXrecord
280
     1
102
SHADEPLOT
 70
     0
102
SHADEPLOTRESLEVEL
 70
     2
102
SHADEPLOTCUSTOMDPI
 70
   300
  0
XRECORD
  5
1E09
102
{ACAD_REACTORS
330
1E08
102
}
330
1E08
100
AcDbXrecord
280
     1
102
SHADEPLOT
 70
     0
102
SHADEPLOTRESLEVEL
 70
     2
102
SHADEPLOTCUSTOMDPI
 70
   300
  0
XRECORD
  5
1E0B
102
{ACAD_REACTORS
330
1E0A
102
}
330
1E0A
100
AcDbXrecord
280
     1
102
SHADEPLOT
 70
     0
102
SHADEPLOTRESLEVEL
 70
     2
102
SHADEPLOTCUSTOMDPI
 70
   300
  0
XRECORD
  5
1E0D
102
{ACAD_REACTORS
330
1E0C
102
}
330
1E0C
100
AcDbXrecord
280
     1
102
SHADEPLOT
 70
     0
102
SHADEPLOTRESLEVEL
 70
     2
102
SHADEPLOTCUSTOMDPI
 70
   300
  0
XRECORD
  5
1E0F
102
{ACAD_REACTORS
330
1E0E
102
}
330
1E0E
100
AcDbXrecord
280
     1
102
SHADEPLOT
 70
     0
102
SHADEPLOTRESLEVEL
 70
     2
102
SHADEPLOTCUSTOMDPI
 70
   300
  0
XRECORD
  5
1E05
102
{ACAD_REACTORS
330
1E04
102
}
330
1E04
100
AcDbXrecord
280
     1
102
SHADEPLOT
 70
     0
102
SHADEPLOTRESLEVEL
 70
     2
102
SHADEPLOTCUSTOMDPI
 70
   300
  0
XRECORD
  5
1E11
102
{ACAD_REACTORS
330
1E10
102
}
330
1E10
100
AcDbXrecord
280
     1
102
ACAD_ROUNDTRIP_PRE2007_TABLESTYLE
 90
        4
 91
        0
  1

 92
        4
 93
        0
  2

 94
        4
 95
        0
  3

  0
ENDSEC
  0
EOF
