  0
SECTION
  2
HEADER
  9
$ACADVER
  1
AC1015
  9
$ACADMAINTVER
 70
    20
  9
$DWGCODEPAGE
  3
ANSI_1252
  9
$INSBASE
 10
0.0
 20
0.0
 30
0.0
  9
$EXTMIN
 10
4.6660667351907
 20
9.660016709443697
 30
0.0
  9
$EXTMAX
 10
81.66606673519074
 20
43.66001670944377
 30
0.0
  9
$LIMMIN
 10
0.0
 20
0.0
  9
$LIMMAX
 10
0.0
 20
0.0
  9
$ORTHOMODE
 70
     0
  9
$REGENMODE
 70
     1
  9
$FILLMODE
 70
     1
  9
$QTEXTMODE
 70
     0
  9
$MIRRTEXT
 70
     1
  9
$LTSCALE
 40
1.0
  9
$ATTMODE
 70
     1
  9
$TEXTSIZE
 40
0.0
  9
$TRACEWID
 40
0.05
  9
$TEXTSTYLE
  7
STANDARD
  9
$CLAYER
  8
template
  9
$CELTYPE
  6
CONTINUOUS
  9
$CECOLOR
 62
   142
  9
$CELTSCALE
 40
4.0
  9
$DISPSILH
 70
     0
  9
$DIMSCALE
 40
1.0
  9
$DIMASZ
 40
0.18
  9
$DIMEXO
 40
0.625
  9
$DIMDLI
 40
0.38
  9
$DIMRND
 40
0.0
  9
$DIMDLE
 40
0.0
  9
$DIMEXE
 40
0.18
  9
$DIMTP
 40
0.0
  9
$DIMTM
 40
0.0
  9
$DIMTXT
 40
0.25
  9
$DIMCEN
 40
0.09
  9
$DIMTSZ
 40
0.0
  9
$DIMTOL
 70
     0
  9
$DIMLIM
 70
     0
  9
$DIMTIH
 70
     1
  9
$DIMTOH
 70
     1
  9
$DIMSE1
 70
     0
  9
$DIMSE2
 70
     0
  9
$DIMTAD
 70
     0
  9
$DIMZIN
 70
     8
  9
$DIMBLK
  1

  9
$DIMASO
 70
     1
  9
$DIMSHO
 70
     1
  9
$DIMPOST
  1
"\X
  9
$DIMAPOST
  1
mm
  9
$DIMALT
 70
     1
  9
$DIMALTD
 70
     0
  9
$DIMALTF
 40
25.4
  9
$DIMLFAC
 40
1.0
  9
$DIMTOFL
 70
     0
  9
$DIMTVP
 40
0.0
  9
$DIMTIX
 70
     0
  9
$DIMSOXD
 70
     0
  9
$DIMSAH
 70
     0
  9
$DIMBLK1
  1

  9
$DIMBLK2
  1

  9
$DIMSTYLE
  2
STANDARD
  9
$DIMCLRD
 70
     0
  9
$DIMCLRE
 70
     0
  9
$DIMCLRT
 70
     0
  9
$DIMTFAC
 40
1.0
  9
$DIMGAP
 40
0.09
  9
$DIMJUST
 70
     0
  9
$DIMSD1
 70
     0
  9
$DIMSD2
 70
     0
  9
$DIMTOLJ
 70
     1
  9
$DIMTZIN
 70
     0
  9
$DIMALTZ
 70
     0
  9
$DIMALTTZ
 70
     0
  9
$DIMUPT
 70
     0
  9
$DIMDEC
 70
     4
  9
$DIMTDEC
 70
     4
  9
$DIMALTU
 70
     2
  9
$DIMALTTD
 70
     0
  9
$DIMTXSTY
  7
ARIAL
  9
$DIMAUNIT
 70
     0
  9
$DIMADEC
 70
     0
  9
$DIMALTRND
 40
0.0
  9
$DIMAZIN
 70
     0
  9
$DIMDSEP
 70
    46
  9
$DIMATFIT
 70
     3
  9
$DIMFRAC
 70
     0
  9
$DIMLDRBLK
  1

  9
$DIMLUNIT
 70
     5
  9
$DIMLWD
 70
    -2
  9
$DIMLWE
 70
    -2
  9
$DIMTMOVE
 70
     0
  9
$LUNITS
 70
     2
  9
$LUPREC
 70
     4
  9
$SKETCHINC
 40
0.1
  9
$FILLETRAD
 40
0.0
  9
$AUNITS
 70
     0
  9
$AUPREC
 70
     0
  9
$MENU
  1
acad
  9
$ELEVATION
 40
0.0
  9
$PELEVATION
 40
0.0
  9
$THICKNESS
 40
0.3
  9
$LIMCHECK
 70
     0
  9
$CHAMFERA
 40
0.0
  9
$CHAMFERB
 40
0.0
  9
$CHAMFERC
 40
0.0
  9
$CHAMFERD
 40
0.0
  9
$SKPOLY
 70
     0
  9
$TDCREATE
 40
2311888.289094722
  9
$TDUCREATE
 40
2311888.622428055
  9
$TDUPDATE
 40
2455154.425472176
  9
$TDUUPDATE
 40
2455154.758805509
  9
$TDINDWG
 40
0.7309749306
  9
$TDUSRTIMER
 40
0.7309727662
  9
$USRTIMER
 70
     1
  9
$ANGBASE
 50
0.0
  9
$ANGDIR
 70
     0
  9
$PDMODE
 70
     0
  9
$PDSIZE
 40
0.0
  9
$PLINEWID
 40
0.0
  9
$SPLFRAME
 70
     0
  9
$SPLINETYPE
 70
     6
  9
$SPLINESEGS
 70
     8
  9
$HANDSEED
  5
7942
  9
$SURFTAB1
 70
     6
  9
$SURFTAB2
 70
     6
  9
$SURFTYPE
 70
     6
  9
$SURFU
 70
     6
  9
$SURFV
 70
     6
  9
$UCSBASE
  2

  9
$UCSNAME
  2

  9
$UCSORG
 10
0.0
 20
0.0
 30
0.0
  9
$UCSXDIR
 10
1.0
 20
0.0
 30
0.0
  9
$UCSYDIR
 10
0.0
 20
1.0
 30
0.0
  9
$UCSORTHOREF
  2

  9
$UCSORTHOVIEW
 70
     0
  9
$UCSORGTOP
 10
0.0
 20
0.0
 30
0.0
  9
$UCSORGBOTTOM
 10
0.0
 20
0.0
 30
0.0
  9
$UCSORGLEFT
 10
0.0
 20
0.0
 30
0.0
  9
$UCSORGRIGHT
 10
0.0
 20
0.0
 30
0.0
  9
$UCSORGFRONT
 10
0.0
 20
0.0
 30
0.0
  9
$UCSORGBACK
 10
0.0
 20
0.0
 30
0.0
  9
$PUCSBASE
  2

  9
$PUCSNAME
  2

  9
$PUCSORG
 10
0.0
 20
0.0
 30
0.0
  9
$PUCSXDIR
 10
1.0
 20
0.0
 30
0.0
  9
$PUCSYDIR
 10
0.0
 20
1.0
 30
0.0
  9
$PUCSORTHOREF
  2

  9
$PUCSORTHOVIEW
 70
     0
  9
$PUCSORGTOP
 10
0.0
 20
0.0
 30
0.0
  9
$PUCSORGBOTTOM
 10
0.0
 20
0.0
 30
0.0
  9
$PUCSORGLEFT
 10
0.0
 20
0.0
 30
0.0
  9
$PUCSORGRIGHT
 10
0.0
 20
0.0
 30
0.0
  9
$PUCSORGFRONT
 10
0.0
 20
0.0
 30
0.0
  9
$PUCSORGBACK
 10
0.0
 20
0.0
 30
0.0
  9
$USERI1
 70
     0
  9
$USERI2
 70
     0
  9
$USERI3
 70
     0
  9
$USERI4
 70
     0
  9
$USERI5
 70
     0
  9
$USERR1
 40
11.65
  9
$USERR2
 40
0.0
  9
$USERR3
 40
0.0
  9
$USERR4
 40
0.0
  9
$USERR5
 40
0.0
  9
$WORLDVIEW
 70
     1
  9
$SHADEDGE
 70
     3
  9
$SHADEDIF
 70
    70
  9
$TILEMODE
 70
     1
  9
$MAXACTVP
 70
    16
  9
$PINSBASE
 10
0.0
 20
0.0
 30
0.0
  9
$PLIMCHECK
 70
     0
  9
$PEXTMIN
 10
29.0650012254715
 20
20.3649996995926
 30
0.0
  9
$PEXTMAX
 10
261.5850110292434
 20
183.2849972963333
 30
0.0
  9
$PLIMMIN
 10
-3.17498779296875
 20
-3.174999952316284
  9
$PLIMMAX
 10
293.8250122070312
 20
206.8250000476837
  9
$UNITMODE
 70
     0
  9
$VISRETAIN
 70
     0
  9
$PLINEGEN
 70
     1
  9
$PSLTSCALE
 70
     1
  9
$TREEDEPTH
 70
  3020
  9
$CMLSTYLE
  2
STANDARD
  9
$CMLJUST
 70
     0
  9
$CMLSCALE
 40
1.0
  9
$PROXYGRAPHICS
 70
     0
  9
$MEASUREMENT
 70
     1
  9
$CELWEIGHT
370
    -1
  9
$ENDCAPS
280
     0
  9
$JOINSTYLE
280
     0
  9
$LWDISPLAY
290
     1
  9
$INSUNITS
 70
     0
  9
$HYPERLINKBASE
  1

  9
$STYLESHEET
  1
monochrome.ctb
  9
$XEDIT
290
     1
  9
$CEPSNTYPE
380
     0
  9
$PSTYLEMODE
290
     1
  9
$FINGERPRINTGUID
  2
{A2D022F8-F542-4357-A35A-AF02B7EA8789}
  9
$VERSIONGUID
  2
{CFE9B5D4-4468-479E-AE84-562F67B0C716}
  9
$EXTNAMES
290
     1
  9
$PSVPSCALE
 40
0.0
  9
$OLESTARTUP
290
     0
  0
ENDSEC
  0
SECTION
  2
CLASSES
  0
CLASS
  1
IMAGE
  2
AcDbRasterImage
  3
ISM
 90
    34943
280
     0
281
     1
  0
CLASS
  1
DICTIONARYVAR
  2
AcDbDictionaryVar
  3
ObjectDBX Classes
 90
        0
280
     0
281
     0
  0
CLASS
  1
RASTERVARIABLES
  2
AcDbRasterVariables
  3
ISM
 90
    32768
280
     0
281
     0
  0
CLASS
  1
IMAGEDEF
  2
AcDbRasterImageDef
  3
ISM
 90
    32768
280
     0
281
     0
  0
CLASS
  1
IMAGEDEF_REACTOR
  2
AcDbRasterImageDefReactor
  3
ISM
 90
    32769
280
     0
281
     0
  0
CLASS
  1
IDBUFFER
  2
AcDbIdBuffer
  3
ObjectDBX Classes
 90
    32768
280
     0
281
     0
  0
CLASS
  1
SPATIAL_FILTER
  2
AcDbSpatialFilter
  3
ObjectDBX Classes
 90
    32768
280
     0
281
     0
  0
CLASS
  1
SORTENTSTABLE
  2
AcDbSortentsTable
  3
ObjectDBX Classes
 90
        0
280
     0
281
     0
  0
CLASS
  1
LAYER_INDEX
  2
AcDbLayerIndex
  3
ObjectDBX Classes
 90
    32768
280
     0
281
     0
  0
CLASS
  1
SPATIAL_INDEX
  2
AcDbSpatialIndex
  3
ObjectDBX Classes
 90
    32768
280
     0
281
     0
  0
CLASS
  1
OBJECT_PTR
  2
CAseDLPNTableRecord
  3
"ASE-LPNTableRecord"
 90
    32769
280
     0
281
     0
  0
CLASS
  1
LAYOUT
  2
AcDbLayout
  3
ObjectDBX Classes
 90
        0
280
     0
281
     0
  0
CLASS
  1
PLOTSETTINGS
  2
AcDbPlotSettings
  3
ObjectDBX Classes
 90
        0
280
     0
281
     0
  0
CLASS
  1
ACDBDICTIONARYWDFLT
  2
AcDbDictionaryWithDefault
  3
ObjectDBX Classes
 90
        0
280
     0
281
     0
  0
CLASS
  1
ACDBPLACEHOLDER
  2
AcDbPlaceHolder
  3
ObjectDBX Classes
 90
        0
280
     0
281
     0
  0
CLASS
  1
MATERIAL
  2
AcDbMaterial
  3
ObjectDBX Classes
 90
     1024
280
     0
281
     0
  0
CLASS
  1
VISUALSTYLE
  2
AcDbVisualStyle
  3
ObjectDBX Classes
 90
     4095
280
     0
281
     0
  0
CLASS
  1
TABLESTYLE
  2
AcDbTableStyle
  3
ObjectDBX Classes
 90
     4095
280
     0
281
     0
  0
CLASS
  1
DBCOLOR
  2
AcDbColor
  3
ObjectDBX Classes
 90
        0
280
     0
281
     0
  0
CLASS
  1
DIMASSOC
  2
AcDbDimAssoc
  3
"AcDbDimAssoc|Product Desc:     AcDim ARX App For Dimension|Company:          Autodesk, Inc.|WEB Address:      www.autodesk.com"
 90
        0
280
     0
281
     0
  0
CLASS
  1
SOLID_BACKGROUND
  2
AcDbSolidBackground
  3
SCENEOE
 90
    36863
280
     0
281
     0
  0
CLASS
  1
NPOCOLLECTION
  2
AcDbImpNonPersistentObjectsCollection
  3
ObjectDBX Classes
 90
    33921
280
     0
281
     0
  0
ENDSEC
  0
SECTION
  2
TABLES
  0
TABLE
  2
VPORT
  5
7
102
{ACAD_XDICTIONARY
360
5682
102
}
330
0
100
AcDbSymbolTable
 70
     1
  0
VPORT
  5
15
330
7
100
AcDbSymbolTableRecord
100
AcDbViewportTableRecord
  2
*ACTIVE
 70
     0
 10
0.0
 20
0.0
 11
1.0
 21
1.0
 12
43.16885241641264
 22
32.6748939199553
 13
0.0
 23
0.0
 14
1.0
 24
1.0
 15
0.0
 25
0.0
 16
0.0
 26
0.0
 36
1.0
 17
0.0
 27
0.0
 37
0.0
 40
46.46207195375093
 41
1.835195530726257
 42
50.0
 43
0.0
 44
0.0
 50
0.0
 51
0.0
 71
     0
 72
   100
 73
     1
 74
     1
 75
     0
 76
     0
 77
     0
 78
     0
281
     0
 65
     1
110
0.0
120
0.0
130
0.0
111
1.0
121
0.0
131
0.0
112
0.0
122
1.0
132
0.0
 79
     0
146
0.0
  0
ENDTAB
  0
TABLE
  2
LTYPE
  5
4
330
0
100
AcDbSymbolTable
 70
     6
  0
LTYPE
  5
11
330
4
100
AcDbSymbolTableRecord
100
AcDbLinetypeTableRecord
  2
BYBLOCK
 70
     0
  3

 72
    65
 73
     0
 40
0.0
  0
LTYPE
  5
12
330
4
100
AcDbSymbolTableRecord
100
AcDbLinetypeTableRecord
  2
BYLAYER
 70
     0
  3

 72
    65
 73
     0
 40
0.0
  0
LTYPE
  5
13
330
4
100
AcDbSymbolTableRecord
100
AcDbLinetypeTableRecord
  2
CONTINUOUS
 70
     0
  3
Solid line
 72
    65
 73
     0
 40
0.0
  0
LTYPE
  5
7327
330
4
100
AcDbSymbolTableRecord
100
AcDbLinetypeTableRecord
  2
CENTER2
 70
     0
  3
Center (.5x) ___ _ ___ _ ___ _ ___ _ ___ _ ___
 72
    65
 73
     4
 40
28.575
 49
19.05
 74
     0
 49
-3.174999999999999
 74
     0
 49
3.174999999999999
 74
     0
 49
-3.174999999999999
 74
     0
  0
LTYPE
  5
7328
330
4
100
AcDbSymbolTableRecord
100
AcDbLinetypeTableRecord
  2
ACAD_ISO02W100
 70
     0
  3
ISO dash __ __ __ __ __ __ __ __ __ __ __ __ __
 72
    65
 73
     2
 40
15.0
 49
12.0
 74
     0
 49
-3.0
 74
     0
  0
LTYPE
  5
7329
330
4
100
AcDbSymbolTableRecord
100
AcDbLinetypeTableRecord
  2
DIVIDE
 70
     0
  3
Divide ____ . . ____ . . ____ . . ____ . . ____
 72
    65
 73
     6
 40
31.75
 49
12.7
 74
     0
 49
-6.349999999999999
 74
     0
 49
0.0
 74
     0
 49
-6.349999999999999
 74
     0
 49
0.0
 74
     0
 49
-6.349999999999999
 74
     0
  0
LTYPE
  5
732A
330
4
100
AcDbSymbolTableRecord
100
AcDbLinetypeTableRecord
  2
CENTER
 70
     0
  3
--- - --- - --- - --- - --- -
 72
    65
 73
     4
 40
6.0
 49
3.0
 74
     0
 49
-1.0
 74
     0
 49
1.0
 74
     0
 49
-1.0
 74
     0
  0
LTYPE
  5
732B
330
4
100
AcDbSymbolTableRecord
100
AcDbLinetypeTableRecord
  2
CENTERX2
 70
     0
  3
Center (2x) ________  __  ________  __  _____
 72
    65
 73
     4
 40
101.6
 49
63.5
 74
     0
 49
-12.7
 74
     0
 49
12.7
 74
     0
 49
-12.7
 74
     0
  0
ENDTAB
  0
TABLE
  2
LAYER
  5
2
102
{ACAD_XDICTIONARY
360
46A5
102
}
330
0
100
AcDbSymbolTable
 70
     8
  0
LAYER
  5
14
330
2
100
AcDbSymbolTableRecord
100
AcDbLayerTableRecord
  2
0
 70
     0
 62
     7
  6
CONTINUOUS
370
    -3
390
2A5A
  0
LAYER
  5
46E9
330
2
100
AcDbSymbolTableRecord
100
AcDbLayerTableRecord
  2
template
 70
     0
 62
   142
  6
CONTINUOUS
370
    -3
390
2A5A
1001
AcAecLayerStandard
1000

1000

  0
LAYER
  5
4795
330
2
100
AcDbSymbolTableRecord
100
AcDbLayerTableRecord
  2
Defpoints
 70
     0
 62
     7
  6
CONTINUOUS
290
     0
370
    -3
390
2A5A
  0
LAYER
  5
732C
330
2
100
AcDbSymbolTableRecord
100
AcDbLayerTableRecord
  2
\U+56FE\U+5C421
 70
     0
 62
     3
  6
CONTINUOUS
370
     9
390
2A5A
1001
AcadStringInfo
1000
MIFCodePage
1070
     5
  0
LAYER
  5
732D
330
2
100
AcDbSymbolTableRecord
100
AcDbLayerTableRecord
  2
\U+56FE\U+5C423
 70
     0
 62
     6
  6
CENTER2
370
     9
390
2A5A
1001
AcadStringInfo
1000
MIFCodePage
1070
     5
  0
LAYER
  5
732E
330
2
100
AcDbSymbolTableRecord
100
AcDbLayerTableRecord
  2
\U+56FE\U+5C424
 70
     0
 62
     4
  6
CONTINUOUS
370
     9
390
2A5A
1001
AcadStringInfo
1000
MIFCodePage
1070
     5
  0
LAYER
  5
732F
330
2
100
AcDbSymbolTableRecord
100
AcDbLayerTableRecord
  2
\U+56FE\U+5C425
 70
     0
 62
     1
  6
CONTINUOUS
370
     9
390
2A5A
1001
AcadStringInfo
1000
MIFCodePage
1070
     5
  0
LAYER
  5
7330
330
2
100
AcDbSymbolTableRecord
100
AcDbLayerTableRecord
  2
\U+56FE\U+5C422
 70
     0
 62
     2
  6
ACAD_ISO02W100
370
     9
390
2A5A
1001
AcadStringInfo
1000
MIFCodePage
1070
     5
  0
ENDTAB
  0
TABLE
  2
STYLE
  5
3
330
0
100
AcDbSymbolTable
 70
     5
  0
STYLE
  5
17
330
3
100
AcDbSymbolTableRecord
100
AcDbTextStyleTableRecord
  2
STANDARD
 70
     0
 40
0.0
 41
1.0
 50
0.0
 71
     0
 42
0.0
  3
txt
  4

  0
STYLE
  5
4799
330
3
100
AcDbSymbolTableRecord
100
AcDbTextStyleTableRecord
  2
ARIAL
 70
     0
 40
0.0
 41
1.0
 50
0.0
 71
     0
 42
3.0
  3
ARIALBD.TTF
  4

1001
ACAD
1000
Arial
1071
 33554466
  0
STYLE
  5
5EDA
330
3
100
AcDbSymbolTableRecord
100
AcDbTextStyleTableRecord
  2
TEXTSTYLE_0
 70
     0
 40
0.0
 41
0.8
 50
0.0
 71
     0
 42
0.2
  3
txt
  4

  0
STYLE
  5
7331
330
3
100
AcDbSymbolTableRecord
100
AcDbTextStyleTableRecord
  2
\U+68071
 70
     0
 40
0.0
 41
1.0
 50
0.0
 71
     0
 42
6.0
  3

  4

1001
ACAD
1000
SimSun
1071
    34306
1001
AcadStringInfo
1000
MIFCodePage
1070
     5
  0
STYLE
  5
7332
330
3
100
AcDbSymbolTableRecord
100
AcDbTextStyleTableRecord
  2

 70
     1
 40
0.0
 41
1.0
 50
0.0
 71
     0
 42
2.5
  3
ltypeshp.shx
  4

  0
ENDTAB
  0
TABLE
  2
VIEW
  5
5
330
0
100
AcDbSymbolTable
 70
     0
  0
ENDTAB
  0
TABLE
  2
UCS
  5
6
330
0
100
AcDbSymbolTable
 70
     0
  0
ENDTAB
  0
TABLE
  2
APPID
  5
8
330
0
100
AcDbSymbolTable
 70
    19
  0
APPID
  5
16
330
8
100
AcDbSymbolTableRecord
100
AcDbRegAppTableRecord
  2
ACAD
 70
     0
  0
APPID
  5
46A4
330
8
100
AcDbSymbolTableRecord
100
AcDbRegAppTableRecord
  2
AcAecLayerStandard
 70
     0
  0
APPID
  5
46AF
330
8
100
AcDbSymbolTableRecord
100
AcDbRegAppTableRecord
  2
ACAD_PSEXT
 70
     0
  0
APPID
  5
46C1
330
8
100
AcDbSymbolTableRecord
100
AcDbRegAppTableRecord
  2
ACAD_EXEMPT_FROM_CAD_STANDARDS
 70
     0
  0
APPID
  5
47A0
330
8
100
AcDbSymbolTableRecord
100
AcDbRegAppTableRecord
  2
DCO15
 70
     0
  0
APPID
  5
47A1
330
8
100
AcDbSymbolTableRecord
100
AcDbRegAppTableRecord
  2
ACAD_DSTYLE_DIMTEXT_FILL
 70
     0
  0
APPID
  5
47A2
330
8
100
AcDbSymbolTableRecord
100
AcDbRegAppTableRecord
  2
ACAD_DSTYLE_DIMEXT_LENGTH
 70
     0
  0
APPID
  5
47A3
330
8
100
AcDbSymbolTableRecord
100
AcDbRegAppTableRecord
  2
ACAD_DSTYLE_DIMEXT_ENABLED
 70
     0
  0
APPID
  5
47A4
330
8
100
AcDbSymbolTableRecord
100
AcDbRegAppTableRecord
  2
ACAD_DSTYLE_DIM_LINETYPE
 70
     0
  0
APPID
  5
47A5
330
8
100
AcDbSymbolTableRecord
100
AcDbRegAppTableRecord
  2
ACAD_DSTYLE_DIM_EXT1_LINETYPE
 70
     0
  0
APPID
  5
47A6
330
8
100
AcDbSymbolTableRecord
100
AcDbRegAppTableRecord
  2
ACAD_DSTYLE_DIM_EXT2_LINETYPE
 70
     0
  0
APPID
  5
47A7
330
8
100
AcDbSymbolTableRecord
100
AcDbRegAppTableRecord
  2
ACAD_DSTYLE_DIMJOGGED_JOGANGLE_SYMBOL
 70
     0
  0
APPID
  5
47A8
330
8
100
AcDbSymbolTableRecord
100
AcDbRegAppTableRecord
  2
ACAD_DSTYLE_DIMARC_LENGTH_SYMBOL
 70
     0
  0
APPID
  5
5427
330
8
100
AcDbSymbolTableRecord
100
AcDbRegAppTableRecord
  2
AcadStringInfo
 70
     0
  0
APPID
  5
5567
330
8
100
AcDbSymbolTableRecord
100
AcDbRegAppTableRecord
  2
RAK
 70
     0
  0
APPID
  5
5568
330
8
100
AcDbSymbolTableRecord
100
AcDbRegAppTableRecord
  2
ACAUTHENVIRON
 70
     0
  0
APPID
  5
5569
330
8
100
AcDbSymbolTableRecord
100
AcDbRegAppTableRecord
  2
AcDbDynamicBlockTrueName
 70
     0
  0
APPID
  5
556A
330
8
100
AcDbSymbolTableRecord
100
AcDbRegAppTableRecord
  2
AcDbDynamicBlockGUID
 70
     0
  0
APPID
  5
556B
330
8
100
AcDbSymbolTableRecord
100
AcDbRegAppTableRecord
  2
AcDbBlockRepETag
 70
     0
  0
ENDTAB
  0
TABLE
  2
DIMSTYLE
  5
9
330
0
100
AcDbSymbolTable
 70
     4
100
AcDbDimStyleTable
 71
     1
340
18
  0
DIMSTYLE
105
18
102
{ACAD_REACTORS
330
639B
330
6BD7
330
7832
330
7841
102
}
330
9
100
AcDbSymbolTableRecord
100
AcDbDimStyleTableRecord
  2
STANDARD
 70
     0
  3
"\X
  4
mm
 42
0.625
 78
     8
140
0.25
170
     1
171
     0
274
     0
277
     5
340
4799
  0
DIMSTYLE
105
7333
102
{ACAD_REACTORS
330
7361
330
735E
330
7350
330
734C
330
7348
330
7345
330
7342
330
733F
330
7353
330
73A0
330
734F
330
7385
330
738D
330
738F
330
738E
330
7374
330
7365
330
7337
330
73A3
330
73CA
330
73CB
102
}
330
9
100
AcDbSymbolTableRecord
100
AcDbDimStyleTableRecord
  2
ISO-25
 70
     0
 41
15.0
 42
1.0
 43
3.75
 44
1.0
 73
     0
 74
     0
 77
     1
 78
     8
140
15.0
141
2.5
143
0.03937007874016
147
2.0
171
     3
271
     2
272
     2
274
     3
283
     0
284
     8
340
17
  0
DIMSTYLE
105
7334
330
9
100
AcDbSymbolTableRecord
100
AcDbDimStyleTableRecord
  2
3
 70
     0
 41
15.0
 42
1.0
 43
3.75
 44
1.0
 73
     0
 74
     0
 77
     1
 78
     8
140
15.0
141
0.0
143
0.03937007874016
144
0.3333333333333333
147
2.0
171
     3
179
     2
271
     2
272
     2
274
     3
283
     0
284
     8
340
17
  0
DIMSTYLE
105
7335
330
9
100
AcDbSymbolTableRecord
100
AcDbDimStyleTableRecord
  2
6
 70
     0
 41
15.0
 42
1.0
 43
3.75
 44
1.0
 73
     0
 74
     0
 77
     1
 78
     8
140
15.0
141
0.0
143
0.03937007874016
144
0.1666666666666666
147
2.0
171
     3
179
     2
271
     2
272
     2
274
     3
283
     0
284
     8
340
17
  0
ENDTAB
  0
TABLE
  2
BLOCK_RECORD
  5
1
330
0
100
AcDbSymbolTable
 70
    60
  0
BLOCK_RECORD
  5
A
102
{ACAD_XDICTIONARY
360
2A7B
102
}
330
1
100
AcDbSymbolTableRecord
100
AcDbBlockTableRecord
  2
*MODEL_SPACE
340
2A76
  0
BLOCK_RECORD
  5
6413
330
1
100
AcDbSymbolTableRecord
100
AcDbBlockTableRecord
  2
*Paper_Space
340
6414
  0
BLOCK_RECORD
  5
71E6
330
1
100
AcDbSymbolTableRecord
100
AcDbBlockTableRecord
  2
A$C55D13F06
340
0
  0
BLOCK_RECORD
  5
71EA
330
1
100
AcDbSymbolTableRecord
100
AcDbBlockTableRecord
  2
*D13
340
0
  0
BLOCK_RECORD
  5
71F6
330
1
100
AcDbSymbolTableRecord
100
AcDbBlockTableRecord
  2
*D14
340
0
  0
BLOCK_RECORD
  5
7202
330
1
100
AcDbSymbolTableRecord
100
AcDbBlockTableRecord
  2
*D15
340
0
  0
BLOCK_RECORD
  5
720E
330
1
100
AcDbSymbolTableRecord
100
AcDbBlockTableRecord
  2
*D16
340
0
  0
BLOCK_RECORD
  5
721A
330
1
100
AcDbSymbolTableRecord
100
AcDbBlockTableRecord
  2
*D17
340
0
  0
BLOCK_RECORD
  5
7222
330
1
100
AcDbSymbolTableRecord
100
AcDbBlockTableRecord
  2
*D18
340
0
  0
BLOCK_RECORD
  5
722A
330
1
100
AcDbSymbolTableRecord
100
AcDbBlockTableRecord
  2
*D19
340
0
  0
BLOCK_RECORD
  5
7232
330
1
100
AcDbSymbolTableRecord
100
AcDbBlockTableRecord
  2
*D20
340
0
  0
BLOCK_RECORD
  5
723E
330
1
100
AcDbSymbolTableRecord
100
AcDbBlockTableRecord
  2
*D21
340
0
  0
BLOCK_RECORD
  5
7246
330
1
100
AcDbSymbolTableRecord
100
AcDbBlockTableRecord
  2
*D22
340
0
  0
BLOCK_RECORD
  5
724E
330
1
100
AcDbSymbolTableRecord
100
AcDbBlockTableRecord
  2
*D23
340
0
  0
BLOCK_RECORD
  5
725A
330
1
100
AcDbSymbolTableRecord
100
AcDbBlockTableRecord
  2
*D24
340
0
  0
BLOCK_RECORD
  5
7262
330
1
100
AcDbSymbolTableRecord
100
AcDbBlockTableRecord
  2
*D25
340
0
  0
BLOCK_RECORD
  5
726A
330
1
100
AcDbSymbolTableRecord
100
AcDbBlockTableRecord
  2
*D26
340
0
  0
BLOCK_RECORD
  5
7277
330
1
100
AcDbSymbolTableRecord
100
AcDbBlockTableRecord
  2
*D27
340
0
  0
BLOCK_RECORD
  5
7283
330
1
100
AcDbSymbolTableRecord
100
AcDbBlockTableRecord
  2
*D28
340
0
  0
BLOCK_RECORD
  5
728F
330
1
100
AcDbSymbolTableRecord
100
AcDbBlockTableRecord
  2
*D29
340
0
  0
BLOCK_RECORD
  5
729C
330
1
100
AcDbSymbolTableRecord
100
AcDbBlockTableRecord
  2
*D30
340
0
  0
BLOCK_RECORD
  5
72A8
330
1
100
AcDbSymbolTableRecord
100
AcDbBlockTableRecord
  2
_Open
340
0
102
{BLKREFS
331
72A1
331
72A2
331
7213
331
7214
331
7237
331
7238
331
7207
331
7208
331
7253
331
7254
331
71FB
331
71FC
331
71EF
331
71F0
331
721E
331
72B2
331
725E
331
7736
331
7737
331
7768
331
7769
331
777F
331
7780
331
7789
331
778A
331
7794
331
7795
331
77CA
331
77E8
331
77EF
331
77F0
331
77F9
331
77FA
331
7801
102
}
  0
BLOCK_RECORD
  5
72AE
330
1
100
AcDbSymbolTableRecord
100
AcDbBlockTableRecord
  2
*D32
340
0
  0
BLOCK_RECORD
  5
72B6
330
1
100
AcDbSymbolTableRecord
100
AcDbBlockTableRecord
  2
*D33
340
0
  0
BLOCK_RECORD
  5
72C2
330
1
100
AcDbSymbolTableRecord
100
AcDbBlockTableRecord
  2
*D34
340
0
  0
BLOCK_RECORD
  5
72CE
330
1
100
AcDbSymbolTableRecord
100
AcDbBlockTableRecord
  2
A$C63C967E0
340
0
  0
BLOCK_RECORD
  5
7336
330
1
100
AcDbSymbolTableRecord
100
AcDbBlockTableRecord
  2
FBY1500.FBY1550 FBY1700 FBY1800
340
0
1001
ACAD
1000
DesignCenter Data
1002
{
1070
     1
1070
     4
1002
}
  0
BLOCK_RECORD
  5
7833
330
1
100
AcDbSymbolTableRecord
100
AcDbBlockTableRecord
  2
*D58
340
0
  0
BLOCK_RECORD
  5
7842
330
1
100
AcDbSymbolTableRecord
100
AcDbBlockTableRecord
  2
*D59
340
0
  0
ENDTAB
  0
ENDSEC
  0
SECTION
  2
BLOCKS
  0
BLOCK
  5
D
330
A
100
AcDbEntity
  8
0
100
AcDbBlockBegin
  2
*MODEL_SPACE
 70
     0
 10
0.0
 20
0.0
 30
0.0
  3
*MODEL_SPACE
  1

  0
ENDBLK
  5
E
330
A
100
AcDbEntity
  8
0
100
AcDbBlockEnd
  0
BLOCK
  5
6415
330
6413
100
AcDbEntity
 67
     1
  8
0
 62
   142
 48
4.0
100
AcDbBlockBegin
  2
*Paper_Space
 70
     0
 10
0.0
 20
0.0
 30
0.0
  3
*Paper_Space
  1

  0
ENDBLK
  5
6416
330
6413
100
AcDbEntity
 67
     1
  8
0
 62
   142
 48
4.0
100
AcDbBlockEnd
  0
BLOCK
  5
71E7
330
71E6
100
AcDbEntity
  8
0
100
AcDbBlockBegin
  2
A$C55D13F06
 70
     0
 10
0.0
 20
0.0
 30
0.0
  3
A$C55D13F06
  1

  0
TEXT
  5
71E8
330
71E6
100
AcDbEntity
  8
0
100
AcDbText
 10
1.285922457878143
 20
2.370174356946852
 30
0.0
 40
8.8
  1
\U+5357\U+4EAC\U+4E1C\U+9676\U+6709\U+9650\U+516C\U+53F8
 41
0.6600000000000001
  7
\U+68071
100
AcDbText
1001
AcadStringInfo
1000
MIFCodePage
1070
     5
  0
ENDBLK
  5
71E9
330
71E6
100
AcDbEntity
  8
0
100
AcDbBlockEnd
  0
BLOCK
  5
71EB
330
71EA
100
AcDbEntity
  8
0
100
AcDbBlockBegin
  2
*D13
 70
     1
 10
0.0
 20
0.0
 30
0.0
  3
*D13
  1

  0
LINE
  5
71EC
330
71EA
100
AcDbEntity
  8
\U+56FE\U+5C421
 62
     0
370
    -2
100
AcDbLine
 10
27107.37582039126
 20
9247.699271992635
 30
0.0
 11
26914.84920160518
 21
9247.699271992635
 31
0.0
  0
LINE
  5
71ED
330
71EA
100
AcDbEntity
  8
\U+56FE\U+5C421
 62
     0
370
    -2
100
AcDbLine
 10
27108.37582039125
 20
9900.699271992642
 30
0.0
 11
26914.84920160518
 21
9900.699271992642
 31
0.0
  0
LINE
  5
71EE
330
71EA
100
AcDbEntity
  8
\U+56FE\U+5C421
 62
     0
370
    -2
100
AcDbLine
 10
26916.84920160518
 20
9277.699271992636
 30
0.0
 11
26916.84920160518
 21
9870.699271992641
 31
0.0
  0
INSERT
  5
71EF
330
71EA
100
AcDbEntity
  8
\U+56FE\U+5C421
 62
     0
370
    -2
100
AcDbBlockReference
  2
_Open
 10
26916.84920160518
 20
9247.699271992635
 30
0.0
 41
30.0
 42
30.0
 43
30.0
 50
270.0
  0
INSERT
  5
71F0
330
71EA
100
AcDbEntity
  8
\U+56FE\U+5C421
 62
     0
370
    -2
100
AcDbBlockReference
  2
_Open
 10
26916.84920160518
 20
9900.699271992642
 30
0.0
 41
30.0
 42
30.0
 43
30.0
 50
90.0
  0
MTEXT
  5
71F1
330
71EA
100
AcDbEntity
  8
\U+56FE\U+5C421
 62
     0
100
AcDbMText
 10
26899.84920160517
 20
9574.199271992643
 30
0.0
 40
30.0
 41
0.0
 71
     5
 72
     1
  1
653
 11
0.0000000000000001
 21
1.0
 31
0.0
 73
     1
 44
1.0
1001
ACAD
1000
MTEXTBEGIN
1070
    73
1070
     1
1070
    44
1040
1.0
1070
    74
1070
     0
1000
MTEXTEND
  0
POINT
  5
71F2
330
71EA
100
AcDbEntity
  8
Defpoints
 62
     0
100
AcDbPoint
 10
27109.37582039126
 20
9247.699271992635
 30
0.0
  0
POINT
  5
71F3
330
71EA
100
AcDbEntity
  8
Defpoints
 62
     0
100
AcDbPoint
 10
27110.37582039125
 20
9900.699271992642
 30
0.0
  0
POINT
  5
71F4
330
71EA
100
AcDbEntity
  8
Defpoints
 62
     0
100
AcDbPoint
 10
26916.84920160518
 20
9900.699271992642
 30
0.0
  0
ENDBLK
  5
71F5
330
71EA
100
AcDbEntity
  8
0
100
AcDbBlockEnd
  0
BLOCK
  5
71F7
330
71F6
100
AcDbEntity
  8
0
100
AcDbBlockBegin
  2
*D14
 70
     1
 10
0.0
 20
0.0
 30
0.0
  3
*D14
  1

  0
LINE
  5
71F8
330
71F6
100
AcDbEntity
  8
\U+56FE\U+5C421
 62
     0
370
    -2
100
AcDbLine
 10
27094.44307732272
 20
9815.69927199264
 30
0.0
 11
26991.30644287565
 21
9815.69927199264
 31
0.0
  0
LINE
  5
71F9
330
71F6
100
AcDbEntity
  8
\U+56FE\U+5C421
 62
     0
370
    -2
100
AcDbLine
 10
26992.30644287565
 20
9574.199271992638
 30
0.0
 11
26991.30644287565
 21
9574.199271992638
 31
0.0
  0
LINE
  5
71FA
330
71F6
100
AcDbEntity
  8
\U+56FE\U+5C421
 62
     0
370
    -2
100
AcDbLine
 10
26993.30644287565
 20
9785.699271992639
 30
0.0
 11
26993.30644287565
 21
9604.199271992639
 31
0.0
  0
INSERT
  5
71FB
330
71F6
100
AcDbEntity
  8
\U+56FE\U+5C421
 62
     0
370
    -2
100
AcDbBlockReference
  2
_Open
 10
26993.30644287565
 20
9815.69927199264
 30
0.0
 41
30.0
 42
30.0
 43
30.0
 50
90.0
  0
INSERT
  5
71FC
330
71F6
100
AcDbEntity
  8
\U+56FE\U+5C421
 62
     0
370
    -2
100
AcDbBlockReference
  2
_Open
 10
26993.30644287565
 20
9574.199271992638
 30
0.0
 41
30.0
 42
30.0
 43
30.0
 50
270.0
  0
MTEXT
  5
71FD
330
71F6
100
AcDbEntity
  8
\U+56FE\U+5C421
 62
     0
100
AcDbMText
 10
26976.30644287565
 20
9694.949271992642
 30
0.0
 40
30.0
 41
0.0
 71
     5
 72
     1
  1
241.5
 11
0.0000000000000001
 21
1.0
 31
0.0
 73
     1
 44
1.0
1001
ACAD
1000
MTEXTBEGIN
1070
    73
1070
     1
1070
    44
1040
1.0
1070
    74
1070
     0
1000
MTEXTEND
  0
POINT
  5
71FE
330
71F6
100
AcDbEntity
  8
Defpoints
 62
     0
100
AcDbPoint
 10
27096.44307732272
 20
9815.69927199264
 30
0.0
  0
POINT
  5
71FF
330
71F6
100
AcDbEntity
  8
Defpoints
 62
     0
100
AcDbPoint
 10
26994.30644287565
 20
9574.199271992638
 30
0.0
  0
POINT
  5
7200
330
71F6
100
AcDbEntity
  8
Defpoints
 62
     0
100
AcDbPoint
 10
26993.30644287565
 20
9574.199271992638
 30
0.0
  0
ENDBLK
  5
7201
330
71F6
100
AcDbEntity
  8
0
100
AcDbBlockEnd
  0
BLOCK
  5
7203
330
7202
100
AcDbEntity
  8
0
100
AcDbBlockBegin
  2
*D15
 70
     1
 10
0.0
 20
0.0
 30
0.0
  3
*D15
  1

  0
LINE
  5
7204
330
7202
100
AcDbEntity
  8
\U+56FE\U+5C421
 62
     0
370
    -2
100
AcDbLine
 10
28336.31784140738
 20
9788.585254165353
 30
0.0
 11
28336.31784140738
 21
10107.1173189325
 31
0.0
  0
LINE
  5
7205
330
7202
100
AcDbEntity
  8
\U+56FE\U+5C421
 62
     0
370
    -2
100
AcDbLine
 10
27724.31784140737
 20
10046.85117066238
 30
0.0
 11
27724.31784140737
 21
10107.1173189325
 31
0.0
  0
LINE
  5
7206
330
7202
100
AcDbEntity
  8
\U+56FE\U+5C421
 62
     0
370
    -2
100
AcDbLine
 10
28306.31784140738
 20
10105.1173189325
 30
0.0
 11
27754.31784140737
 21
10105.1173189325
 31
0.0
  0
INSERT
  5
7207
330
7202
100
AcDbEntity
  8
\U+56FE\U+5C421
 62
     0
370
    -2
100
AcDbBlockReference
  2
_Open
 10
28336.31784140738
 20
10105.1173189325
 30
0.0
 41
30.0
 42
30.0
 43
30.0
  0
INSERT
  5
7208
330
7202
100
AcDbEntity
  8
\U+56FE\U+5C421
 62
     0
370
    -2
100
AcDbBlockReference
  2
_Open
 10
27724.31784140737
 20
10105.1173189325
 30
0.0
 41
30.0
 42
30.0
 43
30.0
 50
180.0
  0
MTEXT
  5
7209
330
7202
100
AcDbEntity
  8
\U+56FE\U+5C421
 62
     0
100
AcDbMText
 10
28030.31784140737
 20
10122.1173189325
 30
0.0
 40
30.0
 41
0.0
 71
     5
 72
     1
  1
612
 73
     1
 44
1.0
1001
ACAD
1000
MTEXTBEGIN
1070
    73
1070
     1
1070
    44
1040
1.0
1070
    74
1070
     0
1000
MTEXTEND
  0
POINT
  5
720A
330
7202
100
AcDbEntity
  8
Defpoints
 62
     0
100
AcDbPoint
 10
28336.31784140738
 20
9786.585254165352
 30
0.0
  0
POINT
  5
720B
330
7202
100
AcDbEntity
  8
Defpoints
 62
     0
100
AcDbPoint
 10
27724.31784140737
 20
10044.85117066238
 30
0.0
  0
POINT
  5
720C
330
7202
100
AcDbEntity
  8
Defpoints
 62
     0
100
AcDbPoint
 10
27724.31784140737
 20
10105.1173189325
 30
0.0
  0
ENDBLK
  5
720D
330
7202
100
AcDbEntity
  8
0
100
AcDbBlockEnd
  0
BLOCK
  5
720F
330
720E
100
AcDbEntity
  8
0
100
AcDbBlockBegin
  2
*D16
 70
     1
 10
0.0
 20
0.0
 30
0.0
  3
*D16
  1

  0
LINE
  5
7210
330
720E
100
AcDbEntity
  8
\U+56FE\U+5C421
 62
     0
370
    -2
100
AcDbLine
 10
28411.55197644319
 20
9327.699271992644
 30
0.0
 11
28494.28396001183
 21
9327.699271992644
 31
0.0
  0
LINE
  5
7211
330
720E
100
AcDbEntity
  8
\U+56FE\U+5C421
 62
     0
370
    -2
100
AcDbLine
 10
28452.9608161015
 20
9574.199271992638
 30
0.0
 11
28494.28396001183
 21
9574.199271992638
 31
0.0
  0
LINE
  5
7212
330
720E
100
AcDbEntity
  8
\U+56FE\U+5C421
 62
     0
370
    -2
100
AcDbLine
 10
28492.28396001183
 20
9357.699271992643
 30
0.0
 11
28492.28396001183
 21
9544.199271992638
 31
0.0
  0
INSERT
  5
7213
330
720E
100
AcDbEntity
  8
\U+56FE\U+5C421
 62
     0
370
    -2
100
AcDbBlockReference
  2
_Open
 10
28492.28396001183
 20
9327.699271992644
 30
0.0
 41
30.0
 42
30.0
 43
30.0
 50
270.0
  0
INSERT
  5
7214
330
720E
100
AcDbEntity
  8
\U+56FE\U+5C421
 62
     0
370
    -2
100
AcDbBlockReference
  2
_Open
 10
28492.28396001183
 20
9574.199271992638
 30
0.0
 41
30.0
 42
30.0
 43
30.0
 50
90.0
  0
MTEXT
  5
7215
330
720E
100
AcDbEntity
  8
\U+56FE\U+5C421
 62
     0
100
AcDbMText
 10
28475.28396001183
 20
9450.949271992644
 30
0.0
 40
30.0
 41
0.0
 71
     5
 72
     1
  1
246.5
 11
0.0000000000000001
 21
1.0
 31
0.0
 73
     1
 44
1.0
1001
ACAD
1000
MTEXTBEGIN
1070
    73
1070
     1
1070
    44
1040
1.0
1070
    74
1070
     0
1000
MTEXTEND
  0
POINT
  5
7216
330
720E
100
AcDbEntity
  8
Defpoints
 62
     0
100
AcDbPoint
 10
28409.55197644319
 20
9327.699271992644
 30
0.0
  0
POINT
  5
7217
330
720E
100
AcDbEntity
  8
Defpoints
 62
     0
100
AcDbPoint
 10
28450.96081610149
 20
9574.199271992638
 30
0.0
  0
POINT
  5
7218
330
720E
100
AcDbEntity
  8
Defpoints
 62
     0
100
AcDbPoint
 10
28492.28396001183
 20
9574.199271992638
 30
0.0
  0
ENDBLK
  5
7219
330
720E
100
AcDbEntity
  8
0
100
AcDbBlockEnd
  0
BLOCK
  5
721B
330
721A
100
AcDbEntity
  8
0
100
AcDbBlockBegin
  2
*D17
 70
     1
 10
0.0
 20
0.0
 30
0.0
  3
*D17
  1

  0
LINE
  5
721C
330
721A
100
AcDbEntity
  8
\U+56FE\U+5C421
 62
     0
370
    -2
100
AcDbLine
 10
27198.07286740042
 20
9764.180843443806
 30
0.0
 11
27144.94917531159
 21
9859.358957203488
 31
0.0
  0
MTEXT
  5
721D
330
721A
100
AcDbEntity
  8
\U+56FE\U+5C421
 62
     0
100
AcDbMText
 10
27193.66591415643
 20
9806.957341232964
 30
0.0
 40
30.0
 41
0.0
 71
     5
 72
     1
  1
R80
 11
0.4873733219159102
 21
-0.873193704217255
 31
0.0
 73
     1
 44
1.0
1001
ACAD
1000
MTEXTBEGIN
1070
    73
1070
     1
1070
    44
1040
1.0
1070
    74
1070
     0
1000
MTEXTEND
  0
INSERT
  5
721E
330
721A
100
AcDbEntity
  8
\U+56FE\U+5C421
 62
     0
370
    -2
100
AcDbBlockReference
  2
_Open
 10
27130.32797565411
 20
9885.554768330004
 30
0.0
 41
30.0
 42
30.0
 43
30.0
 50
119.1680833655331
  0
POINT
  5
721F
330
721A
100
AcDbEntity
  8
Defpoints
 62
     0
100
AcDbPoint
 10
27130.32797565411
 20
9885.554768330004
 30
0.0
  0
POINT
  5
7220
330
721A
100
AcDbEntity
  8
Defpoints
 62
     0
100
AcDbPoint
 10
27169.31784140737
 20
9815.699271992636
 30
0.0
  0
ENDBLK
  5
7221
330
721A
100
AcDbEntity
  8
0
100
AcDbBlockEnd
  0
BLOCK
  5
7223
330
7222
100
AcDbEntity
  8
0
100
AcDbBlockBegin
  2
*D18
 70
     1
 10
0.0
 20
0.0
 30
0.0
  3
*D18
  1

  0
LINE
  5
7224
330
7222
100
AcDbEntity
  8
\U+56FE\U+5C421
 62
     0
370
    -2
100
AcDbLine
 10
27507.90374191813
 20
9940.812126298732
 30
0.0
 11
27550.68577028274
 21
9903.907545973114
 31
0.0
  0
MTEXT
  5
7225
330
7222
100
AcDbEntity
  8
\U+56FE\U+5C421
 62
     0
100
AcDbMText
 10
27529.82092070855
 20
9934.452112629839
 30
0.0
 40
15.0
 41
0.0
 71
     5
 72
     1
  1
R30
 11
0.7572040418514577
 21
-0.6531784128427823
 31
0.0
 73
     1
 44
1.0
1001
ACAD
1000
MTEXTBEGIN
1070
    73
1070
     1
1070
    44
1040
1.0
1070
    74
1070
     0
1000
MTEXTEND
  0
SOLID
  5
7226
330
7222
100
AcDbEntity
  8
\U+56FE\U+5C421
 62
     0
100
AcDbTrace
 10
27552.31871631485
 20
9905.800556077743
 30
0.0
 11
27549.05282425063
 21
9902.014535868486
 31
0.0
 12
27562.04383091051
 22
9894.109869780473
 32
0.0
 13
27562.04383091051
 23
9894.109869780473
 33
0.0
  0
POINT
  5
7227
330
7222
100
AcDbEntity
  8
Defpoints
 62
     0
100
AcDbPoint
 10
27562.04383091051
 20
9894.109869780473
 30
0.0
  0
POINT
  5
7228
330
7222
100
AcDbEntity
  8
Defpoints
 62
     0
100
AcDbPoint
 10
27539.32770965497
 20
9913.705222165752
 30
0.0
  0
ENDBLK
  5
7229
330
7222
100
AcDbEntity
  8
0
100
AcDbBlockEnd
  0
BLOCK
  5
722B
330
722A
100
AcDbEntity
  8
0
100
AcDbBlockBegin
  2
*D19
 70
     1
 10
0.0
 20
0.0
 30
0.0
  3
*D19
  1

  0
LINE
  5
722C
330
722A
100
AcDbEntity
  8
\U+56FE\U+5C421
 62
     0
370
    -2
100
AcDbLine
 10
27611.80759735185
 20
9846.947421130801
 30
0.0
 11
27588.86902852689
 21
9898.581441507513
 31
0.0
  0
MTEXT
  5
722D
330
722A
100
AcDbEntity
  8
\U+56FE\U+5C421
 62
     0
100
AcDbMText
 10
27612.06508213877
 20
9869.767285319365
 30
0.0
 40
15.0
 41
0.0
 71
     5
 72
     1
  1
R40
 11
0.4059923685833276
 21
-0.9138764668444524
 31
0.0
 73
     1
 44
1.0
1001
ACAD
1000
MTEXTBEGIN
1070
    73
1070
     1
1070
    44
1040
1.0
1070
    74
1070
     0
1000
MTEXTEND
  0
SOLID
  5
722E
330
722A
100
AcDbEntity
  8
\U+56FE\U+5C421
 62
     0
100
AcDbTrace
 10
27591.15371969401
 20
9899.59642242897
 30
0.0
 11
27586.58433735978
 21
9897.566460586055
 31
0.0
 12
27582.77914299815
 22
9912.28958851018
 32
0.0
 13
27582.77914299815
 23
9912.28958851018
 33
0.0
  0
POINT
  5
722F
330
722A
100
AcDbEntity
  8
Defpoints
 62
     0
100
AcDbPoint
 10
27582.77914299815
 20
9912.28958851018
 30
0.0
  0
POINT
  5
7230
330
722A
100
AcDbEntity
  8
Defpoints
 62
     0
100
AcDbPoint
 10
27599.01883774148
 20
9875.7345298364
 30
0.0
  0
ENDBLK
  5
7231
330
722A
100
AcDbEntity
  8
0
100
AcDbBlockEnd
  0
BLOCK
  5
7233
330
7232
100
AcDbEntity
  8
0
100
AcDbBlockBegin
  2
*D20
 70
     1
 10
0.0
 20
0.0
 30
0.0
  3
*D20
  1

  0
LINE
  5
7234
330
7232
100
AcDbEntity
  8
\U+56FE\U+5C421
 62
     0
370
    -2
100
AcDbLine
 10
28411.55197644317
 20
9820.69927199265
 30
0.0
 11
28494.28396001183
 21
9820.69927199265
 31
0.0
  0
LINE
  5
7235
330
7232
100
AcDbEntity
  8
\U+56FE\U+5C421
 62
     0
370
    -2
100
AcDbLine
 10
28452.9608161015
 20
9574.199271992638
 30
0.0
 11
28494.28396001183
 21
9574.199271992638
 31
0.0
  0
LINE
  5
7236
330
7232
100
AcDbEntity
  8
\U+56FE\U+5C421
 62
     0
370
    -2
100
AcDbLine
 10
28492.28396001183
 20
9790.69927199265
 30
0.0
 11
28492.28396001183
 21
9604.199271992639
 31
0.0
  0
INSERT
  5
7237
330
7232
100
AcDbEntity
  8
\U+56FE\U+5C421
 62
     0
370
    -2
100
AcDbBlockReference
  2
_Open
 10
28492.28396001183
 20
9820.69927199265
 30
0.0
 41
30.0
 42
30.0
 43
30.0
 50
90.0
  0
INSERT
  5
7238
330
7232
100
AcDbEntity
  8
\U+56FE\U+5C421
 62
     0
370
    -2
100
AcDbBlockReference
  2
_Open
 10
28492.28396001183
 20
9574.199271992638
 30
0.0
 41
30.0
 42
30.0
 43
30.0
 50
270.0
  0
MTEXT
  5
7239
330
7232
100
AcDbEntity
  8
\U+56FE\U+5C421
 62
     0
100
AcDbMText
 10
28475.28396001183
 20
9697.449271992647
 30
0.0
 40
30.0
 41
0.0
 71
     5
 72
     1
  1
246.5
 11
0.0000000000000001
 21
1.0
 31
0.0
 73
     1
 44
1.0
1001
ACAD
1000
MTEXTBEGIN
1070
    73
1070
     1
1070
    44
1040
1.0
1070
    74
1070
     0
1000
MTEXTEND
  0
POINT
  5
723A
330
7232
100
AcDbEntity
  8
Defpoints
 62
     0
100
AcDbPoint
 10
28409.55197644317
 20
9820.69927199265
 30
0.0
  0
POINT
  5
723B
330
7232
100
AcDbEntity
  8
Defpoints
 62
     0
100
AcDbPoint
 10
28450.96081610149
 20
9574.199271992638
 30
0.0
  0
POINT
  5
723C
330
7232
100
AcDbEntity
  8
Defpoints
 62
     0
100
AcDbPoint
 10
28492.28396001183
 20
9574.199271992638
 30
0.0
  0
ENDBLK
  5
723D
330
7232
100
AcDbEntity
  8
0
100
AcDbBlockEnd
  0
BLOCK
  5
723F
330
723E
100
AcDbEntity
  8
0
100
AcDbBlockBegin
  2
*D21
 70
     1
 10
0.0
 20
0.0
 30
0.0
  3
*D21
  1

  0
LINE
  5
7240
330
723E
100
AcDbEntity
  8
\U+56FE\U+5C421
 62
     0
370
    -2
100
AcDbLine
 10
27872.53093807427
 20
9213.962902984336
 30
0.0
 11
27854.95675684145
 21
9267.660185541249
 31
0.0
  0
MTEXT
  5
7241
330
723E
100
AcDbEntity
  8
\U+56FE\U+5C421
 62
     0
100
AcDbMText
 10
27875.10544999834
 20
9236.63853722801
 30
0.0
 40
15.0
 41
0.0
 71
     5
 72
     1
  1
R30
 11
0.3110474554481927
 21
-0.950394381538109
 31
0.0
 73
     1
 44
1.0
1001
ACAD
1000
MTEXTBEGIN
1070
    73
1070
     1
1070
    44
1040
1.0
1070
    74
1070
     0
1000
MTEXTEND
  0
SOLID
  5
7242
330
723E
100
AcDbEntity
  8
\U+56FE\U+5C421
 62
     0
100
AcDbTrace
 10
27857.33274279529
 20
9268.437804179868
 30
0.0
 11
27852.5807708876
 21
9266.882566902628
 31
0.0
 12
27850.29104500973
 22
9281.91610126432
 32
0.0
 13
27850.29104500973
 23
9281.91610126432
 33
0.0
  0
POINT
  5
7243
330
723E
100
AcDbEntity
  8
Defpoints
 62
     0
100
AcDbPoint
 10
27850.29104500973
 20
9281.91610126432
 30
0.0
  0
POINT
  5
7244
330
723E
100
AcDbEntity
  8
Defpoints
 62
     0
100
AcDbPoint
 10
27859.62246867317
 20
9253.404269818162
 30
0.0
  0
ENDBLK
  5
7245
330
723E
100
AcDbEntity
  8
0
100
AcDbBlockEnd
  0
BLOCK
  5
7247
330
7246
100
AcDbEntity
  8
0
100
AcDbBlockBegin
  2
*D22
 70
     1
 10
0.0
 20
0.0
 30
0.0
  3
*D22
  1

  0
LINE
  5
7248
330
7246
100
AcDbEntity
  8
\U+56FE\U+5C421
 62
     0
370
    -2
100
AcDbLine
 10
27782.59038698438
 20
9312.712663372044
 30
0.0
 11
27806.56542573356
 21
9261.551667320606
 31
0.0
  0
MTEXT
  5
7249
330
7246
100
AcDbEntity
  8
\U+56FE\U+5C421
 62
     0
100
AcDbMText
 10
27799.99767046286
 20
9297.954649213634
 30
0.0
 40
15.0
 41
0.0
 71
     5
 72
     1
  1
R40
 11
0.4243369690120672
 21
-0.9055043548927041
 31
0.0
 73
     1
 44
1.0
1001
ACAD
1000
MTEXTBEGIN
1070
    73
1070
     1
1070
    44
1040
1.0
1070
    74
1070
     0
1000
MTEXTEND
  0
SOLID
  5
724A
330
7246
100
AcDbEntity
  8
\U+56FE\U+5C421
 62
     0
100
AcDbTrace
 10
27808.82918662079
 20
9262.612509743135
 30
0.0
 11
27804.30166484633
 21
9260.490824898075
 31
0.0
 12
27812.93048026874
 22
9247.969101997217
 32
0.0
 13
27812.93048026874
 23
9247.969101997217
 33
0.0
  0
POINT
  5
724B
330
7246
100
AcDbEntity
  8
Defpoints
 62
     0
100
AcDbPoint
 10
27812.93048026874
 20
9247.969101997217
 30
0.0
  0
POINT
  5
724C
330
7246
100
AcDbEntity
  8
Defpoints
 62
     0
100
AcDbPoint
 10
27795.95700150826
 20
9284.189276192924
 30
0.0
  0
ENDBLK
  5
724D
330
7246
100
AcDbEntity
  8
0
100
AcDbBlockEnd
  0
BLOCK
  5
724F
330
724E
100
AcDbEntity
  8
0
100
AcDbBlockBegin
  2
*D23
 70
     1
 10
0.0
 20
0.0
 30
0.0
  3
*D23
  1

  0
LINE
  5
7250
330
724E
100
AcDbEntity
  8
\U+56FE\U+5C421
 62
     0
370
    -2
100
AcDbLine
 10
27169.31784140737
 20
9886.776475612933
 30
0.0
 11
27169.31784140737
 21
10107.1173189325
 31
0.0
  0
LINE
  5
7251
330
724E
100
AcDbEntity
  8
\U+56FE\U+5C421
 62
     0
370
    -2
100
AcDbLine
 10
27724.31784140737
 20
10017.40530420334
 30
0.0
 11
27724.31784140737
 21
10107.1173189325
 31
0.0
  0
LINE
  5
7252
330
724E
100
AcDbEntity
  8
\U+56FE\U+5C421
 62
     0
370
    -2
100
AcDbLine
 10
27199.31784140737
 20
10105.1173189325
 30
0.0
 11
27694.31784140738
 21
10105.1173189325
 31
0.0
  0
INSERT
  5
7253
330
724E
100
AcDbEntity
  8
\U+56FE\U+5C421
 62
     0
370
    -2
100
AcDbBlockReference
  2
_Open
 10
27169.31784140737
 20
10105.1173189325
 30
0.0
 41
30.0
 42
30.0
 43
30.0
 50
180.0
  0
INSERT
  5
7254
330
724E
100
AcDbEntity
  8
\U+56FE\U+5C421
 62
     0
370
    -2
100
AcDbBlockReference
  2
_Open
 10
27724.31784140737
 20
10105.1173189325
 30
0.0
 41
30.0
 42
30.0
 43
30.0
  0
MTEXT
  5
7255
330
724E
100
AcDbEntity
  8
\U+56FE\U+5C421
 62
     0
100
AcDbMText
 10
27446.81784140738
 20
10122.1173189325
 30
0.0
 40
30.0
 41
0.0
 71
     5
 72
     1
  1
555
 73
     1
 44
1.0
1001
ACAD
1000
MTEXTBEGIN
1070
    73
1070
     1
1070
    44
1040
1.0
1070
    74
1070
     0
1000
MTEXTEND
  0
POINT
  5
7256
330
724E
100
AcDbEntity
  8
Defpoints
 62
     0
100
AcDbPoint
 10
27169.31784140737
 20
9884.776475612932
 30
0.0
  0
POINT
  5
7257
330
724E
100
AcDbEntity
  8
Defpoints
 62
     0
100
AcDbPoint
 10
27724.31784140737
 20
10015.40530420334
 30
0.0
  0
POINT
  5
7258
330
724E
100
AcDbEntity
  8
Defpoints
 62
     0
100
AcDbPoint
 10
27724.31784140737
 20
10105.1173189325
 30
0.0
  0
ENDBLK
  5
7259
330
724E
100
AcDbEntity
  8
0
100
AcDbBlockEnd
  0
BLOCK
  5
725B
330
725A
100
AcDbEntity
  8
0
100
AcDbBlockBegin
  2
*D24
 70
     1
 10
0.0
 20
0.0
 30
0.0
  3
*D24
  1

  0
LINE
  5
725C
330
725A
100
AcDbEntity
  8
\U+56FE\U+5C421
 62
     0
370
    -2
100
AcDbLine
 10
28143.7262892273
 20
9608.885528433875
 30
0.0
 11
28390.47177931322
 21
9613.25709821293
 31
0.0
  0
MTEXT
  5
725D
330
725A
100
AcDbEntity
  8
\U+56FE\U+5C421
 62
     0
100
AcDbMText
 10
28235.41071336337
 20
9627.512561768156
 30
0.0
 40
30.0
 41
0.0
 71
     5
 72
     1
  1
R2235.5
 11
0.9998430923342422
 21
0.0177141387456489
 31
0.0
 73
     1
 44
1.0
1001
ACAD
1000
MTEXTBEGIN
1070
    73
1070
     1
1070
    44
1040
1.0
1070
    74
1070
     0
1000
MTEXTEND
  0
INSERT
  5
725E
330
725A
100
AcDbEntity
  8
\U+56FE\U+5C421
 62
     0
370
    -2
100
AcDbBlockReference
  2
_Open
 10
28420.46707208325
 20
9613.788522375301
 30
0.0
 41
30.0
 42
30.0
 43
30.0
 50
1.014998475404027
  0
POINT
  5
725F
330
725A
100
AcDbEntity
  8
Defpoints
 62
     0
100
AcDbPoint
 10
28420.46707208325
 20
9613.788522375301
 30
0.0
  0
POINT
  5
7260
330
725A
100
AcDbEntity
  8
Defpoints
 62
     0
100
AcDbPoint
 10
26185.3034112669
 20
9574.188309591415
 30
0.0
  0
ENDBLK
  5
7261
330
725A
100
AcDbEntity
  8
0
100
AcDbBlockEnd
  0
BLOCK
  5
7263
330
7262
100
AcDbEntity
  8
0
100
AcDbBlockBegin
  2
*D25
 70
     1
 10
0.0
 20
0.0
 30
0.0
  3
*D25
  1

  0
LINE
  5
7264
330
7262
100
AcDbEntity
  8
\U+56FE\U+5C421
 62
     0
370
    -2
100
AcDbLine
 10
28343.13599654795
 20
9750.774974946802
 30
0.0
 11
28388.45667483533
 21
9784.513471053939
 31
0.0
  0
MTEXT
  5
7265
330
7262
100
AcDbEntity
  8
\U+56FE\U+5C421
 62
     0
100
AcDbMText
 10
28354.10747197176
 20
9770.785952609687
 30
0.0
 40
15.0
 41
0.0
 71
     5
 72
     1
  1
R80
 11
0.8021358988918112
 21
0.5971415240200818
 31
0.0
 73
     1
 44
1.0
1001
ACAD
1000
MTEXTBEGIN
1070
    73
1070
     1
1070
    44
1040
1.0
1070
    74
1070
     0
1000
MTEXTEND
  0
SOLID
  5
7266
330
7262
100
AcDbEntity
  8
\U+56FE\U+5C421
 62
     0
100
AcDbTrace
 10
28386.96382102528
 20
9786.518810801169
 30
0.0
 11
28389.94952864538
 21
9782.508131306711
 31
0.0
 12
28400.48871331871
 22
9793.470593914237
 32
0.0
 13
28400.48871331871
 23
9793.470593914237
 33
0.0
  0
POINT
  5
7267
330
7262
100
AcDbEntity
  8
Defpoints
 62
     0
100
AcDbPoint
 10
28400.48871331871
 20
9793.470593914237
 30
0.0
  0
POINT
  5
7268
330
7262
100
AcDbEntity
  8
Defpoints
 62
     0
100
AcDbPoint
 10
28336.31784140738
 20
9745.699271992641
 30
0.0
  0
ENDBLK
  5
7269
330
7262
100
AcDbEntity
  8
0
100
AcDbBlockEnd
  0
BLOCK
  5
726B
330
726A
100
AcDbEntity
  8
0
100
AcDbBlockBegin
  2
*D26
 70
     1
 10
0.0
 20
0.0
 30
0.0
  3
*D26
  1

  0
LINE
  5
726C
330
726A
100
AcDbEntity
  8
\U+56FE\U+5C421
 62
     0
370
    -2
100
AcDbLine
 10
27818.58224176405
 20
9910.165089423641
 30
0.0
 11
27819.9996444667
 21
9931.295996134698
 31
0.0
  0
LINE
  5
726D
330
726A
100
AcDbEntity
  8
\U+56FE\U+5C421
 62
     0
370
    -2
100
AcDbLine
 10
27845.53368223213
 20
9908.54649228537
 30
0.0
 11
27846.9384487083
 21
9929.489015749979
 31
0.0
  0
LINE
  5
726E
330
726A
100
AcDbEntity
  8
\U+56FE\U+5C421
 62
     0
370
    -2
100
AcDbLine
 10
27804.9663493441
 20
9931.302140786016
 30
0.0
 11
27789.9999810573
 21
9932.306043323116
 31
0.0
  0
LINE
  5
726F
330
726A
100
AcDbEntity
  8
\U+56FE\U+5C421
 62
     0
370
    -2
100
AcDbLine
 10
27861.8378901593
 20
9927.487355327091
 30
0.0
 11
27876.80425844609
 21
9926.483452789987
 31
0.0
  0
MTEXT
  5
7270
330
726A
100
AcDbEntity
  8
\U+56FE\U+5C421
 62
     0
100
AcDbMText
 10
27841.52725348658
 20
9953.404791825571
 30
0.0
 40
15.0
 41
0.0
 71
     5
 72
     1
  1
27
 11
0.9977578857863639
 21
-0.0669268358069109
 31
0.0
 73
     1
 44
1.0
1001
ACAD
1000
MTEXTBEGIN
1070
    73
1070
     1
1070
    44
1040
1.0
1070
    74
1070
     0
1000
MTEXTEND
  0
SOLID
  5
7271
330
726A
100
AcDbEntity
  8
\U+56FE\U+5C421
 62
     0
100
AcDbTrace
 10
27805.13366643362
 20
9933.79653550048
 30
0.0
 11
27804.79903225458
 21
9928.807746071548
 31
0.0
 12
27819.9327176309
 22
9930.29823824891
 32
0.0
 13
27819.9327176309
 23
9930.29823824891
 33
0.0
  0
SOLID
  5
7272
330
726A
100
AcDbEntity
  8
\U+56FE\U+5C421
 62
     0
100
AcDbTrace
 10
27862.00520724881
 20
9929.981750041555
 30
0.0
 11
27861.67057306978
 21
9924.992960612625
 31
0.0
 12
27846.8715218725
 22
9928.491257864193
 32
0.0
 13
27846.8715218725
 23
9928.491257864193
 33
0.0
  0
POINT
  5
7273
330
726A
100
AcDbEntity
  8
Defpoints
 62
     0
100
AcDbPoint
 10
27818.51531492824
 20
9909.167331537853
 30
0.0
  0
POINT
  5
7274
330
726A
100
AcDbEntity
  8
Defpoints
 62
     0
100
AcDbPoint
 10
27845.46675539632
 20
9907.548734399583
 30
0.0
  0
POINT
  5
7275
330
726A
100
AcDbEntity
  8
Defpoints
 62
     0
100
AcDbPoint
 10
27846.8715218725
 20
9928.491257864193
 30
0.0
  0
ENDBLK
  5
7276
330
726A
100
AcDbEntity
  8
0
100
AcDbBlockEnd
  0
BLOCK
  5
7278
330
7277
100
AcDbEntity
  8
0
100
AcDbBlockBegin
  2
*D27
 70
     1
 10
0.0
 20
0.0
 30
0.0
  3
*D27
  1

  0
LINE
  5
7279
330
7277
100
AcDbEntity
  8
\U+56FE\U+5C421
 62
     0
370
    -2
100
AcDbLine
 10
27724.75130087521
 20
9915.800205386508
 30
0.0
 11
27726.2126963663
 21
9937.586964881489
 31
0.0
  0
LINE
  5
727A
330
7277
100
AcDbEntity
  8
\U+56FE\U+5C421
 62
     0
370
    -2
100
AcDbLine
 10
27818.58224176405
 20
9910.165089423641
 30
0.0
 11
27819.9996444667
 21
9931.295996134698
 31
0.0
  0
LINE
  5
727B
330
7277
100
AcDbEntity
  8
\U+56FE\U+5C421
 62
     0
370
    -2
100
AcDbLine
 10
27741.11213781729
 20
9935.585304458598
 30
0.0
 11
27804.9663493441
 21
9931.302140786016
 31
0.0
  0
SOLID
  5
727C
330
7277
100
AcDbEntity
  8
\U+56FE\U+5C421
 62
     0
100
AcDbTrace
 10
27741.27945490681
 20
9938.079699173066
 30
0.0
 11
27740.94482072777
 21
9933.090909744134
 31
0.0
 12
27726.14576953049
 22
9936.589206995702
 32
0.0
 13
27726.14576953049
 23
9936.589206995702
 33
0.0
  0
SOLID
  5
727D
330
7277
100
AcDbEntity
  8
\U+56FE\U+5C421
 62
     0
100
AcDbTrace
 10
27805.13366643362
 20
9933.79653550048
 30
0.0
 11
27804.79903225458
 21
9928.807746071548
 31
0.0
 12
27819.9327176309
 22
9930.29823824891
 32
0.0
 13
27819.9327176309
 23
9930.29823824891
 33
0.0
  0
MTEXT
  5
727E
330
7277
100
AcDbEntity
  8
\U+56FE\U+5C421
 62
     0
100
AcDbMText
 10
27773.67504852086
 20
9942.922422537277
 30
0.0
 40
15.0
 41
0.0
 71
     5
 72
     1
  1
94
 11
0.9977578857863639
 21
-0.0669268358069109
 31
0.0
 73
     1
 44
1.0
1001
ACAD
1000
MTEXTBEGIN
1070
    73
1070
     1
1070
    44
1040
1.0
1070
    74
1070
     0
1000
MTEXTEND
  0
POINT
  5
727F
330
7277
100
AcDbEntity
  8
Defpoints
 62
     0
100
AcDbPoint
 10
27724.6843740394
 20
9914.80244750072
 30
0.0
  0
POINT
  5
7280
330
7277
100
AcDbEntity
  8
Defpoints
 62
     0
100
AcDbPoint
 10
27818.51531492824
 20
9909.167331537853
 30
0.0
  0
POINT
  5
7281
330
7277
100
AcDbEntity
  8
Defpoints
 62
     0
100
AcDbPoint
 10
27819.9327176309
 20
9930.29823824891
 30
0.0
  0
ENDBLK
  5
7282
330
7277
100
AcDbEntity
  8
0
100
AcDbBlockEnd
  0
BLOCK
  5
7284
330
7283
100
AcDbEntity
  8
0
100
AcDbBlockBegin
  2
*D28
 70
     1
 10
0.0
 20
0.0
 30
0.0
  3
*D28
  1

  0
LINE
  5
7285
330
7283
100
AcDbEntity
  8
\U+56FE\U+5C421
 62
     0
370
    -2
100
AcDbLine
 10
27582.06843458647
 20
9925.370976913942
 30
0.0
 11
27583.52983007756
 21
9947.15773640893
 31
0.0
  0
LINE
  5
7286
330
7283
100
AcDbEntity
  8
\U+56FE\U+5C421
 62
     0
370
    -2
100
AcDbLine
 10
27724.75130087522
 20
9915.80020538651
 30
0.0
 11
27726.2126963663
 21
9937.586964881496
 31
0.0
  0
LINE
  5
7287
330
7283
100
AcDbEntity
  8
\U+56FE\U+5C421
 62
     0
370
    -2
100
AcDbLine
 10
27598.42927152854
 20
9945.156075986041
 30
0.0
 11
27711.1794012437
 21
9937.593109532812
 31
0.0
  0
SOLID
  5
7288
330
7283
100
AcDbEntity
  8
\U+56FE\U+5C421
 62
     0
100
AcDbTrace
 10
27598.59658861806
 20
9947.650470700505
 30
0.0
 11
27598.26195443903
 21
9942.661681271573
 31
0.0
 12
27583.46290324175
 22
9946.159978523143
 32
0.0
 13
27583.46290324175
 23
9946.159978523143
 33
0.0
  0
SOLID
  5
7289
330
7283
100
AcDbEntity
  8
\U+56FE\U+5C421
 62
     0
100
AcDbTrace
 10
27711.34671833321
 20
9940.087504247276
 30
0.0
 11
27711.01208415418
 21
9935.098714818344
 31
0.0
 12
27726.14576953049
 22
9936.589206995709
 32
0.0
 13
27726.14576953049
 23
9936.589206995709
 33
0.0
  0
MTEXT
  5
728A
330
7283
100
AcDbEntity
  8
\U+56FE\U+5C421
 62
     0
100
AcDbMText
 10
27655.44014132629
 20
9950.853292674395
 30
0.0
 40
15.0
 41
0.0
 71
     5
 72
     1
  1
143
 11
0.9977578857863676
 21
-0.0669268358068541
 31
0.0
 73
     1
 44
1.0
1001
ACAD
1000
MTEXTBEGIN
1070
    73
1070
     1
1070
    44
1040
1.0
1070
    74
1070
     0
1000
MTEXTEND
  0
POINT
  5
728B
330
7283
100
AcDbEntity
  8
Defpoints
 62
     0
100
AcDbPoint
 10
27582.00150775067
 20
9924.373219028158
 30
0.0
  0
POINT
  5
728C
330
7283
100
AcDbEntity
  8
Defpoints
 62
     0
100
AcDbPoint
 10
27724.68437403941
 20
9914.802447500726
 30
0.0
  0
POINT
  5
728D
330
7283
100
AcDbEntity
  8
Defpoints
 62
     0
100
AcDbPoint
 10
27726.14576953049
 20
9936.589206995709
 30
0.0
  0
ENDBLK
  5
728E
330
7283
100
AcDbEntity
  8
0
100
AcDbBlockEnd
  0
BLOCK
  5
7290
330
728F
100
AcDbEntity
  8
0
100
AcDbBlockBegin
  2
*D29
 70
     1
 10
0.0
 20
0.0
 30
0.0
  3
*D29
  1

  0
LINE
  5
7291
330
728F
100
AcDbEntity
  8
\U+56FE\U+5C421
 62
     0
370
    -2
100
AcDbLine
 10
27555.0500672826
 20
9925.99181616643
 30
0.0
 11
27556.41905585434
 21
9948.786996709133
 31
0.0
  0
LINE
  5
7292
330
728F
100
AcDbEntity
  8
\U+56FE\U+5C421
 62
     0
370
    -2
100
AcDbLine
 10
27582.00150775067
 20
9924.373219028158
 30
0.0
 11
27583.37049632241
 21
9947.168399570863
 31
0.0
  0
LINE
  5
7293
330
728F
100
AcDbEntity
  8
\U+56FE\U+5C421
 62
     0
370
    -2
100
AcDbLine
 10
27541.38608532992
 20
9948.688015842687
 30
0.0
 11
27526.41306284766
 21
9949.587236475061
 31
0.0
  0
LINE
  5
7294
330
728F
100
AcDbEntity
  8
\U+56FE\U+5C421
 62
     0
370
    -2
100
AcDbLine
 10
27598.28357076251
 20
9945.270977439669
 30
0.0
 11
27613.25659324478
 21
9944.371756807298
 31
0.0
  0
SOLID
  5
7295
330
728F
100
AcDbEntity
  8
\U+56FE\U+5C421
 62
     0
100
AcDbTrace
 10
27541.53595543532
 20
9951.183519589729
 30
0.0
 11
27541.23621522453
 21
9946.192512095642
 31
0.0
 12
27556.35910781218
 22
9947.788795210314
 32
0.0
 13
27556.35910781218
 23
9947.788795210314
 33
0.0
  0
SOLID
  5
7296
330
728F
100
AcDbEntity
  8
\U+56FE\U+5C421
 62
     0
100
AcDbTrace
 10
27598.43344086791
 20
9947.766481186713
 30
0.0
 11
27598.13370065712
 21
9942.775473692627
 31
0.0
 12
27583.31054828025
 22
9946.170198072044
 32
0.0
 13
27583.31054828025
 23
9946.170198072044
 33
0.0
  0
MTEXT
  5
7297
330
728F
100
AcDbEntity
  8
\U+56FE\U+5C421
 62
     0
100
AcDbMText
 10
27570.40433444672
 20
9956.462410879943
 30
0.0
 40
15.0
 41
0.0
 71
     5
 72
     1
  1
27
 11
0.998201498817448
 21
-0.0599480421581896
 31
0.0
 73
     1
 44
1.0
1001
ACAD
1000
MTEXTBEGIN
1070
    73
1070
     1
1070
    44
1040
1.0
1070
    74
1070
     0
1000
MTEXTEND
  0
POINT
  5
7298
330
728F
100
AcDbEntity
  8
Defpoints
 62
     0
100
AcDbPoint
 10
27554.99011924044
 20
9924.993614667613
 30
0.0
  0
POINT
  5
7299
330
728F
100
AcDbEntity
  8
Defpoints
 62
     0
100
AcDbPoint
 10
27581.94155970851
 20
9923.375017529341
 30
0.0
  0
POINT
  5
729A
330
728F
100
AcDbEntity
  8
Defpoints
 62
     0
100
AcDbPoint
 10
27583.31054828025
 20
9946.170198072044
 30
0.0
  0
ENDBLK
  5
729B
330
728F
100
AcDbEntity
  8
0
100
AcDbBlockEnd
  0
BLOCK
  5
729D
330
729C
100
AcDbEntity
  8
0
100
AcDbBlockBegin
  2
*D30
 70
     1
 10
0.0
 20
0.0
 30
0.0
  3
*D30
  1

  0
LINE
  5
729E
330
729C
100
AcDbEntity
  8
\U+56FE\U+5C421
 62
     0
370
    -2
100
AcDbLine
 10
27057.81784140738
 20
9572.199271992639
 30
0.0
 11
27057.81784140738
 21
9105.876505175395
 31
0.0
  0
LINE
  5
729F
330
729C
100
AcDbEntity
  8
\U+56FE\U+5C421
 62
     0
370
    -2
100
AcDbLine
 10
28420.81784125781
 20
9572.182147057676
 30
0.0
 11
28420.81784125781
 21
9105.876505175395
 31
0.0
  0
LINE
  5
72A0
330
729C
100
AcDbEntity
  8
\U+56FE\U+5C421
 62
     0
370
    -2
100
AcDbLine
 10
27087.81784140738
 20
9107.876505175395
 30
0.0
 11
28390.81784125781
 21
9107.876505175395
 31
0.0
  0
INSERT
  5
72A1
330
729C
100
AcDbEntity
  8
\U+56FE\U+5C421
 62
     0
370
    -2
100
AcDbBlockReference
  2
_Open
 10
27057.81784140738
 20
9107.876505175395
 30
0.0
 41
30.0
 42
30.0
 43
30.0
 50
180.0
  0
INSERT
  5
72A2
330
729C
100
AcDbEntity
  8
\U+56FE\U+5C421
 62
     0
370
    -2
100
AcDbBlockReference
  2
_Open
 10
28420.81784125781
 20
9107.876505175395
 30
0.0
 41
30.0
 42
30.0
 43
30.0
  0
MTEXT
  5
72A3
330
729C
100
AcDbEntity
  8
\U+56FE\U+5C421
 62
     0
100
AcDbMText
 10
27739.3178413326
 20
9124.876505175395
 30
0.0
 40
30.0
 41
0.0
 71
     5
 72
     1
  1
1363
 73
     1
 44
1.0
1001
ACAD
1000
MTEXTBEGIN
1070
    73
1070
     1
1070
    44
1040
1.0
1070
    74
1070
     0
1000
MTEXTEND
  0
POINT
  5
72A4
330
729C
100
AcDbEntity
  8
Defpoints
 62
     0
100
AcDbPoint
 10
27057.81784140738
 20
9574.199271992638
 30
0.0
  0
POINT
  5
72A5
330
729C
100
AcDbEntity
  8
Defpoints
 62
     0
100
AcDbPoint
 10
28420.81784125781
 20
9574.182147057676
 30
0.0
  0
POINT
  5
72A6
330
729C
100
AcDbEntity
  8
Defpoints
 62
     0
100
AcDbPoint
 10
28420.81784125781
 20
9107.876505175395
 30
0.0
  0
ENDBLK
  5
72A7
330
729C
100
AcDbEntity
  8
0
100
AcDbBlockEnd
  0
BLOCK
  5
72A9
330
72A8
100
AcDbEntity
  8
0
100
AcDbBlockBegin
  2
_Open
 70
     0
 10
0.0
 20
0.0
 30
0.0
  3
_Open
  1

  0
LINE
  5
72AA
330
72A8
100
AcDbEntity
  8
0
  6
ByBlock
 62
     0
370
    -2
100
AcDbLine
 10
-1.0
 20
0.1666666666666666
 30
0.0
 11
0.0
 21
0.0
 31
0.0
  0
LINE
  5
72AB
330
72A8
100
AcDbEntity
  8
0
  6
ByBlock
 62
     0
370
    -2
100
AcDbLine
 10
-1.0
 20
-0.1666666666666666
 30
0.0
 11
0.0
 21
0.0
 31
0.0
  0
LINE
  5
72AC
330
72A8
100
AcDbEntity
  8
0
  6
ByBlock
 62
     0
370
    -2
100
AcDbLine
 10
0.0
 20
0.0
 30
0.0
 11
-1.0
 21
0.0
 31
0.0
  0
ENDBLK
  5
72AD
330
72A8
100
AcDbEntity
  8
0
100
AcDbBlockEnd
  0
BLOCK
  5
72AF
330
72AE
100
AcDbEntity
  8
0
100
AcDbBlockBegin
  2
*D32
 70
     1
 10
0.0
 20
0.0
 30
0.0
  3
*D32
  1

  0
LINE
  5
72B0
330
72AE
100
AcDbEntity
  8
\U+56FE\U+5C421
 62
     0
370
    -2
100
AcDbLine
 10
27282.57883119284
 20
9607.153300590354
 30
0.0
 11
27088.78354827498
 21
9616.063312867806
 31
0.0
  0
MTEXT
  5
72B1
330
72AE
100
AcDbEntity
  8
\U+56FE\U+5C421
 62
     0
100
AcDbMText
 10
27206.44085915181
 20
9627.671809636577
 30
0.0
 40
30.0
 41
0.0
 71
     5
 72
     1
  1
R945.2
 11
0.9989447573085865
 21
-0.0459278983373832
 31
0.0
 73
     1
 44
1.0
1001
ACAD
1000
MTEXTBEGIN
1070
    73
1070
     1
1070
    44
1040
1.0
1070
    74
1070
     0
1000
MTEXTEND
  0
INSERT
  5
72B2
330
72AE
100
AcDbEntity
  8
\U+56FE\U+5C421
 62
     0
370
    -2
100
AcDbBlockReference
  2
_Open
 10
27058.81520555572
 20
9617.441149817928
 30
0.0
 41
30.0
 42
30.0
 43
30.0
 50
177.3675992576581
  0
POINT
  5
72B3
330
72AE
100
AcDbEntity
  8
Defpoints
 62
     0
100
AcDbPoint
 10
27058.81520555572
 20
9617.441149817928
 30
0.0
  0
POINT
  5
72B4
330
72AE
100
AcDbEntity
  8
Defpoints
 62
     0
100
AcDbPoint
 10
28002.98334537925
 20
9574.031683957128
 30
0.0
  0
ENDBLK
  5
72B5
330
72AE
100
AcDbEntity
  8
0
100
AcDbBlockEnd
  0
BLOCK
  5
72B7
330
72B6
100
AcDbEntity
  8
0
100
AcDbBlockBegin
  2
*D33
 70
     1
 10
0.0
 20
0.0
 30
0.0
  3
*D33
  1

  0
LINE
  5
72B8
330
72B6
100
AcDbEntity
  8
\U+56FE\U+5C421
 62
     0
370
    -2
100
AcDbLine
 10
27082.76958765095
 20
17109.54390477226
 30
0.0
 11
27104.12877213991
 21
17189.25746649331
 31
0.0
  0
LINE
  5
72B9
330
72B6
100
AcDbEntity
  8
\U+56FE\U+5C421
 62
     0
370
    -2
100
AcDbLine
 10
28445.76958750138
 20
17109.52677983884
 30
0.0
 11
28467.13336060243
 21
17189.25746649331
 31
0.0
  0
LINE
  5
72BA
330
72B6
100
AcDbEntity
  8
\U+56FE\U+5C421
 62
     0
370
    -2
100
AcDbLine
 10
27118.86082294748
 20
17188.25746649331
 30
0.0
 11
28451.86541141
 21
17188.25746649331
 31
0.0
  0
SOLID
  5
72BB
330
72B6
100
AcDbEntity
  8
\U+56FE\U+5C421
 62
     0
100
AcDbTrace
 10
27118.86082294748
 20
17190.75746649331
 30
0.0
 11
27118.86082294748
 21
17185.75746649331
 31
0.0
 12
27103.86082294748
 22
17188.25746649331
 32
0.0
 13
27103.86082294748
 23
17188.25746649331
 33
0.0
  0
SOLID
  5
72BC
330
72B6
100
AcDbEntity
  8
\U+56FE\U+5C421
 62
     0
100
AcDbTrace
 10
28451.86541141
 20
17190.75746649331
 30
0.0
 11
28451.86541141
 21
17185.75746649331
 31
0.0
 12
28466.86541141
 22
17188.25746649331
 32
0.0
 13
28466.86541141
 23
17188.25746649331
 33
0.0
  0
MTEXT
  5
72BD
330
72B6
100
AcDbEntity
  8
\U+56FE\U+5C421
 62
     0
100
AcDbMText
 10
27785.36311717874
 20
17197.75746649331
 30
0.0
 40
15.0
 41
0.0
 71
     5
 72
     1
  1
1363
 73
     1
 44
1.0
1001
ACAD
1000
MTEXTBEGIN
1070
    73
1070
     1
1070
    44
1040
1.0
1070
    74
1070
     0
1000
MTEXTEND
  0
POINT
  5
72BE
330
72B6
100
AcDbEntity
  8
Defpoints
 62
     0
100
AcDbPoint
 10
27082.50163845852
 20
17108.54390477226
 30
0.0
  0
POINT
  5
72BF
330
72B6
100
AcDbEntity
  8
Defpoints
 62
     0
100
AcDbPoint
 10
28445.50163830895
 20
17108.52677983884
 30
0.0
  0
POINT
  5
72C0
330
72B6
100
AcDbEntity
  8
Defpoints
 62
     0
100
AcDbPoint
 10
28466.86541141
 20
17188.25746649331
 30
0.0
  0
ENDBLK
  5
72C1
330
72B6
100
AcDbEntity
  8
0
100
AcDbBlockEnd
  0
BLOCK
  5
72C3
330
72C2
100
AcDbEntity
  8
0
100
AcDbBlockBegin
  2
*D34
 70
     1
 10
0.0
 20
0.0
 30
0.0
  3
*D34
  1

  0
LINE
  5
72C4
330
72C2
100
AcDbEntity
  8
\U+56FE\U+5C421
 62
     0
370
    -2
100
AcDbLine
 10
27626.84216460574
 20
17450.19822876294
 30
0.0
 11
27718.13121271111
 21
17466.29495098711
 31
0.0
  0
LINE
  5
72C5
330
72C2
100
AcDbEntity
  8
\U+56FE\U+5C421
 62
     0
370
    -2
100
AcDbLine
 10
27626.84216460574
 20
16767.24223474103
 30
0.0
 11
27718.13121271111
 21
16783.3389569652
 31
0.0
  0
LINE
  5
72C6
330
72C2
100
AcDbEntity
  8
\U+56FE\U+5C421
 62
     0
370
    -2
100
AcDbLine
 10
27717.13121271111
 20
17451.1186240064
 30
0.0
 11
27717.13121271111
 21
16798.16262998449
 31
0.0
  0
SOLID
  5
72C7
330
72C2
100
AcDbEntity
  8
\U+56FE\U+5C421
 62
     0
100
AcDbTrace
 10
27714.63121271111
 20
17451.1186240064
 30
0.0
 11
27719.6312127111
 21
17451.1186240064
 31
0.0
 12
27717.13121271111
 22
17466.1186240064
 32
0.0
 13
27717.13121271111
 23
17466.1186240064
 33
0.0
  0
SOLID
  5
72C8
330
72C2
100
AcDbEntity
  8
\U+56FE\U+5C421
 62
     0
100
AcDbTrace
 10
27714.63121271111
 20
16798.16262998449
 30
0.0
 11
27719.6312127111
 21
16798.16262998449
 31
0.0
 12
27717.13121271111
 22
16783.16262998449
 32
0.0
 13
27717.13121271111
 23
16783.16262998449
 33
0.0
  0
MTEXT
  5
72C9
330
72C2
100
AcDbEntity
  8
\U+56FE\U+5C421
 62
     0
100
AcDbMText
 10
27707.6312127111
 20
17141.24527447358
 30
0.0
 40
15.0
 41
0.0
 71
     5
 72
     1
  1
683
 11
0.0000000000000001
 21
1.0
 31
0.0
 73
     1
 44
1.0
1001
ACAD
1000
MTEXTBEGIN
1070
    73
1070
     1
1070
    44
1040
1.0
1070
    74
1070
     0
1000
MTEXTEND
  0
POINT
  5
72CA
330
72C2
100
AcDbEntity
  8
Defpoints
 62
     0
100
AcDbPoint
 10
27625.84216460574
 20
17450.02190178223
 30
0.0
  0
POINT
  5
72CB
330
72C2
100
AcDbEntity
  8
Defpoints
 62
     0
100
AcDbPoint
 10
27625.84216460574
 20
16767.06590776032
 30
0.0
  0
POINT
  5
72CC
330
72C2
100
AcDbEntity
  8
Defpoints
 62
     0
100
AcDbPoint
 10
27717.13121271111
 20
16783.16262998449
 30
0.0
  0
ENDBLK
  5
72CD
330
72C2
100
AcDbEntity
  8
0
100
AcDbBlockEnd
  0
BLOCK
  5
72CF
330
72CE
100
AcDbEntity
  8
0
100
AcDbBlockBegin
  2
A$C63C967E0
 70
     0
 10
0.0
 20
0.0
 30
0.0
  3
A$C63C967E0
  1

  0
LINE
  5
72D0
330
72CE
100
AcDbEntity
  8
0
  6
CENTERX2
 62
     6
 48
2.0
370
     5
100
AcDbLine
 10
75.82339981193491
 20
11.83362997729307
 30
0.0
 11
-0.0000018214091142
 21
11.9070403071895
 31
0.0
  0
ELLIPSE
  5
72D1
330
72CE
100
AcDbEntity
  8
0
 62
     0
100
AcDbEllipse
 10
37.1559288794715
 20
11.83362997729307
 30
0.0
 11
-35.0
 21
0.0
 31
0.0
210
0.0
220
0.0
230
1.0
 40
0.2857142857142857
 41
0.0
 42
6.283185307179586
  0
LINE
  5
72D2
330
72CE
100
AcDbEntity
  8
0
  6
CENTERX2
 62
     6
 48
2.0
370
     5
100
AcDbLine
 10
37.97397631038484
 20
22.84923718801633
 30
0.0
 11
37.97397631038484
 21
0.0000014094466678
 31
0.0
  0
ARC
  5
72D3
330
72CE
100
AcDbEntity
  8
0
  6
ByBlock
 62
     0
100
AcDbCircle
 10
31.7961714812086
 20
12.07948220087485
 30
0.0
 40
3.924065853200835
100
AcDbArc
 50
112.8802094440705
 51
156.2327987859933
  0
ARC
  5
72D4
330
72CE
100
AcDbEntity
  8
0
  6
ByBlock
 62
     0
100
AcDbCircle
 10
33.06474820261292
 20
11.86805274730727
 30
0.0
 40
5.180021612403894
100
AcDbArc
 50
159.7497832534273
 51
180.0
  0
ARC
  5
72D5
330
72CE
100
AcDbEntity
  8
0
  6
ByBlock
 62
     0
100
AcDbCircle
 10
33.06474820261292
 20
11.86805274730727
 30
0.0
 40
5.180021612403578
100
AcDbArc
 50
180.0
 51
204.1421994485606
  0
HATCH
  5
72D6
330
72CE
100
AcDbEntity
  8
0
 62
     0
100
AcDbHatch
 10
0.0
 20
0.0
 30
0.0
210
0.0
220
0.0
230
1.0
  2
ANSI31
 70
     0
 71
     0
 91
        2
 92
        7
 72
     1
 73
     1
 93
       12
 10
36.97619309361153
 20
11.86805274730704
 42
0.0885889023229442
 10
36.6560160954009
 20
13.66096496793284
 42
0.1914503145481132
 10
34.5904475302882
 20
15.69480160333364
 42
0.0933877341389949
 10
32.4304598418571
 20
16.09664181865719
 42
0.0933877341332411
 10
30.27047215356061
 20
15.69480160334387
 42
0.1914503145521546
 10
28.2049035884088
 20
13.66096496790146
 42
0.0885889023212891
 10
27.88472659020954
 20
11.86805274730704
 42
0.1057315925842807
 10
28.33780657502984
 20
9.74941007937582
 42
0.1880454605811504
 10
30.66859945548094
 20
7.898049874600928
 42
0.0729934230499638
 10
32.43045984191076
 20
7.639463675957131
 42
0.0729934230481066
 10
34.19232022829829
 20
7.898049874587741
 42
0.188045460584072
 10
36.5231131087935
 20
9.749410079376275
 42
0.1057315925842561
 97
        0
 92
       22
 72
     1
 73
     1
 93
        6
 10
34.63425803940118
 20
10.40303816918754
 42
-0.3529094187998684
 10
32.43045984191076
 20
8.62626793554773
 42
-0.3529094187997992
 10
30.22666164442171
 20
10.40303816918913
 42
-0.1072781365871425
 10
30.22666164442035
 20
13.3330673254261
 42
-0.3529094188000263
 10
32.43045984191076
 20
15.10983755906659
 42
-0.352909418799869
 10
34.63425803940118
 20
13.33306732542542
 42
-0.107278136587167
 97
        0
 75
     0
 76
     1
 52
0.0
 41
1.5416625
 77
     0
 78
     1
 53
45.0
 43
-3571.959034985422
 44
-1276.779618944408
 45
-0.1362650010063757
 46
0.1362650010063757
 79
     0
 47
0.0552920880445791
 98
        2
 10
36.13677169044513
 20
11.14454388710192
 10
36.13677169044513
 20
11.14454388710192
  0
HATCH
  5
72D7
330
72CE
100
AcDbEntity
  8
0
 62
     0
100
AcDbHatch
 10
0.0
 20
0.0
 30
0.0
210
0.0
220
0.0
230
1.0
  2
ANSI31
 70
     0
 71
     0
 91
        2
 92
        7
 72
     1
 73
     1
 93
       22
 10
22.03517837484196
 20
9.542328758064513
 42
-0.4142135623730951
 10
21.47136649866206
 20
8.978516881884615
 42
0.0
 10
20.34374274630181
 20
8.978516881884615
 42
0.0
 10
20.34374274630181
 20
7.991846098569453
 42
0.0
 10
25.6999555700113
 20
7.991846098569453
 42
0.0
 10
25.6999555700113
 20
8.978516881884615
 42
0.0
 10
24.57233181765196
 20
8.978516881884615
 42
-0.4142135623733314
 10
24.00851994147024
 20
9.542328758065877
 42
0.0
 10
24.00851994147024
 20
14.75758861272948
 42
0.0
 10
24.9162519177221
 20
14.75758861272948
 42
-0.2778692914635337
 10
26.04088354066016
 20
14.08151422981609
 42
-0.1163458644689902
 10
26.26376744619256
 20
13.13662946871159
 42
0.0
 10
26.26376744619256
 20
12.78424704610006
 42
0.0
 10
27.25043822950647
 20
12.78424704609995
 42
0.0
 10
27.25043822950647
 20
15.74425939604487
 42
0.0
 10
18.79326008680664
 20
15.74425939604475
 42
0.0
 10
18.79326008680664
 20
12.78424704610006
 42
0.0
 10
19.77993087012191
 20
12.78424704610017
 42
0.0
 10
19.77993087012191
 20
13.13662946871136
 42
-0.1163458644724423
 10
20.00281477566614
 20
14.08151422984167
 42
-0.2778692913050596
 10
21.12744639787115
 20
14.75758861272948
 42
0.0
 10
22.03517837484196
 20
14.75758861272948
 42
0.0
 97
        0
 92
        7
 72
     1
 73
     1
 93
       22
 10
42.8257413089791
 20
14.75758861272948
 42
0.0
 10
43.7334732848999
 20
14.75758861272948
 42
-0.2778692915249729
 10
44.85810490814947
 20
14.08151422985134
 42
-0.1163458644737675
 10
45.08098881369915
 20
13.13662946871159
 42
0.0
 10
45.08098881369915
 20
12.78424704610006
 42
0.0
 10
46.06765959701442
 20
12.78424704610006
 42
0.0
 10
46.06765959701442
 20
15.74425939604464
 42
0.0
 10
37.61048145431278
 20
15.74425939604487
 42
0.0
 10
37.61048145431232
 20
12.78424704610006
 42
0.0
 10
38.59715223762942
 20
12.78424704610006
 42
0.0
 10
38.59715223762942
 20
13.13662946871227
 42
-0.1163458644617602
 10
38.82003614313317
 20
14.081514229763
 42
-0.2778692913123255
 10
39.944667765325
 20
14.75758861272948
 42
0.0
 10
40.85239974234946
 20
14.75758861272948
 42
0.0
 10
40.85239974234946
 20
9.542328758064513
 42
-0.4142135623730951
 10
40.28858786616956
 20
8.978516881884615
 42
0.0
 10
39.1609641138084
 20
8.978516881884615
 42
0.0
 10
39.1609641138084
 20
7.991846098569453
 42
0.0
 10
44.5171769375197
 20
7.991846098569453
 42
0.0
 10
44.5171769375188
 20
8.978516881884615
 42
0.0
 10
43.38955318515809
 20
8.978516881884615
 42
-0.4142135623731543
 10
42.8257413089791
 20
9.542328758063604
 42
0.0
 97
        0
 75
     0
 76
     1
 52
0.0
 41
1.5416625
 77
     0
 78
     1
 53
45.0
 43
-3571.959034985424
 44
-1276.779618944408
 45
-0.1362650010063757
 46
0.1362650010063757
 79
     0
 47
0.0859211430199762
 98
        2
 10
22.79247127943972
 20
10.52584168097905
 10
41.88109998611889
 20
12.11537856636982
  0
LINE
  5
72D8
330
72CE
100
AcDbEntity
  8
0
  6
ByBlock
 62
     0
100
AcDbLine
 10
26.26376744619256
 20
13.13662946871216
 30
0.0
 11
26.26376744619256
 21
12.78424704610006
 31
0.0
  0
LINE
  5
72D9
330
72CE
100
AcDbEntity
  8
0
  6
ByBlock
 62
     0
100
AcDbLine
 10
27.25043822950647
 20
12.78424704610006
 30
0.0
 11
26.26376744619256
 21
12.78424704610006
 31
0.0
  0
LINE
  5
72DA
330
72CE
100
AcDbEntity
  8
0
  6
ByBlock
 62
     0
100
AcDbLine
 10
27.25043822950647
 20
15.74425939604475
 30
0.0
 11
27.25043822950647
 21
12.78424704610006
 31
0.0
  0
LINE
  5
72DB
330
72CE
100
AcDbEntity
  8
0
  6
ByBlock
 62
     0
100
AcDbLine
 10
25.6999555700113
 20
7.991846098569453
 30
0.0
 11
20.34374274630181
 21
7.991846098569453
 31
0.0
  0
LINE
  5
72DC
330
72CE
100
AcDbEntity
  8
0
  6
ByBlock
 62
     0
100
AcDbLine
 10
18.79326008680664
 20
12.78424704610006
 30
0.0
 11
18.79326008680664
 21
15.74425939604475
 31
0.0
  0
LINE
  5
72DD
330
72CE
100
AcDbEntity
  8
0
  6
ByBlock
 62
     0
100
AcDbLine
 10
19.77993087012191
 20
12.78424704610006
 30
0.0
 11
18.79326008680664
 21
12.78424704610006
 31
0.0
  0
LINE
  5
72DE
330
72CE
100
AcDbEntity
  8
0
  6
ByBlock
 62
     0
100
AcDbLine
 10
19.77993087012191
 20
12.78424704610006
 30
0.0
 11
19.77993087012191
 21
13.13662946871216
 31
0.0
  0
ARC
  5
72DF
330
72CE
100
AcDbEntity
  8
0
  6
ByBlock
 62
     0
100
AcDbCircle
 10
21.89422540579699
 20
13.13662946871216
 30
0.0
 40
2.114294535675774
100
AcDbArc
 50
153.4548376560565
 51
180.0
  0
ARC
  5
72E0
330
72CE
100
AcDbEntity
  8
0
  6
ByBlock
 62
     0
100
AcDbCircle
 10
21.12643206133316
 20
13.48584145702204
 30
0.0
 40
1.271747560221124
100
AcDbArc
 50
90.04569867662183
 51
152.0702157965911
  0
LINE
  5
72E1
330
72CE
100
AcDbEntity
  8
0
  6
ByBlock
 62
     0
100
AcDbLine
 10
21.12541772528903
 20
14.75758861272948
 30
0.0
 11
22.03517837484196
 21
14.75758861272948
 31
0.0
  0
LINE
  5
72E2
330
72CE
100
AcDbEntity
  8
0
  6
ByBlock
 62
     0
100
AcDbLine
 10
22.03517837484196
 20
9.542328758064513
 30
0.0
 11
22.03517837484196
 21
14.75758861272948
 31
0.0
  0
ARC
  5
72E3
330
72CE
100
AcDbEntity
  8
0
  6
ByBlock
 62
     0
100
AcDbCircle
 10
21.47136649866206
 20
9.542328758064513
 30
0.0
 40
0.5638118761799546
100
AcDbArc
 50
270.0
 51
0.0
  0
LINE
  5
72E4
330
72CE
100
AcDbEntity
  8
0
  6
ByBlock
 62
     0
100
AcDbLine
 10
20.34374274630181
 20
8.978516881884615
 30
0.0
 11
21.47136649866206
 21
8.978516881884615
 31
0.0
  0
LINE
  5
72E5
330
72CE
100
AcDbEntity
  8
0
  6
ByBlock
 62
     0
100
AcDbLine
 10
20.34374274630181
 20
7.991846098569453
 30
0.0
 11
20.34374274630181
 21
8.978516881884615
 31
0.0
  0
LINE
  5
72E6
330
72CE
100
AcDbEntity
  8
0
  6
ByBlock
 62
     0
100
AcDbLine
 10
24.00851994147024
 20
14.75758861272948
 30
0.0
 11
24.91828059102272
 21
14.75758861272948
 31
0.0
  0
LINE
  5
72E7
330
72CE
100
AcDbEntity
  8
0
  6
ByBlock
 62
     0
100
AcDbLine
 10
25.6999555700113
 20
8.978516881884615
 30
0.0
 11
25.6999555700113
 21
7.991846098569453
 31
0.0
  0
LINE
  5
72E8
330
72CE
100
AcDbEntity
  8
0
  6
ByBlock
 62
     0
100
AcDbLine
 10
25.6999555700113
 20
8.978516881884615
 30
0.0
 11
24.57233181765196
 21
8.978516881884615
 31
0.0
  0
ARC
  5
72E9
330
72CE
100
AcDbEntity
  8
0
  6
ByBlock
 62
     0
100
AcDbCircle
 10
24.57233181765196
 20
9.542328758064513
 30
0.0
 40
0.5638118761812235
100
AcDbArc
 50
180.0
 51
270.0
  0
LINE
  5
72EA
330
72CE
100
AcDbEntity
  8
0
  6
ByBlock
 62
     0
100
AcDbLine
 10
24.00851994147024
 20
9.542328758064513
 30
0.0
 11
24.00851994147024
 21
14.75758861272948
 31
0.0
  0
LINE
  5
72EB
330
72CE
100
AcDbEntity
  8
0
  6
ByBlock
 62
     0
100
AcDbLine
 10
18.79326008680664
 20
15.74425939604475
 30
0.0
 11
27.25043822950647
 21
15.74425939604475
 31
0.0
  0
ARC
  5
72EC
330
72CE
100
AcDbEntity
  8
0
  6
ByBlock
 62
     0
100
AcDbCircle
 10
24.91726625497904
 20
13.48584145702204
 30
0.0
 40
1.271747560221766
100
AcDbArc
 50
27.92978420337938
 51
89.95430132337817
  0
ARC
  5
72ED
330
72CE
100
AcDbEntity
  8
0
  6
ByBlock
 62
     0
100
AcDbCircle
 10
24.14947291051567
 20
13.13662946871216
 30
0.0
 40
2.114294535676348
100
AcDbArc
 50
0.0
 51
26.54516234393184
  0
HATCH
  5
72EE
330
72CE
100
AcDbEntity
  8
0
 62
     0
100
AcDbHatch
 10
0.0
 20
0.0
 30
0.0
210
0.0
220
0.0
230
1.0
  2
ANSI31
 70
     0
 71
     0
 91
        2
 92
        7
 72
     1
 73
     1
 93
       12
 10
55.79341446111858
 20
11.86805274730704
 42
0.0885889023229442
 10
55.47323746290794
 20
13.66096496793284
 42
0.1914503145481132
 10
53.40766889779525
 20
15.69480160333364
 42
0.0933877341389949
 10
51.24768120936415
 20
16.09664181865719
 42
0.0933877341332411
 10
49.08769352106765
 20
15.69480160334387
 42
0.1914503145521546
 10
47.02212495591584
 20
13.66096496790146
 42
0.0885889023212891
 10
46.70194795771658
 20
11.86805274730704
 42
0.1057315925842807
 10
47.15502794253689
 20
9.74941007937582
 42
0.1880454605811504
 10
49.48582082298798
 20
7.898049874600928
 42
0.0729934230499638
 10
51.2476812094178
 20
7.639463675957131
 42
0.0729934230481066
 10
53.00954159580533
 20
7.898049874587741
 42
0.188045460584072
 10
55.34033447630054
 20
9.749410079376275
 42
0.1057315925842561
 97
        0
 92
       22
 72
     1
 73
     1
 93
        6
 10
53.45147940690821
 20
10.40303816918754
 42
-0.3529094187998684
 10
51.2476812094178
 20
8.62626793554773
 42
-0.3529094187997992
 10
49.04388301192875
 20
10.40303816918913
 42
-0.1072781365871425
 10
49.04388301192739
 20
13.3330673254261
 42
-0.3529094188000263
 10
51.2476812094178
 20
15.10983755906659
 42
-0.352909418799869
 10
53.45147940690821
 20
13.33306732542542
 42
-0.107278136587167
 97
        0
 75
     0
 76
     1
 52
0.0
 41
1.5416625
 77
     0
 78
     1
 53
45.0
 43
-3553.141813617916
 44
-1276.779618944408
 45
-0.1362650010063757
 46
0.1362650010063757
 79
     0
 47
0.0552920880445791
 98
        2
 10
54.95399305795217
 20
11.14454388710192
 10
54.95399305795217
 20
11.14454388710192
  0
ARC
  5
72EF
330
72CE
100
AcDbEntity
  8
0
  6
ByBlock
 62
     0
100
AcDbCircle
 10
31.7961714812086
 20
11.86805274730727
 30
0.0
 40
5.180021612402577
100
AcDbArc
 50
0.0
 51
20.25021674657265
  0
ARC
  5
72F0
330
72CE
100
AcDbEntity
  8
0
  6
ByBlock
 62
     0
100
AcDbCircle
 10
33.06474820261292
 20
12.07948220087485
 30
0.0
 40
3.924065853201529
100
AcDbArc
 50
23.76720121400673
 51
67.11979055592947
  0
ARC
  5
72F1
330
72CE
100
AcDbEntity
  8
0
  6
ByBlock
 62
     0
100
AcDbCircle
 10
32.44410470986941
 20
10.16383980287708
 30
0.0
 40
5.932817706694669
100
AcDbArc
 50
68.79077895123417
 51
90.1317744912915
  0
ARC
  5
72F2
330
72CE
100
AcDbEntity
  8
0
  6
ByBlock
 62
     0
100
AcDbCircle
 10
32.4168149739512
 20
10.16383980287708
 30
0.0
 40
5.932817706694298
100
AcDbArc
 50
89.86822550870849
 51
111.2092210487634
  0
ARC
  5
72F3
330
72CE
100
AcDbEntity
  8
0
  6
ByBlock
 62
     0
100
AcDbCircle
 10
31.87748803484647
 20
11.81286553556651
 30
0.0
 40
4.097217745819958
100
AcDbArc
 50
210.2400248829626
 51
252.8393987677325
  0
ARC
  5
72F4
330
72CE
100
AcDbEntity
  8
0
  6
ByBlock
 62
     0
100
AcDbCircle
 10
32.43045984191076
 20
13.77091782941465
 30
0.0
 40
6.131454153457315
100
AcDbArc
 50
253.3007557660083
 51
270.0
  0
ARC
  5
72F5
330
72CE
100
AcDbEntity
  8
0
  6
ByBlock
 62
     0
100
AcDbCircle
 10
32.43045984191076
 20
13.77091782941465
 30
0.0
 40
6.131454153457265
100
AcDbArc
 50
270.0
 51
286.6992442339649
  0
ARC
  5
72F6
330
72CE
100
AcDbEntity
  8
0
  6
ByBlock
 62
     0
100
AcDbCircle
 10
32.9834316489746
 20
11.81286553556651
 30
0.0
 40
4.097217745819771
100
AcDbArc
 50
287.1606012322675
 51
329.7599751170374
  0
ARC
  5
72F7
330
72CE
100
AcDbEntity
  8
0
  6
ByBlock
 62
     0
100
AcDbCircle
 10
31.7961714812086
 20
11.86805274730727
 30
0.0
 40
5.180021612403242
100
AcDbArc
 50
335.8578005514394
 51
0.0
  0
ARC
  5
72F8
330
72CE
100
AcDbEntity
  8
0
  6
ByBlock
 62
     0
100
AcDbCircle
 10
32.43045984191076
 20
10.881381963992
 30
0.0
 40
2.255114028444262
100
AcDbArc
 50
270.0
 51
347.7536671403296
  0
ARC
  5
72F9
330
72CE
100
AcDbEntity
  8
0
  6
ByBlock
 62
     0
100
AcDbCircle
 10
32.43045984191076
 20
10.881381963992
 30
0.0
 40
2.255114028444903
100
AcDbArc
 50
192.2463328596703
 51
270.0
  0
ARC
  5
72FA
330
72CE
100
AcDbEntity
  8
0
  6
ByBlock
 62
     0
100
AcDbCircle
 10
36.97619309361062
 20
11.86805274730727
 30
0.0
 40
6.906695483204177
100
AcDbArc
 50
167.7536671403233
 51
192.246332859683
  0
ARC
  5
72FB
330
72CE
100
AcDbEntity
  8
0
  6
ByBlock
 62
     0
100
AcDbCircle
 10
32.43045984191076
 20
12.85472353062232
 30
0.0
 40
2.255114028444262
100
AcDbArc
 50
90.0
 51
167.7536671403296
  0
ARC
  5
72FC
330
72CE
100
AcDbEntity
  8
0
  6
ByBlock
 62
     0
100
AcDbCircle
 10
32.43045984191076
 20
12.85472353062232
 30
0.0
 40
2.255114028444867
100
AcDbArc
 50
12.24633285967034
 51
90.0
  0
ARC
  5
72FD
330
72CE
100
AcDbEntity
  8
0
  6
ByBlock
 62
     0
100
AcDbCircle
 10
27.88472659020909
 20
11.86805274730727
 30
0.0
 40
6.906695483205052
100
AcDbArc
 50
347.7536671403233
 51
12.2463328596767
  0
ARC
  5
72FE
330
72CE
100
AcDbEntity
  8
0
  6
ByBlock
 62
     0
100
AcDbCircle
 10
51.88196957012087
 20
12.07948220087485
 30
0.0
 40
3.924065853201529
100
AcDbArc
 50
23.76720121400673
 51
67.11979055592947
  0
ARC
  5
72FF
330
72CE
100
AcDbEntity
  8
0
  6
ByBlock
 62
     0
100
AcDbCircle
 10
51.26132607737736
 20
10.16383980287708
 30
0.0
 40
5.932817706694307
100
AcDbArc
 50
68.79077895123652
 51
90.1317744912915
  0
ARC
  5
7300
330
72CE
100
AcDbEntity
  8
0
  6
ByBlock
 62
     0
100
AcDbCircle
 10
51.23403634145825
 20
10.16383980287708
 30
0.0
 40
5.932817706694299
100
AcDbArc
 50
89.86822550870849
 51
111.2092210487658
  0
ARC
  5
7301
330
72CE
100
AcDbEntity
  8
0
  6
ByBlock
 62
     0
100
AcDbCircle
 10
50.61339284871519
 20
12.07948220087485
 30
0.0
 40
3.924065853201226
100
AcDbArc
 50
112.880209444097
 51
156.2327987859933
  0
ARC
  5
7302
330
72CE
100
AcDbEntity
  8
0
  6
ByBlock
 62
     0
100
AcDbCircle
 10
51.88196957012087
 20
11.86805274730727
 30
0.0
 40
5.180021612404082
100
AcDbArc
 50
159.7497832534273
 51
180.0
  0
ARC
  5
7303
330
72CE
100
AcDbEntity
  8
0
  6
ByBlock
 62
     0
100
AcDbCircle
 10
51.88196957012087
 20
11.86805274730727
 30
0.0
 40
5.180021612403646
100
AcDbArc
 50
180.0
 51
204.1421994485606
  0
ARC
  5
7304
330
72CE
100
AcDbEntity
  8
0
  6
ByBlock
 62
     0
100
AcDbCircle
 10
50.69470940235442
 20
11.81286553556651
 30
0.0
 40
4.097217745819843
100
AcDbArc
 50
210.2400248829626
 51
252.8393987677325
  0
ARC
  5
7305
330
72CE
100
AcDbEntity
  8
0
  6
ByBlock
 62
     0
100
AcDbCircle
 10
51.2476812094178
 20
13.77091782941465
 30
0.0
 40
6.131454153457394
100
AcDbArc
 50
253.3007557660083
 51
270.0
  0
ARC
  5
7306
330
72CE
100
AcDbEntity
  8
0
  6
ByBlock
 62
     0
100
AcDbCircle
 10
51.2476812094178
 20
13.77091782941465
 30
0.0
 40
6.131454153457265
100
AcDbArc
 50
270.0
 51
286.6992442339917
  0
ARC
  5
7307
330
72CE
100
AcDbEntity
  8
0
  6
ByBlock
 62
     0
100
AcDbCircle
 10
51.8006530164821
 20
11.81286553556651
 30
0.0
 40
4.097217745820146
100
AcDbArc
 50
287.1606012322675
 51
329.7599751170318
  0
ARC
  5
7308
330
72CE
100
AcDbEntity
  8
0
  6
ByBlock
 62
     0
100
AcDbCircle
 10
50.61339284871519
 20
11.86805274730727
 30
0.0
 40
5.180021612402207
100
AcDbArc
 50
335.8578005514334
 51
0.0
  0
ARC
  5
7309
330
72CE
100
AcDbEntity
  8
0
  6
ByBlock
 62
     0
100
AcDbCircle
 10
50.61339284871519
 20
11.86805274730727
 30
0.0
 40
5.180021612403646
100
AcDbArc
 50
0.0
 51
20.25021674657265
  0
LINE
  5
730A
330
72CE
100
AcDbEntity
  8
0
  6
ByBlock
 62
     0
100
AcDbLine
 10
42.8257413089791
 20
14.75758861272948
 30
0.0
 11
43.73550195853158
 21
14.75758861272948
 31
0.0
  0
ARC
  5
730B
330
72CE
100
AcDbEntity
  8
0
  6
ByBlock
 62
     0
100
AcDbCircle
 10
43.73448762248608
 20
13.48584145702204
 30
0.0
 40
1.271747560222002
100
AcDbArc
 50
27.92978420337938
 51
89.95430132332606
  0
ARC
  5
730C
330
72CE
100
AcDbEntity
  8
0
  6
ByBlock
 62
     0
100
AcDbCircle
 10
42.96669427802408
 20
13.13662946871216
 30
0.0
 40
2.114294535675213
100
AcDbArc
 50
0.0
 51
26.5451623439435
  0
LINE
  5
730D
330
72CE
100
AcDbEntity
  8
0
  6
ByBlock
 62
     0
100
AcDbLine
 10
45.08098881369915
 20
13.13662946871216
 30
0.0
 11
45.08098881369915
 21
12.78424704610006
 31
0.0
  0
LINE
  5
730E
330
72CE
100
AcDbEntity
  8
0
  6
ByBlock
 62
     0
100
AcDbLine
 10
46.06765959701442
 20
12.78424704610006
 30
0.0
 11
45.08098881369915
 21
12.78424704610006
 31
0.0
  0
LINE
  5
730F
330
72CE
100
AcDbEntity
  8
0
  6
ByBlock
 62
     0
100
AcDbLine
 10
46.06765959701442
 20
15.74425939604475
 30
0.0
 11
46.06765959701442
 21
12.78424704610006
 31
0.0
  0
LINE
  5
7310
330
72CE
100
AcDbEntity
  8
0
  6
ByBlock
 62
     0
100
AcDbLine
 10
37.61048145431278
 20
15.74425939604475
 30
0.0
 11
46.06765959701442
 21
15.74425939604475
 31
0.0
  0
LINE
  5
7311
330
72CE
100
AcDbEntity
  8
0
  6
ByBlock
 62
     0
100
AcDbLine
 10
37.61048145431278
 20
12.78424704610006
 30
0.0
 11
37.61048145431278
 21
15.74425939604475
 31
0.0
  0
LINE
  5
7312
330
72CE
100
AcDbEntity
  8
0
  6
ByBlock
 62
     0
100
AcDbLine
 10
38.59715223762942
 20
12.78424704610006
 30
0.0
 11
37.61048145431278
 21
12.78424704610006
 31
0.0
  0
LINE
  5
7313
330
72CE
100
AcDbEntity
  8
0
  6
ByBlock
 62
     0
100
AcDbLine
 10
38.59715223762942
 20
12.78424704610006
 30
0.0
 11
38.59715223762942
 21
13.13662946871216
 31
0.0
  0
ARC
  5
7314
330
72CE
100
AcDbEntity
  8
0
  6
ByBlock
 62
     0
100
AcDbCircle
 10
40.71144677330448
 20
13.13662946871216
 30
0.0
 40
2.114294535675835
100
AcDbArc
 50
153.4548376560565
 51
180.0
  0
ARC
  5
7315
330
72CE
100
AcDbEntity
  8
0
  6
ByBlock
 62
     0
100
AcDbCircle
 10
39.94365342884203
 20
13.48584145702204
 30
0.0
 40
1.271747560221124
100
AcDbArc
 50
90.04569867664786
 51
152.0702157966206
  0
LINE
  5
7316
330
72CE
100
AcDbEntity
  8
0
  6
ByBlock
 62
     0
100
AcDbLine
 10
39.94263909279698
 20
14.75758861272948
 30
0.0
 11
40.85239974234946
 21
14.75758861272948
 31
0.0
  0
LINE
  5
7317
330
72CE
100
AcDbEntity
  8
0
  6
ByBlock
 62
     0
100
AcDbLine
 10
40.85239974234946
 20
9.542328758064513
 30
0.0
 11
40.85239974234946
 21
14.75758861272948
 31
0.0
  0
ARC
  5
7318
330
72CE
100
AcDbEntity
  8
0
  6
ByBlock
 62
     0
100
AcDbCircle
 10
40.28858786616956
 20
9.542328758064513
 30
0.0
 40
0.5638118761799546
100
AcDbArc
 50
270.0
 51
0.0
  0
LINE
  5
7319
330
72CE
100
AcDbEntity
  8
0
  6
ByBlock
 62
     0
100
AcDbLine
 10
39.16096411380886
 20
8.978516881884615
 30
0.0
 11
40.28858786616956
 21
8.978516881884615
 31
0.0
  0
LINE
  5
731A
330
72CE
100
AcDbEntity
  8
0
  6
ByBlock
 62
     0
100
AcDbLine
 10
39.16096411380886
 20
7.991846098569453
 30
0.0
 11
39.16096411380886
 21
8.978516881884615
 31
0.0
  0
LINE
  5
731B
330
72CE
100
AcDbEntity
  8
0
  6
ByBlock
 62
     0
100
AcDbLine
 10
44.51717693751925
 20
7.991846098569453
 30
0.0
 11
39.16096411380886
 21
7.991846098569453
 31
0.0
  0
LINE
  5
731C
330
72CE
100
AcDbEntity
  8
0
  6
ByBlock
 62
     0
100
AcDbLine
 10
44.51717693751925
 20
8.978516881884615
 30
0.0
 11
44.51717693751925
 21
7.991846098569453
 31
0.0
  0
LINE
  5
731D
330
72CE
100
AcDbEntity
  8
0
  6
ByBlock
 62
     0
100
AcDbLine
 10
44.51717693751925
 20
8.978516881884615
 30
0.0
 11
43.38955318515809
 21
8.978516881884615
 31
0.0
  0
ARC
  5
731E
330
72CE
100
AcDbEntity
  8
0
  6
ByBlock
 62
     0
100
AcDbCircle
 10
43.38955318515809
 20
9.542328758064513
 30
0.0
 40
0.5638118761788866
100
AcDbArc
 50
180.0
 51
270.0
  0
LINE
  5
731F
330
72CE
100
AcDbEntity
  8
0
  6
ByBlock
 62
     0
100
AcDbLine
 10
42.8257413089791
 20
9.542328758064513
 30
0.0
 11
42.8257413089791
 21
14.75758861272948
 31
0.0
  0
ARC
  5
7320
330
72CE
100
AcDbEntity
  8
0
  6
ByBlock
 62
     0
100
AcDbCircle
 10
51.2476812094178
 20
12.85472353062232
 30
0.0
 40
2.255114028444801
100
AcDbArc
 50
12.24633285967034
 51
90.0
  0
ARC
  5
7321
330
72CE
100
AcDbEntity
  8
0
  6
ByBlock
 62
     0
100
AcDbCircle
 10
46.70194795771658
 20
11.86805274730727
 30
0.0
 40
6.906695483205118
100
AcDbArc
 50
347.7536671403233
 51
12.2463328596767
  0
ARC
  5
7322
330
72CE
100
AcDbEntity
  8
0
  6
ByBlock
 62
     0
100
AcDbCircle
 10
51.2476812094178
 20
10.881381963992
 30
0.0
 40
2.255114028444262
100
AcDbArc
 50
270.0
 51
347.7536671403296
  0
ARC
  5
7323
330
72CE
100
AcDbEntity
  8
0
  6
ByBlock
 62
     0
100
AcDbCircle
 10
55.79341446111858
 20
11.86805274730727
 30
0.0
 40
6.906695483205218
100
AcDbArc
 50
167.7536671403233
 51
192.2463328596767
  0
ARC
  5
7324
330
72CE
100
AcDbEntity
  8
0
  6
ByBlock
 62
     0
100
AcDbCircle
 10
51.2476812094178
 20
12.85472353062232
 30
0.0
 40
2.255114028444262
100
AcDbArc
 50
90.0
 51
167.7536671403296
  0
ARC
  5
7325
330
72CE
100
AcDbEntity
  8
0
  6
ByBlock
 62
     0
100
AcDbCircle
 10
51.2476812094178
 20
10.881381963992
 30
0.0
 40
2.255114028445164
100
AcDbArc
 50
192.2463328596703
 51
270.0
  0
ENDBLK
  5
7326
330
72CE
100
AcDbEntity
  8
0
100
AcDbBlockEnd
  0
BLOCK
  5
74F2
330
7336
100
AcDbEntity
  8
0
 62
   142
 48
4.0
100
AcDbBlockBegin
  2
FBY1500.FBY1550 FBY1700 FBY1800
 70
     0
 10
0.0
 20
0.0
 30
0.0
  3
FBY1500.FBY1550 FBY1700 FBY1800
  1

  0
DIMENSION
  5
7337
102
{ACAD_XDICTIONARY
360
7338
102
}
102
{ACAD_REACTORS
330
7339
102
}
330
7336
100
AcDbEntity
  8
\U+56FE\U+5C421
100
AcDbDimension
  2
*D24
 10
26185.3034112669
 20
9574.188309591415
 30
0.0
 11
28235.71185372205
 21
9610.515229198474
 31
0.0
 70
   164
 71
     5
 42
2235.514430167354
  3
ISO-25
100
AcDbRadialDimension
 15
28420.46707208325
 25
9613.788522375301
 35
0.0
 40
0.0
1001
ACAD
1000
DSTYLE
1002
{
1070
   271
1070
     1
1070
    40
1040
2.0
1070
   147
1040
1.0
1070
   173
1070
     1
1070
   343
1005
72A8
1070
   344
1005
72A8
1002
}
  0
LINE
  5
733A
102
{ACAD_REACTORS
330
7344
330
7347
102
}
330
7336
100
AcDbEntity
  8
\U+56FE\U+5C423
100
AcDbLine
 10
27724.6843740394
 20
9914.802447500722
 30
0.0
 11
27723.35398957181
 21
9892.650068177838
 31
0.0
  0
LINE
  5
733B
102
{ACAD_REACTORS
330
7341
102
}
330
7336
100
AcDbEntity
  8
\U+56FE\U+5C421
100
AcDbLine
 10
27581.94155970851
 20
9923.375017529341
 30
0.0
 11
27581.54178763808
 21
9916.718368445804
 31
0.0
  0
LINE
  5
733C
102
{ACAD_REACTORS
330
7341
102
}
330
7336
100
AcDbEntity
  8
\U+56FE\U+5C421
100
AcDbLine
 10
27554.99011924044
 20
9924.993614667613
 30
0.0
 11
27552.46813043104
 21
9882.999699288342
 31
0.0
  0
LINE
  5
733D
102
{ACAD_REACTORS
330
7347
330
734A
102
}
330
7336
100
AcDbEntity
  8
\U+56FE\U+5C421
100
AcDbLine
 10
27818.51531492824
 20
9909.167331537855
 30
0.0
 11
27818.13724048517
 21
9902.871972053867
 31
0.0
  0
LINE
  5
733E
102
{ACAD_REACTORS
330
734A
102
}
330
7336
100
AcDbEntity
  8
\U+56FE\U+5C421
100
AcDbLine
 10
27845.46675539631
 20
9907.548734399583
 30
0.0
 11
27842.97325401542
 21
9866.029166351967
 31
0.0
  0
DIMENSION
  5
733F
102
{ACAD_XDICTIONARY
360
7340
102
}
102
{ACAD_REACTORS
330
7341
102
}
330
7336
100
AcDbEntity
  8
\U+56FE\U+5C421
100
AcDbDimension
  2
*D29
 10
27583.31054828025
 20
9946.170198072044
 30
0.0
 11
27569.83482804622
 21
9946.97949664118
 31
0.0
 70
   161
 71
     5
 42
26.99999999999636
  3
ISO-25
100
AcDbAlignedDimension
 13
27554.99011924044
 23
9924.993614667613
 33
0.0
 14
27581.94155970851
 24
9923.375017529341
 34
0.0
  0
DIMENSION
  5
7342
102
{ACAD_XDICTIONARY
360
7343
102
}
102
{ACAD_REACTORS
330
7344
102
}
330
7336
100
AcDbEntity
  8
\U+56FE\U+5C421
100
AcDbDimension
  2
*D28
 10
27726.14576953049
 20
9936.589206995709
 30
0.0
 11
27655.44014132629
 21
9950.853292674395
 31
0.0
 70
    33
 71
     5
 42
143.0034964607548
  3
ISO-25
100
AcDbAlignedDimension
 13
27582.00150775067
 23
9924.373219028158
 33
0.0
 14
27724.6843740394
 24
9914.802447500722
 34
0.0
  0
DIMENSION
  5
7345
102
{ACAD_XDICTIONARY
360
7346
102
}
102
{ACAD_REACTORS
330
7347
102
}
330
7336
100
AcDbEntity
  8
\U+56FE\U+5C421
100
AcDbDimension
  2
*D27
 10
27819.9327176309
 20
9930.29823824891
 30
0.0
 11
27773.67504852086
 21
9942.922422537277
 31
0.0
 70
    32
 71
     5
 42
93.99770168339456
  3
ISO-25
100
AcDbAlignedDimension
 13
27724.6843740394
 23
9914.802447500722
 33
0.0
 14
27818.51531492824
 24
9909.167331537855
 34
0.0
 50
176.1625063101238
100
AcDbRotatedDimension
1001
ACAD
1000
DSTYLE
1002
{
1070
   279
1070
     1
1002
}
  0
DIMENSION
  5
7348
102
{ACAD_XDICTIONARY
360
7349
102
}
102
{ACAD_REACTORS
330
734A
102
}
330
7336
100
AcDbEntity
  8
\U+56FE\U+5C421
100
AcDbDimension
  2
*D26
 10
27846.8715218725
 20
9928.491257864193
 30
0.0
 11
27841.52725348658
 21
9953.404791825571
 31
0.0
 70
    32
 71
     5
 42
26.99933984523159
  3
ISO-25
100
AcDbAlignedDimension
 13
27818.51531492824
 23
9909.167331537855
 33
0.0
 14
27845.46675539631
 24
9907.548734399583
 34
0.0
 50
176.1625063101238
100
AcDbRotatedDimension
1001
ACAD
1000
DSTYLE
1002
{
1070
   279
1070
     1
1002
}
  0
LINE
  5
734B
330
7336
100
AcDbEntity
  8
\U+56FE\U+5C421
100
AcDbLine
 10
28351.15735553687
 20
9756.746390187007
 30
0.0
 11
28336.31784140738
 21
9745.69927199264
 31
0.0
  0
DIMENSION
  5
734C
102
{ACAD_XDICTIONARY
360
734D
102
}
102
{ACAD_REACTORS
330
734E
102
}
330
7336
100
AcDbEntity
  8
\U+56FE\U+5C421
100
AcDbDimension
  2
*D25
 10
28336.31784140738
 20
9745.699271992641
 30
0.0
 11
28359.78031644995
 21
9763.165661570216
 31
0.0
 70
   164
 71
     5
 42
79.99999999998545
  3
ISO-25
100
AcDbRadialDimension
 15
28400.48871331871
 25
9793.470593914237
 35
0.0
 40
0.0
1001
ACAD
1000
DSTYLE
1002
{
1070
   288
1070
     1
1002
}
  0
DIMENSION
  5
734F
330
7336
100
AcDbEntity
  8
\U+56FE\U+5C421
100
AcDbDimension
  2
*D16
 10
28492.28396001183
 20
9574.199271992638
 30
0.0
 11
28475.28396001183
 21
9450.949271992644
 31
0.0
 70
    32
 71
     5
 42
246.4999999999946
  3
ISO-25
100
AcDbAlignedDimension
 13
28409.55197644319
 23
9327.699271992644
 33
0.0
 14
28450.96081610149
 24
9574.199271992638
 34
0.0
 50
270.0
100
AcDbRotatedDimension
1001
ACAD
1000
DSTYLE
1002
{
1070
    40
1040
2.0
1070
   147
1040
1.0
1070
   173
1070
     1
1070
   343
1005
72A8
1070
   344
1005
72A8
1002
}
  0
DIMENSION
  5
7350
102
{ACAD_XDICTIONARY
360
7351
102
}
102
{ACAD_REACTORS
330
7352
102
}
330
7336
100
AcDbEntity
  8
\U+56FE\U+5C421
100
AcDbDimension
  2
*D22
 10
27795.95700150826
 20
9284.189276192924
 30
0.0
 11
27791.39537909138
 21
9293.923448008021
 31
0.0
 70
   164
 71
     5
 42
40.0
  3
ISO-25
100
AcDbRadialDimension
 15
27812.93048026874
 25
9247.969101997217
 35
0.0
 40
0.0
  0
DIMENSION
  5
7353
102
{ACAD_XDICTIONARY
360
7354
102
}
102
{ACAD_REACTORS
330
7355
102
}
330
7336
100
AcDbEntity
  8
\U+56FE\U+5C421
100
AcDbDimension
  2
*D21
 10
27859.62246867317
 20
9253.404269818162
 30
0.0
 11
27866.07670337373
 21
9233.683586401253
 31
0.0
 70
   164
 71
     5
 42
30.00000000001637
  3
ISO-25
100
AcDbRadialDimension
 15
27850.29104500973
 25
9281.91610126432
 35
0.0
 40
0.0
  0
LINE
  5
7356
330
7336
100
AcDbEntity
  8
\U+56FE\U+5C423
100
AcDbLine
 10
27836.38797825558
 20
9875.789894376499
 30
0.0
 11
27842.96543170383
 21
9866.02968043635
 31
0.0
  0
ARC
  5
7357
330
7336
100
AcDbEntity
  8
0
100
AcDbCircle
 10
27859.62246867317
 20
9894.994274167116
 30
0.0
 40
30.0
100
AcDbArc
 50
213.9762128726588
 51
266.1978132511405
  0
LINE
  5
7358
330
7336
100
AcDbEntity
  8
0
100
AcDbLine
 10
27829.12778781593
 20
9886.563214551962
 30
0.0
 11
27836.38797825558
 21
9875.78989437649
 31
0.0
  0
ARC
  5
7359
330
7336
100
AcDbEntity
  8
\U+56FE\U+5C423
100
AcDbCircle
 10
26531.39346099438
 20
-10055.69231459512
 30
0.0
 40
20000.0
100
AcDbArc
 50
86.31120289590002
 51
86.36759962564388
  0
LINE
  5
735A
330
7336
100
AcDbEntity
  8
\U+56FE\U+5C423
100
AcDbLine
 10
27818.13720409842
 20
9902.872026047779
 30
0.0
 11
27829.12778781593
 21
9886.563214551962
 31
0.0
  0
ARC
  5
735B
330
7336
100
AcDbEntity
  8
0
100
AcDbCircle
 10
27795.95700150827
 20
9864.20926779235
 30
0.0
 40
40.0
100
AcDbArc
 50
33.97621287268071
 51
86.36759962566546
  0
ARC
  5
735C
102
{ACAD_REACTORS
330
7352
102
}
330
7336
100
AcDbEntity
  8
0
100
AcDbCircle
 10
27795.95700150827
 20
9284.189276192927
 30
0.0
 40
40.0
100
AcDbArc
 50
273.6324003743346
 51
326.0237871273193
  0
ARC
  5
735D
102
{ACAD_REACTORS
330
7355
102
}
330
7336
100
AcDbEntity
  8
0
100
AcDbCircle
 10
27859.62246867317
 20
9253.404269818162
 30
0.0
 40
30.0
100
AcDbArc
 50
93.8021867488595
 51
146.0237871273412
  0
DIMENSION
  5
735E
102
{ACAD_XDICTIONARY
360
735F
102
}
102
{ACAD_REACTORS
330
7360
102
}
330
7336
100
AcDbEntity
  8
\U+56FE\U+5C421
100
AcDbDimension
  2
*D19
 10
27599.01883774148
 20
9875.7345298364
 30
0.0
 11
27603.38325570375
 21
9865.910357817824
 31
0.0
 70
   164
 71
     5
 42
40.00000000000182
  3
ISO-25
100
AcDbRadialDimension
 15
27582.77914299815
 25
9912.28958851018
 35
0.0
 40
0.0
  0
DIMENSION
  5
7361
102
{ACAD_XDICTIONARY
360
7362
102
}
102
{ACAD_REACTORS
330
7363
102
}
330
7336
100
AcDbEntity
  8
\U+56FE\U+5C421
100
AcDbDimension
  2
*D18
 10
27539.32770965497
 20
9913.705222165752
 30
0.0
 11
27523.61572578655
 21
9927.258674232248
 31
0.0
 70
   164
 71
     5
 42
29.99999999999273
  3
ISO-25
100
AcDbRadialDimension
 15
27562.04383091051
 25
9894.109869780473
 35
0.0
 40
0.0
  0
LINE
  5
7364
330
7336
100
AcDbEntity
  8
\U+56FE\U+5C421
100
AcDbLine
 10
27160.30143495194
 20
9831.85335552066
 30
0.0
 11
27169.31784140737
 21
9815.69927199264
 31
0.0
  0
DIMENSION
  5
7365
102
{ACAD_XDICTIONARY
360
7366
102
}
102
{ACAD_REACTORS
330
7367
102
}
330
7336
100
AcDbEntity
  8
\U+56FE\U+5C421
100
AcDbDimension
  2
*D17
 10
27169.31784140737
 20
9815.699271992636
 30
0.0
 11
27178.82162118474
 21
9798.671994760393
 31
0.0
 70
   164
 71
     5
 42
79.99999999998545
  3
ISO-25
100
AcDbRadialDimension
 15
27130.32797565411
 25
9885.554768330004
 35
0.0
 40
0.0
1001
ACAD
1000
DSTYLE
1002
{
1070
    40
1040
2.0
1070
   147
1040
1.0
1070
   173
1070
     1
1070
   343
1005
72A8
1070
   344
1005
72A8
1002
}
  0
LINE
  5
7368
330
7336
100
AcDbEntity
  8
0
100
AcDbLine
 10
27829.12778781593
 20
9261.835329433315
 30
0.0
 11
27836.38797825558
 21
9272.608649608786
 31
0.0
  0
ARC
  5
7369
330
7336
100
AcDbEntity
  8
\U+56FE\U+5C423
100
AcDbCircle
 10
28457.81784140737
 20
9627.699271992639
 30
0.0
 40
1400.0
100
AcDbArc
 50
193.6137575350541
 51
195.7492928677941
  0
ARC
  5
736A
330
7336
100
AcDbEntity
  8
0
100
AcDbCircle
 10
28002.98334537923
 20
9574.366860028145
 30
0.0
 40
945.1655188294326
100
AcDbArc
 50
180.0101591594175
 51
194.8339532006455
  0
ARC
  5
736B
330
7336
100
AcDbEntity
  8
0
100
AcDbCircle
 10
27169.31784140737
 20
9332.699271992638
 30
0.0
 40
80.0
100
AcDbArc
 50
205.5673037172094
 51
270.0
  0
ARC
  5
736C
330
7336
100
AcDbEntity
  8
0
100
AcDbCircle
 10
27385.16779914603
 20
9382.117772212199
 30
0.0
 40
300.0
100
AcDbArc
 50
189.5419508831928
 51
196.2491006776931
  0
ARC
  5
736D
330
7336
100
AcDbEntity
  8
0
100
AcDbCircle
 10
27211.17999914213
 20
9851.213511771526
 30
0.0
 40
600.0
100
AcDbArc
 50
265.96599924607
 51
271.5678233057403
  0
ARC
  5
736E
330
7336
100
AcDbEntity
  8
\U+56FE\U+5C423
100
AcDbCircle
 10
26531.39346099438
 20
29239.31700111869
 30
0.0
 40
20000.0
100
AcDbArc
 50
271.6588940417613
 51
271.9948768288786
  0
ARC
  5
736F
330
7336
100
AcDbEntity
  8
0
100
AcDbCircle
 10
27539.32770965497
 20
9234.693321819523
 30
0.0
 40
30.0
100
AcDbArc
 50
40.78167145855903
 51
92.88441233785137
  0
ARC
  5
7370
330
7336
100
AcDbEntity
  8
0
100
AcDbCircle
 10
27599.01883774147
 20
9272.664014148878
 30
0.0
 40
40.0
100
AcDbArc
 50
220.7816714585606
 51
273.0661139191685
  0
ARC
  5
7371
330
7336
100
AcDbEntity
  8
0
100
AcDbCircle
 10
26531.39346099438
 20
29239.31700111869
 30
0.0
 40
20000.0
100
AcDbArc
 50
271.9948768288786
 51
272.8844123378499
  0
LINE
  5
7372
330
7336
100
AcDbEntity
  8
0
100
AcDbLine
 10
27562.04383091052
 20
9254.288674204806
 30
0.0
 11
27568.73067606742
 21
9246.536877635163
 31
0.0
  0
ARC
  5
7373
330
7336
100
AcDbEntity
  8
0
100
AcDbCircle
 10
26531.39346099438
 20
29204.0908585804
 30
0.0
 40
20000.0
100
AcDbArc
 50
273.0661139191678
 51
273.6324003743561
  0
DIMENSION
  5
7374
330
7336
100
AcDbEntity
  8
\U+56FE\U+5C421
100
AcDbDimension
  2
*D13
 10
26916.84920160518
 20
9900.699271992642
 30
0.0
 11
26899.84920160517
 21
9574.199271992643
 31
0.0
 70
    32
 71
     5
 42
653.0000000000073
  3
ISO-25
100
AcDbAlignedDimension
 13
27109.37582039126
 23
9247.699271992635
 33
0.0
 14
27110.37582039125
 24
9900.699271992642
 34
0.0
 50
270.0
100
AcDbRotatedDimension
1001
ACAD
1000
DSTYLE
1002
{
1070
    40
1040
2.0
1070
   147
1040
1.0
1070
   173
1070
     1
1070
   343
1005
72A8
1070
   344
1005
72A8
1002
}
  0
ARC
  5
7375
102
{ACAD_REACTORS
330
73A2
102
}
330
7336
100
AcDbEntity
  8
0
100
AcDbCircle
 10
26185.30341126687
 20
9574.210234393865
 30
0.0
 40
2235.514430167384
100
AcDbArc
 50
355.9408489907158
 51
359.9997190358894
  0
ARC
  5
7376
330
7336
100
AcDbEntity
  8
\U+56FE\U+5C423
100
AcDbCircle
 10
26531.39346099438
 20
29239.31700111869
 30
0.0
 40
20000.0
100
AcDbArc
 50
275.0956598611273
 51
275.388467567144
  0
ARC
  5
7377
330
7336
100
AcDbEntity
  8
0
100
AcDbCircle
 10
28336.31784140738
 20
9402.699271992638
 30
0.0
 40
80.0
100
AcDbArc
 50
290.8595676865628
 51
343.8763436882948
  0
ARC
  5
7378
330
7336
100
AcDbEntity
  8
\U+56FE\U+5C423
100
AcDbCircle
 10
24420.81784140738
 20
9627.699271992639
 30
0.0
 40
4000.0
100
AcDbArc
 50
355.6987776953296
 51
356.4566204174995
  0
ARC
  5
7379
330
7336
100
AcDbEntity
  8
0
100
AcDbCircle
 10
28115.21058670355
 20
9415.404962787778
 30
0.0
 40
300.0
100
AcDbArc
 50
353.3151192916303
 51
0.1072335641126258
  0
ARC
  5
737A
330
7336
100
AcDbEntity
  8
0
100
AcDbCircle
 10
28236.99534694441
 20
9914.172197060434
 30
0.0
 40
600.0
100
AcDbArc
 50
276.774291586544
 51
282.2990769603691
  0
ARC
  5
737B
330
7336
100
AcDbEntity
  8
0
100
AcDbCircle
 10
26531.39346099438
 20
29239.31700111869
 30
0.0
 40
20000.0
100
AcDbArc
 50
273.7937726333544
 51
275.0956598611273
  0
ARC
  5
737C
330
7336
100
AcDbEntity
  8
0
100
AcDbCircle
 10
26531.39346099438
 20
-10055.69231459512
 30
0.0
 40
20000.0
100
AcDbArc
 50
86.36759962564385
 51
86.93388608083216
  0
ARC
  5
737D
330
7336
100
AcDbEntity
  8
\U+56FE\U+5C423
100
AcDbCircle
 10
26531.39346099438
 20
-10055.69231459512
 30
0.0
 40
20000.0
100
AcDbArc
 50
86.93388608083216
 51
86.99015002489536
  0
LINE
  5
737E
330
7336
100
AcDbEntity
  8
\U+56FE\U+5C423
100
AcDbLine
 10
27568.73067606742
 20
9901.861666350118
 30
0.0
 11
27581.54614824812
 21
9916.718139164673
 31
0.0
  0
LINE
  5
737F
330
7336
100
AcDbEntity
  8
0
100
AcDbLine
 10
27562.04383091052
 20
9894.109869780471
 30
0.0
 11
27568.73067606742
 21
9901.861666350113
 31
0.0
  0
ARC
  5
7380
330
7336
100
AcDbEntity
  8
0
100
AcDbCircle
 10
26531.39346099438
 20
-10090.91845713341
 30
0.0
 40
20000.0
100
AcDbArc
 50
87.11558766215011
 51
88.00512317112143
  0
ARC
  5
7381
330
7336
100
AcDbEntity
  8
\U+56FE\U+5C423
100
AcDbCircle
 10
26531.39346099438
 20
-10090.91845713341
 30
0.0
 40
20000.0
100
AcDbArc
 50
86.20622736664564
 51
87.11558766215011
  0
ARC
  5
7382
102
{ACAD_REACTORS
330
7360
102
}
330
7336
100
AcDbEntity
  8
0
100
AcDbCircle
 10
27599.01883774147
 20
9875.7345298364
 30
0.0
 40
40.0
100
AcDbArc
 50
86.93388608083145
 51
139.2183285414393
  0
ARC
  5
7383
102
{ACAD_REACTORS
330
7363
102
}
330
7336
100
AcDbEntity
  8
0
100
AcDbCircle
 10
27539.32770965497
 20
9913.705222165754
 30
0.0
 40
30.0
100
AcDbArc
 50
267.1155876621487
 51
319.218328541441
  0
LINE
  5
7384
330
7336
100
AcDbEntity
  8
\U+56FE\U+5C423
100
AcDbLine
 10
27552.46033323459
 20
9883.000097882614
 30
0.0
 11
27562.04383091052
 21
9894.109869780471
 31
0.0
  0
DIMENSION
  5
7385
102
{ACAD_XDICTIONARY
360
7386
102
}
102
{ACAD_REACTORS
330
7387
102
}
330
7336
100
AcDbEntity
  8
\U+56FE\U+5C421
100
AcDbDimension
  2
*D20
 10
28492.28396001183
 20
9574.199271992638
 30
0.0
 11
28475.28396001183
 21
9697.449271992647
 31
0.0
 70
    32
 71
     5
 42
246.5000000000109
  3
ISO-25
100
AcDbAlignedDimension
 13
28409.55197644317
 23
9820.69927199265
 33
0.0
 14
28450.96081610149
 24
9574.199271992638
 34
0.0
 50
90.0
100
AcDbRotatedDimension
1001
ACAD
1000
DSTYLE
1002
{
1070
    40
1040
2.0
1070
   147
1040
1.0
1070
   173
1070
     1
1070
   343
1005
72A8
1070
   344
1005
72A8
1002
}
  0
ARC
  5
7388
330
7336
100
AcDbEntity
  8
0
100
AcDbCircle
 10
26531.39346099438
 20
-10090.91845713341
 30
0.0
 40
20000.0
100
AcDbArc
 50
84.90434013887265
 51
86.20622736664564
  0
ARC
  5
7389
330
7336
100
AcDbEntity
  8
0
100
AcDbCircle
 10
28236.99534694441
 20
9234.226346924844
 30
0.0
 40
600.0
100
AcDbArc
 50
77.70092303963092
 51
83.22570841345607
  0
ARC
  5
738A
330
7336
100
AcDbEntity
  8
0
100
AcDbCircle
 10
28115.21058670355
 20
9732.993581197499
 30
0.0
 40
300.0
100
AcDbArc
 50
359.8927664358874
 51
6.684880708369654
  0
ARC
  5
738B
102
{ACAD_REACTORS
330
7387
102
}
330
7336
100
AcDbEntity
  8
\U+56FE\U+5C423
100
AcDbCircle
 10
24420.81784140738
 20
9520.699271992638
 30
0.0
 40
4000.0
100
AcDbArc
 50
3.543379582500494
 51
4.301222304670364
  0
ARC
  5
738C
102
{ACAD_REACTORS
330
734E
102
}
330
7336
100
AcDbEntity
  8
0
100
AcDbCircle
 10
28336.31784140738
 20
9745.69927199264
 30
0.0
 40
80.0
100
AcDbArc
 50
16.1236563117052
 51
69.14043231343727
  0
DIMENSION
  5
738D
330
7336
100
AcDbEntity
  8
\U+56FE\U+5C421
100
AcDbDimension
  2
*D15
 10
27724.31784140737
 20
10105.1173189325
 30
0.0
 11
28030.31784140737
 21
10122.1173189325
 31
0.0
 70
    32
 71
     5
 42
612.0
  3
ISO-25
100
AcDbAlignedDimension
 13
28336.31784140738
 23
9786.585254165352
 33
0.0
 14
27724.31784140737
 24
10044.85117066238
 34
0.0
100
AcDbRotatedDimension
1001
ACAD
1000
DSTYLE
1002
{
1070
    40
1040
2.0
1070
   147
1040
1.0
1070
   173
1070
     1
1070
   343
1005
72A8
1070
   344
1005
72A8
1002
}
  0
DIMENSION
  5
738E
330
7336
100
AcDbEntity
  8
\U+56FE\U+5C421
100
AcDbDimension
  2
*D14
 10
26993.30644287565
 20
9574.199271992638
 30
0.0
 11
26976.30644287565
 21
9694.949271992642
 31
0.0
 70
    32
 71
     5
 42
241.5
  3
ISO-25
100
AcDbAlignedDimension
 13
27096.44307732272
 23
9815.69927199264
 33
0.0
 14
26994.30644287565
 24
9574.199271992638
 34
0.0
 50
90.0
100
AcDbRotatedDimension
1001
ACAD
1000
DSTYLE
1002
{
1070
    40
1040
2.0
1070
   147
1040
1.0
1070
   173
1070
     1
1070
   343
1005
72A8
1070
   344
1005
72A8
1002
}
  0
DIMENSION
  5
738F
102
{ACAD_XDICTIONARY
360
7390
102
}
102
{ACAD_REACTORS
330
7391
102
}
330
7336
100
AcDbEntity
  8
\U+56FE\U+5C421
100
AcDbDimension
  2
*D23
 10
27724.31784140737
 20
10105.1173189325
 30
0.0
 11
27446.81784140738
 21
10122.1173189325
 31
0.0
 70
    32
 71
     5
 42
555.0
  3
ISO-25
100
AcDbAlignedDimension
 13
27169.31784140737
 23
9884.776475612932
 33
0.0
 14
27724.31784140737
 24
10015.40530420334
 34
0.0
100
AcDbRotatedDimension
1001
ACAD
1000
DSTYLE
1002
{
1070
    40
1040
2.0
1070
   147
1040
1.0
1070
   173
1070
     1
1070
   343
1005
72A8
1070
   344
1005
72A8
1002
}
  0
LINE
  5
7392
330
7336
100
AcDbEntity
  8
\U+56FE\U+5C423
100
AcDbLine
 10
28298.24660512562
 20
9745.69927199264
 30
0.0
 11
28376.41346654508
 21
9745.69927199264
 31
0.0
  0
LINE
  5
7393
330
7336
100
AcDbEntity
  8
\U+56FE\U+5C423
100
AcDbLine
 10
28336.31784140738
 20
9786.585254165352
 30
0.0
 11
28336.31784140738
 21
9704.813289819925
 31
0.0
  0
ARC
  5
7394
330
7336
100
AcDbEntity
  8
\U+56FE\U+5C423
100
AcDbCircle
 10
26531.39346099438
 20
-10090.91845713341
 30
0.0
 40
20000.0
100
AcDbArc
 50
88.00512317112143
 51
88.34110595823872
  0
ARC
  5
7395
330
7336
100
AcDbEntity
  8
0
100
AcDbCircle
 10
27211.17999914213
 20
9297.185032213752
 30
0.0
 40
600.0
100
AcDbArc
 50
88.43217669425973
 51
94.03400075393001
  0
ARC
  5
7396
330
7336
100
AcDbEntity
  8
0
100
AcDbCircle
 10
27385.16779914603
 20
9766.280771773077
 30
0.0
 40
300.0
100
AcDbArc
 50
163.7508993223069
 51
170.4580491168072
  0
ARC
  5
7397
102
{ACAD_REACTORS
330
7367
102
}
330
7336
100
AcDbEntity
  8
0
100
AcDbCircle
 10
27169.31784140737
 20
9815.69927199264
 30
0.0
 40
80.0
100
AcDbArc
 50
90.0
 51
154.4326962827905
  0
ARC
  5
7398
102
{ACAD_REACTORS
330
73A2
330
73A5
102
}
330
7336
100
AcDbEntity
  8
0
100
AcDbCircle
 10
28002.98334537923
 20
9574.031683957132
 30
0.0
 40
945.165518829433
100
AcDbArc
 50
165.1660467993544
 51
179.9898408405824
  0
LINE
  5
7399
102
{ACAD_REACTORS
330
7391
102
}
330
7336
100
AcDbEntity
  8
\U+56FE\U+5C423
100
AcDbLine
 10
27169.31784140737
 20
9884.776475612932
 30
0.0
 11
27169.31784140737
 21
9746.622068372342
 31
0.0
  0
LINE
  5
739A
330
7336
100
AcDbEntity
  8
\U+56FE\U+5C423
100
AcDbLine
 10
27096.44307732272
 20
9815.69927199264
 30
0.0
 11
27242.19260549203
 21
9815.69927199264
 31
0.0
  0
ARC
  5
739B
102
{ACAD_REACTORS
330
7387
102
}
330
7336
100
AcDbEntity
  8
\U+56FE\U+5C423
100
AcDbCircle
 10
26531.39346099438
 20
-10090.91845713341
 30
0.0
 40
20000.0
100
AcDbArc
 50
84.61153243285597
 51
84.90434013887265
  0
ARC
  5
739C
102
{ACAD_REACTORS
330
7339
102
}
330
7336
100
AcDbEntity
  8
0
100
AcDbCircle
 10
26185.30341126691
 20
9574.188309591413
 30
0.0
 40
2235.514430167351
100
AcDbArc
 50
0.0002809641105815
 51
4.05915100928419
  0
ARC
  5
739D
330
7336
100
AcDbEntity
  8
\U+56FE\U+5C423
100
AcDbCircle
 10
28457.81784140737
 20
9520.699271992638
 30
0.0
 40
1400.0
100
AcDbArc
 50
164.2507071322058
 51
166.3862424649458
  0
LINE
  5
739E
102
{ACAD_REACTORS
330
7387
102
}
330
7336
100
AcDbEntity
  8
\U+56FE\U+5C423
100
AcDbLine
 10
27002.07484300669
 20
9574.199271992638
 30
0.0
 11
28450.96081610149
 21
9574.199271992638
 31
0.0
  0
LINE
  5
739F
330
7336
100
AcDbEntity
  8
\U+56FE\U+5C423
100
AcDbLine
 10
27724.31784140737
 20
10015.40530420334
 30
0.0
 11
27724.31784140738
 21
9173.564792237675
 31
0.0
  0
DIMENSION
  5
73A0
102
{ACAD_XDICTIONARY
360
73A1
102
}
102
{ACAD_REACTORS
330
73A2
102
}
330
7336
100
AcDbEntity
  8
\U+56FE\U+5C421
100
AcDbDimension
  2
*D30
 10
28420.81784125781
 20
9107.876505175395
 30
0.0
 11
27739.3178413326
 21
9124.876505175395
 31
0.0
 70
    32
 71
     5
 42
1362.999999850432
  3
ISO-25
100
AcDbAlignedDimension
 13
27057.81784140738
 23
9574.199271992638
 33
0.0
 14
28420.81784125781
 24
9574.182147057676
 34
0.0
100
AcDbRotatedDimension
1001
ACAD
1000
DSTYLE
1002
{
1070
   147
1040
1.0
1070
    40
1040
2.0
1070
   343
1005
72A8
1070
   173
1070
     1
1070
   344
1005
72A8
1002
}
  0
DIMENSION
  5
73A3
102
{ACAD_XDICTIONARY
360
73A4
102
}
102
{ACAD_REACTORS
330
73A5
102
}
330
7336
100
AcDbEntity
  8
\U+56FE\U+5C421
100
AcDbDimension
  2
*D32
 10
28002.98334537925
 20
9574.031683957128
 30
0.0
 11
27205.66008488008
 21
9610.689748762332
 31
0.0
 70
   164
 71
     5
 42
945.1655188294498
  3
ISO-25
100
AcDbRadialDimension
 15
27058.81520555572
 25
9617.441149817928
 35
0.0
 40
0.0
1001
ACAD
1000
DSTYLE
1002
{
1070
    40
1040
2.0
1070
   147
1040
1.0
1070
   173
1070
     1
1070
   271
1070
     1
1070
   343
1005
72A8
1070
   344
1005
72A8
1002
}
  0
LINE
  5
73A6
330
7336
100
AcDbEntity
  8
\U+56FE\U+5C423
100
AcDbLine
 10
27026.75864005783
 20
17108.54390477127
 30
0.0
 11
28475.64461315263
 21
17108.54390477127
 31
0.0
  0
ARC
  5
73A7
330
7336
100
AcDbEntity
  8
0
100
AcDbCircle
 10
26209.98720831805
 20
17108.53294237005
 30
0.0
 40
2235.514430167351
100
AcDbArc
 50
0.0002809641105815
 51
4.05915100928419
  0
ARC
  5
73A8
330
7336
100
AcDbEntity
  8
0
100
AcDbCircle
 10
28027.66714243037
 20
17108.37631673577
 30
0.0
 40
945.165518829433
100
AcDbArc
 50
165.1660467993544
 51
179.9898408405824
  0
ARC
  5
73A9
330
7336
100
AcDbEntity
  8
0
100
AcDbCircle
 10
27194.00163845851
 20
17350.04390477127
 30
0.0
 40
80.0
100
AcDbArc
 50
90.0
 51
154.4326962827905
  0
ARC
  5
73AA
330
7336
100
AcDbEntity
  8
0
100
AcDbCircle
 10
27409.85159619717
 20
17300.62540455171
 30
0.0
 40
300.0
100
AcDbArc
 50
163.7508993223069
 51
170.4580491168072
  0
ARC
  5
73AB
330
7336
100
AcDbEntity
  8
0
100
AcDbCircle
 10
27235.86379619327
 20
16831.52966499239
 30
0.0
 40
600.0
100
AcDbArc
 50
88.43217669425973
 51
94.03400075393001
  0
ARC
  5
73AC
330
7336
100
AcDbEntity
  8
0
100
AcDbCircle
 10
28361.00163845852
 20
17280.04390477127
 30
0.0
 40
80.0
100
AcDbArc
 50
16.1236563117052
 51
69.14043231343727
  0
ARC
  5
73AD
330
7336
100
AcDbEntity
  8
0
100
AcDbCircle
 10
28139.89438375469
 20
17267.33821397614
 30
0.0
 40
300.0
100
AcDbArc
 50
359.8927664358874
 51
6.684880708369654
  0
ARC
  5
73AE
330
7336
100
AcDbEntity
  8
0
100
AcDbCircle
 10
28261.67914399555
 20
16768.57097970348
 30
0.0
 40
600.0
100
AcDbArc
 50
77.70092303963092
 51
83.22570841345607
  0
ARC
  5
73AF
330
7336
100
AcDbEntity
  8
0
100
AcDbCircle
 10
26556.07725804552
 20
-2556.573824354778
 30
0.0
 40
20000.0
100
AcDbArc
 50
84.90434013887265
 51
86.19781325113022
  0
ARC
  5
73B0
330
7336
100
AcDbEntity
  8
0
100
AcDbCircle
 10
27564.01150670612
 20
17448.04985494439
 30
0.0
 40
30.0
100
AcDbArc
 50
267.1155876621487
 51
319.218328541441
  0
ARC
  5
73B1
330
7336
100
AcDbEntity
  8
0
100
AcDbCircle
 10
27623.70263479262
 20
17410.07916261503
 30
0.0
 40
40.0
100
AcDbArc
 50
86.93388608083145
 51
139.2183285414393
  0
ARC
  5
73B2
330
7336
100
AcDbEntity
  8
0
100
AcDbCircle
 10
26556.07725804552
 20
-2556.573824354778
 30
0.0
 40
20000.0
100
AcDbArc
 50
87.11558766215011
 51
88.00512317112143
  0
LINE
  5
73B3
330
7336
100
AcDbEntity
  8
0
100
AcDbLine
 10
27586.72762796166
 20
17428.4545025591
 30
0.0
 11
27593.41447311856
 21
17436.20629912875
 31
0.0
  0
ARC
  5
73B4
102
{ACAD_REACTORS
330
73CD
102
}
330
7336
100
AcDbEntity
  8
0
100
AcDbCircle
 10
26556.07725804552
 20
-2521.347681816489
 30
0.0
 40
20000.0
100
AcDbArc
 50
86.36759962564385
 51
86.93388608083216
  0
ARC
  5
73B5
330
7336
100
AcDbEntity
  8
0
100
AcDbCircle
 10
26556.07725804552
 20
36773.66163389732
 30
0.0
 40
20000.0
100
AcDbArc
 50
273.8021867488698
 51
275.0956598611273
  0
ARC
  5
73B6
330
7336
100
AcDbEntity
  8
0
100
AcDbCircle
 10
28261.67914399555
 20
17448.51682983907
 30
0.0
 40
600.0
100
AcDbArc
 50
276.774291586544
 51
282.2990769603691
  0
ARC
  5
73B7
330
7336
100
AcDbEntity
  8
0
100
AcDbCircle
 10
28139.89438375469
 20
16949.74959556641
 30
0.0
 40
300.0
100
AcDbArc
 50
353.3151192916303
 51
0.1072335641126258
  0
ARC
  5
73B8
330
7336
100
AcDbEntity
  8
0
100
AcDbCircle
 10
28361.00163845852
 20
16937.04390477127
 30
0.0
 40
80.0
100
AcDbArc
 50
290.8595676865628
 51
343.8763436882948
  0
ARC
  5
73B9
330
7336
100
AcDbEntity
  8
0
100
AcDbCircle
 10
26209.98720831801
 20
17108.5548671725
 30
0.0
 40
2235.514430167384
100
AcDbArc
 50
355.9408489907158
 51
359.9997190358894
  0
ARC
  5
73BA
330
7336
100
AcDbEntity
  8
0
100
AcDbCircle
 10
26556.07725804552
 20
36738.43549135904
 30
0.0
 40
20000.0
100
AcDbArc
 50
273.0661139191678
 51
273.6324003743561
  0
LINE
  5
73BB
330
7336
100
AcDbEntity
  8
0
100
AcDbLine
 10
27586.72762796166
 20
16788.63330698344
 30
0.0
 11
27593.41447311856
 21
16780.8815104138
 31
0.0
  0
ARC
  5
73BC
330
7336
100
AcDbEntity
  8
0
100
AcDbCircle
 10
26556.07725804552
 20
36773.66163389732
 30
0.0
 40
20000.0
100
AcDbArc
 50
271.9948768288786
 51
272.8844123378499
  0
ARC
  5
73BD
102
{ACAD_REACTORS
330
73CD
102
}
330
7336
100
AcDbEntity
  8
0
100
AcDbCircle
 10
27623.70263479262
 20
16807.00864692751
 30
0.0
 40
40.0
100
AcDbArc
 50
220.7816714585606
 51
273.0661139191685
  0
ARC
  5
73BE
330
7336
100
AcDbEntity
  8
0
100
AcDbCircle
 10
27564.01150670612
 20
16769.03795459816
 30
0.0
 40
30.0
100
AcDbArc
 50
40.78167145855903
 51
92.88441233785137
  0
ARC
  5
73BF
330
7336
100
AcDbEntity
  8
0
100
AcDbCircle
 10
27235.86379619327
 20
17385.55814455016
 30
0.0
 40
600.0
100
AcDbArc
 50
265.96599924607
 51
271.5678233057403
  0
ARC
  5
73C0
330
7336
100
AcDbEntity
  8
0
100
AcDbCircle
 10
27409.85159619717
 20
16916.46240499084
 30
0.0
 40
300.0
100
AcDbArc
 50
189.5419508831928
 51
196.2491006776931
  0
ARC
  5
73C1
330
7336
100
AcDbEntity
  8
0
100
AcDbCircle
 10
27194.00163845851
 20
16867.04390477127
 30
0.0
 40
80.0
100
AcDbArc
 50
205.5673037172094
 51
270.0
  0
ARC
  5
73C2
330
7336
100
AcDbEntity
  8
0
100
AcDbCircle
 10
28027.66714243037
 20
17108.71149280678
 30
0.0
 40
945.1655188294326
100
AcDbArc
 50
180.0101591594175
 51
194.8339532006455
  0
LINE
  5
73C3
330
7336
100
AcDbEntity
  8
0
100
AcDbLine
 10
27853.81158486707
 20
16796.17996221195
 30
0.0
 11
27859.42817599356
 21
16804.51436266651
 31
0.0
  0
ARC
  5
73C4
330
7336
100
AcDbEntity
  8
0
100
AcDbCircle
 10
27884.30626572432
 20
16787.7489025968
 30
0.0
 40
30.0
100
AcDbArc
 50
93.8021867488595
 51
146.0237871273412
  0
ARC
  5
73C5
330
7336
100
AcDbEntity
  8
0
100
AcDbCircle
 10
27820.64079855941
 20
16818.53390897156
 30
0.0
 40
40.0
100
AcDbArc
 50
273.6324003743346
 51
326.0237871273193
  0
ARC
  5
73C6
330
7336
100
AcDbEntity
  8
0
100
AcDbCircle
 10
27820.64079855941
 20
17398.55390057098
 30
0.0
 40
40.0
100
AcDbArc
 50
33.97621287268071
 51
86.36759962566546
  0
LINE
  5
73C7
330
7336
100
AcDbEntity
  8
0
100
AcDbLine
 10
27853.81158486707
 20
17420.9078473306
 30
0.0
 11
27859.42817599356
 21
17412.57344687604
 31
0.0
  0
ARC
  5
73C8
330
7336
100
AcDbEntity
  8
0
100
AcDbCircle
 10
27884.30626572432
 20
17429.33890694575
 30
0.0
 40
30.0
100
AcDbArc
 50
213.9762128726588
 51
266.1978132511405
  0
LINE
  5
73C9
330
7336
100
AcDbEntity
  8
\U+56FE\U+5C423
100
AcDbLine
 10
27749.00163845852
 20
17465.14410534505
 30
0.0
 11
27749.00163845852
 21
16761.50423237579
 31
0.0
  0
DIMENSION
  5
73CA
330
7336
100
AcDbEntity
  8
\U+56FE\U+5C421
100
AcDbDimension
  2
*D33
 10
28466.86541141
 20
17188.25746649331
 30
0.0
 11
27785.36311717874
 21
17197.75746649331
 31
0.0
 70
    32
 71
     5
 42
1362.999999850432
  3
ISO-25
100
AcDbAlignedDimension
 13
27082.50163845852
 23
17108.54390477226
 33
0.0
 14
28445.50163830895
 24
17108.52677983884
 34
0.0
100
AcDbRotatedDimension
  0
DIMENSION
  5
73CB
102
{ACAD_XDICTIONARY
360
73CC
102
}
102
{ACAD_REACTORS
330
73CD
102
}
330
7336
100
AcDbEntity
  8
\U+56FE\U+5C421
100
AcDbDimension
  2
*D34
 10
27717.13121271111
 20
16783.16262998449
 30
0.0
 11
27717.1312127111
 21
17141.24527447358
 31
0.0
 70
   160
 71
     5
 42
682.9559940219151
  3
ISO-25
100
AcDbAlignedDimension
 13
27625.84216460574
 23
17450.02190178223
 33
0.0
 14
27625.84216460574
 24
16767.06590776032
 34
0.0
 50
90.0
100
AcDbRotatedDimension
1001
ACAD
1000
DSTYLE
1002
{
1070
   271
1070
     0
1002
}
  0
MTEXT
  5
73CE
330
7336
100
AcDbEntity
  8
\U+56FE\U+5C421
100
AcDbMText
 10
27813.55422107779
 20
17053.01739375703
 30
0.0
 40
30.0
 41
929.2684000623557
 71
     1
 72
     5
  1
{\fArial|b0|i0|c0|p32;FBY1500}
  7
\U+68071
 73
     1
 44
1.0
1001
ACAD
1000
MTEXTBEGIN
1070
    73
1070
     1
1070
    44
1040
1.0
1070
    74
1070
     0
1000
MTEXTEND
  0
ARC
  5
73CF
330
7336
100
AcDbEntity
  8
0
100
AcDbCircle
 10
-56880.94493994304
 20
27855.48064243488
 30
0.0
 40
30.0
100
AcDbArc
 50
213.9762128726588
 51
266.1978132511405
  0
LINE
  5
73D0
330
7336
100
AcDbEntity
  8
0
100
AcDbLine
 10
-56911.4396208003
 20
27847.04958281973
 30
0.0
 11
-56905.8230296738
 21
27838.71518236518
 31
0.0
  0
ARC
  5
73D1
330
7336
100
AcDbEntity
  8
0
100
AcDbCircle
 10
-56944.61040710796
 20
27824.69563606012
 30
0.0
 40
40.0
100
AcDbArc
 50
33.97621287268071
 51
86.36759962566546
  0
ARC
  5
73D2
330
7336
100
AcDbEntity
  8
0
100
AcDbCircle
 10
-56944.61040710796
 20
27137.6756444607
 30
0.0
 40
40.0
100
AcDbArc
 50
273.6324003743346
 51
326.0237871273193
  0
ARC
  5
73D3
330
7336
100
AcDbEntity
  8
0
100
AcDbCircle
 10
-56880.94493994304
 20
27106.89063808593
 30
0.0
 40
30.0
100
AcDbArc
 50
93.8021867488595
 51
146.0237871273412
  0
LINE
  5
73D4
330
7336
100
AcDbEntity
  8
0
100
AcDbLine
 10
-56911.4396208003
 20
27115.32169770108
 30
0.0
 11
-56905.8230296738
 21
27123.65609815563
 31
0.0
  0
ARC
  5
73D5
330
7336
100
AcDbEntity
  8
0
100
AcDbCircle
 10
-56282.74956720884
 20
27481.18564026041
 30
0.0
 40
1400.0
100
AcDbArc
 50
180.0
 51
192.1772940258316
  0
ARC
  5
73D6
330
7336
100
AcDbEntity
  8
0
100
AcDbCircle
 10
-57571.24956720884
 20
27186.18564026041
 30
0.0
 40
80.0
100
AcDbArc
 50
205.5673037172094
 51
270.0
  0
ARC
  5
73D7
330
7336
100
AcDbEntity
  8
0
100
AcDbCircle
 10
-57355.39960947019
 20
27235.60414047997
 30
0.0
 40
300.0
100
AcDbArc
 50
189.5419508831928
 51
196.2491006776931
  0
ARC
  5
73D8
330
7336
100
AcDbEntity
  8
0
100
AcDbCircle
 10
-57529.38740947409
 20
27704.69988003929
 30
0.0
 40
600.0
100
AcDbArc
 50
265.96599924607
 51
271.5678233057403
  0
ARC
  5
73D9
330
7336
100
AcDbEntity
  8
0
100
AcDbCircle
 10
-57201.23969896125
 20
27088.17969008729
 30
0.0
 40
30.0
100
AcDbArc
 50
40.78167145855903
 51
92.88441233785137
  0
ARC
  5
73DA
330
7336
100
AcDbEntity
  8
0
100
AcDbCircle
 10
-57141.54857087474
 20
27126.15038241665
 30
0.0
 40
40.0
100
AcDbArc
 50
220.7816714585606
 51
273.0661139191685
  0
ARC
  5
73DB
330
7336
100
AcDbEntity
  8
0
100
AcDbCircle
 10
-58209.17394762183
 20
47092.80336938645
 30
0.0
 40
20000.0
100
AcDbArc
 50
271.9948768288786
 51
272.8844123378499
  0
LINE
  5
73DC
330
7336
100
AcDbEntity
  8
0
100
AcDbLine
 10
-57178.5235777057
 20
27107.77504247257
 30
0.0
 11
-57171.8367325488
 21
27100.02324590293
 31
0.0
  0
ARC
  5
73DD
330
7336
100
AcDbEntity
  8
0
100
AcDbCircle
 10
-58209.17394762183
 20
47057.57722684817
 30
0.0
 40
20000.0
100
AcDbArc
 50
273.0661139191678
 51
273.6324003743561
  0
ARC
  5
73DE
330
7336
100
AcDbEntity
  8
0
100
AcDbCircle
 10
-60319.74956720884
 20
27481.18564026041
 30
0.0
 40
4000.0
100
AcDbArc
 50
356.9657324382442
 51
0.0
  0
ARC
  5
73DF
330
7336
100
AcDbEntity
  8
0
100
AcDbCircle
 10
-56404.24956720885
 20
27256.18564026041
 30
0.0
 40
80.0
100
AcDbArc
 50
290.8595676865628
 51
343.8763436882948
  0
ARC
  5
73E0
330
7336
100
AcDbEntity
  8
0
100
AcDbCircle
 10
-56625.35682191268
 20
27268.89133105554
 30
0.0
 40
300.0
100
AcDbArc
 50
353.3151192916303
 51
0.1072335641126258
  0
ARC
  5
73E1
330
7336
100
AcDbEntity
  8
0
100
AcDbCircle
 10
-56503.57206167181
 20
27767.6585653282
 30
0.0
 40
600.0
100
AcDbArc
 50
276.774291586544
 51
282.2990769603691
  0
ARC
  5
73E2
330
7336
100
AcDbEntity
  8
0
100
AcDbCircle
 10
-58209.17394762183
 20
47092.80336938645
 30
0.0
 40
20000.0
100
AcDbArc
 50
273.8021867488698
 51
275.0956598611273
  0
ARC
  5
73E3
330
7336
100
AcDbEntity
  8
0
100
AcDbCircle
 10
-58209.17394762183
 20
7904.794053672642
 30
0.0
 40
20000.0
100
AcDbArc
 50
86.36759962564385
 51
86.93388608083216
  0
LINE
  5
73E4
330
7336
100
AcDbEntity
  8
0
100
AcDbLine
 10
-57178.5235777057
 20
27854.59623804824
 30
0.0
 11
-57171.8367325488
 21
27862.34803461788
 31
0.0
  0
ARC
  5
73E5
330
7336
100
AcDbEntity
  8
0
100
AcDbCircle
 10
-58209.17394762183
 20
7869.567911134352
 30
0.0
 40
20000.0
100
AcDbArc
 50
87.11558766215011
 51
88.00512317112143
  0
ARC
  5
73E6
330
7336
100
AcDbEntity
  8
0
100
AcDbCircle
 10
-57141.54857087474
 20
27836.22089810417
 30
0.0
 40
40.0
100
AcDbArc
 50
86.93388608083145
 51
139.2183285414393
  0
ARC
  5
73E7
330
7336
100
AcDbEntity
  8
0
100
AcDbCircle
 10
-57201.23969896125
 20
27874.19159043352
 30
0.0
 40
30.0
100
AcDbArc
 50
267.1155876621487
 51
319.218328541441
  0
ARC
  5
73E8
330
7336
100
AcDbEntity
  8
0
100
AcDbCircle
 10
-58209.17394762183
 20
7869.567911134352
 30
0.0
 40
20000.0
100
AcDbArc
 50
84.90434013887265
 51
86.19781325113022
  0
ARC
  5
73E9
330
7336
100
AcDbEntity
  8
0
100
AcDbCircle
 10
-56503.57206167181
 20
27194.71271519261
 30
0.0
 40
600.0
100
AcDbArc
 50
77.70092303963092
 51
83.22570841345607
  0
ARC
  5
73EA
330
7336
100
AcDbEntity
  8
0
100
AcDbCircle
 10
-56625.35682191268
 20
27693.47994946527
 30
0.0
 40
300.0
100
AcDbArc
 50
359.8927664358874
 51
6.684880708369654
  0
ARC
  5
73EB
330
7336
100
AcDbEntity
  8
0
100
AcDbCircle
 10
-56404.24956720885
 20
27706.18564026041
 30
0.0
 40
80.0
100
AcDbArc
 50
16.1236563117052
 51
69.14043231343727
  0
ARC
  5
73EC
330
7336
100
AcDbEntity
  8
0
100
AcDbCircle
 10
-57529.38740947409
 20
27257.67140048152
 30
0.0
 40
600.0
100
AcDbArc
 50
88.43217669425973
 51
94.03400075393001
  0
ARC
  5
73ED
330
7336
100
AcDbEntity
  8
0
100
AcDbCircle
 10
-57355.39960947019
 20
27726.76714004084
 30
0.0
 40
300.0
100
AcDbArc
 50
163.7508993223069
 51
170.4580491168072
  0
ARC
  5
73EE
330
7336
100
AcDbEntity
  8
0
100
AcDbCircle
 10
-57571.24956720884
 20
27776.18564026041
 30
0.0
 40
80.0
100
AcDbArc
 50
90.0
 51
154.4326962827905
  0
ARC
  5
73EF
330
7336
100
AcDbEntity
  8
0
100
AcDbCircle
 10
-56282.74956720884
 20
27481.18564026041
 30
0.0
 40
1400.0
100
AcDbArc
 50
167.8227059741683
 51
180.0
  0
ARC
  5
73F0
330
7336
100
AcDbEntity
  8
0
100
AcDbCircle
 10
-60319.74956720884
 20
27481.18564026041
 30
0.0
 40
4000.0
100
AcDbArc
 50
0.0
 51
3.034267561755842
  0
LINE
  5
73F1
330
7336
100
AcDbEntity
  8
\U+56FE\U+5C423
100
AcDbLine
 10
-57862.74862354746
 20
27481.18564026041
 30
0.0
 11
-56171.2851408088
 21
27481.18564026041
 31
0.0
  0
LINE
  5
73F2
330
7336
100
AcDbEntity
  8
\U+56FE\U+5C423
100
AcDbLine
 10
-57016.24956720885
 20
27975.89167247111
 30
0.0
 11
-57016.24956720885
 21
26986.4796080497
 31
0.0
  0
LINE
  5
73F3
330
7336
100
AcDbEntity
  8
0
100
AcDbLine
 10
-1775.219150434277
 20
9886.311002730629
 30
0.0
 11
-1775.219150434277
 21
10326.31100273063
 31
0.0
  0
LINE
  5
73F4
330
7336
100
AcDbEntity
  8
\U+56FE\U+5C423
100
AcDbLine
 10
-1795.219150434277
 20
10786.31100273063
 30
0.0
 11
-1775.219150434277
 21
10786.31100273063
 31
0.0
  0
LINE
  5
73F5
330
7336
100
AcDbEntity
  8
0
100
AcDbLine
 10
-1775.219150434277
 20
10766.31100273062
 30
0.0
 11
-1775.219150434277
 21
10326.31100273063
 31
0.0
  0
LINE
  5
73F6
330
7336
100
AcDbEntity
  8
0
100
AcDbLine
 10
-3288.219150434277
 20
10786.31100273063
 30
0.0
 11
-1795.219150434277
 21
10786.31100273063
 31
0.0
  0
LINE
  5
73F7
330
7336
100
AcDbEntity
  8
\U+56FE\U+5C423
100
AcDbLine
 10
-3308.219150434278
 20
9886.311002730629
 30
0.0
 11
-3308.219150434278
 21
9866.311002730629
 31
0.0
  0
LINE
  5
73F8
330
7336
100
AcDbEntity
  8
0
100
AcDbLine
 10
-3288.219150434277
 20
9866.311002730629
 30
0.0
 11
-1795.219150434277
 21
9866.311002730629
 31
0.0
  0
ARC
  5
73F9
330
7336
100
AcDbEntity
  8
0
100
AcDbCircle
 10
-3288.219150434277
 20
9886.311002730629
 30
0.0
 40
20.0
100
AcDbArc
 50
180.0
 51
270.0
  0
ARC
  5
73FA
330
7336
100
AcDbEntity
  8
0
100
AcDbCircle
 10
-1795.219150434277
 20
9886.311002730629
 30
0.0
 40
20.0
100
AcDbArc
 50
270.0
 51
0.0
  0
ARC
  5
73FB
330
7336
100
AcDbEntity
  8
0
100
AcDbCircle
 10
-1795.219150434277
 20
10766.31100273063
 30
0.0
 40
20.0
100
AcDbArc
 50
0.0
 51
90.0
  0
ARC
  5
73FC
330
7336
100
AcDbEntity
  8
0
100
AcDbCircle
 10
-3288.219150434277
 20
10766.31100273063
 30
0.0
 40
20.0
100
AcDbArc
 50
90.0
 51
180.0
  0
ARC
  5
73FD
330
7336
100
AcDbEntity
  8
0
  6
ACAD_ISO02W100
 62
   252
370
    15
100
AcDbCircle
 10
-2406.414523168478
 20
10700.6060049051
 30
0.0
 40
30.0
100
AcDbArc
 50
213.9762128726588
 51
266.1978132511405
  0
LINE
  5
73FE
330
7336
100
AcDbEntity
  8
0
  6
ACAD_ISO02W100
 62
   252
370
    15
100
AcDbLine
 10
-2436.909204025724
 20
10692.17494528995
 30
0.0
 11
-2431.29261289923
 21
10683.84054483539
 31
0.0
  0
ARC
  5
73FF
330
7336
100
AcDbEntity
  8
0
  6
ACAD_ISO02W100
 62
   252
370
    15
100
AcDbCircle
 10
-2470.079990333386
 20
10669.82099853034
 30
0.0
 40
40.0
100
AcDbArc
 50
33.97621287268071
 51
86.36759962566546
  0
ARC
  5
7400
330
7336
100
AcDbEntity
  8
0
  6
ACAD_ISO02W100
 62
   252
370
    15
100
AcDbCircle
 10
-2470.079990333386
 20
9982.801006930918
 30
0.0
 40
40.0
100
AcDbArc
 50
273.6324003743346
 51
326.0237871273193
  0
ARC
  5
7401
330
7336
100
AcDbEntity
  8
0
  6
ACAD_ISO02W100
 62
   252
370
    15
100
AcDbCircle
 10
-2406.414523168478
 20
9952.016000556152
 30
0.0
 40
30.0
100
AcDbArc
 50
93.8021867488595
 51
146.0237871273412
  0
LINE
  5
7402
330
7336
100
AcDbEntity
  8
0
  6
ACAD_ISO02W100
 62
   252
370
    15
100
AcDbLine
 10
-2436.909204025724
 20
9960.447060171306
 30
0.0
 11
-2429.649013586069
 21
9971.220380346778
 31
0.0
  0
LINE
  5
7403
330
7336
100
AcDbEntity
  8
0
100
AcDbLine
 10
-3308.219150434278
 20
10326.31100273063
 30
0.0
 11
-3308.219150434278
 21
9886.311002730629
 31
0.0
  0
ARC
  5
7404
330
7336
100
AcDbEntity
  8
0
  6
ACAD_ISO02W100
 62
   252
370
    15
100
AcDbCircle
 10
-1808.219150434277
 20
10326.31100273063
 30
0.0
 40
1400.0
100
AcDbArc
 50
180.0
 51
192.1772940258316
  0
ARC
  5
7405
330
7336
100
AcDbEntity
  8
0
  6
ACAD_ISO02W100
 62
   252
370
    15
100
AcDbCircle
 10
-3096.719150434277
 20
10031.31100273063
 30
0.0
 40
80.0
100
AcDbArc
 50
205.5673037172094
 51
270.0
  0
ARC
  5
7406
330
7336
100
AcDbEntity
  8
0
  6
ACAD_ISO02W100
 62
   252
370
    15
100
AcDbCircle
 10
-2880.869192695622
 20
10080.72950295019
 30
0.0
 40
300.0
100
AcDbArc
 50
189.5419508831928
 51
196.2491006776931
  0
ARC
  5
7407
330
7336
100
AcDbEntity
  8
0
  6
ACAD_ISO02W100
 62
   252
370
    15
100
AcDbCircle
 10
-3054.856992699526
 20
10549.82524250951
 30
0.0
 40
600.0
100
AcDbArc
 50
265.96599924607
 51
271.5678233057403
  0
ARC
  5
7408
330
7336
100
AcDbEntity
  8
0
  6
ACAD_ISO02W100
 62
   252
370
    15
100
AcDbCircle
 10
-2726.709282186675
 20
9933.305052557514
 30
0.0
 40
30.0
100
AcDbArc
 50
40.78167145855903
 51
92.88441233785137
  0
ARC
  5
7409
330
7336
100
AcDbEntity
  8
0
  6
ACAD_ISO02W100
 62
   252
370
    15
100
AcDbCircle
 10
-2667.018154100176
 20
9971.275744886868
 30
0.0
 40
40.0
100
AcDbArc
 50
220.7816714585606
 51
273.0661139191685
  0
ARC
  5
740A
330
7336
100
AcDbEntity
  8
0
  6
ACAD_ISO02W100
 62
   252
370
    15
100
AcDbCircle
 10
-3734.643530847267
 20
29937.92873185668
 30
0.0
 40
20000.0
100
AcDbArc
 50
271.9948768288786
 51
272.8844123378499
  0
LINE
  5
740B
330
7336
100
AcDbEntity
  8
0
  6
ACAD_ISO02W100
 62
   252
370
    15
100
AcDbLine
 10
-2703.993160931132
 20
9952.900404942797
 30
0.0
 11
-2697.306315774231
 21
9945.148608373154
 31
0.0
  0
ARC
  5
740C
330
7336
100
AcDbEntity
  8
0
  6
ACAD_ISO02W100
 62
   252
370
    15
100
AcDbCircle
 10
-3734.643530847267
 20
29902.70258931839
 30
0.0
 40
20000.0
100
AcDbArc
 50
273.0661139191678
 51
273.6324003743561
  0
LINE
  5
740D
330
7336
100
AcDbEntity
  8
\U+56FE\U+5C423
100
AcDbLine
 10
-3308.219150434278
 20
9866.311002730629
 30
0.0
 11
-3288.219150434277
 21
9866.311002730629
 31
0.0
  0
ARC
  5
740E
330
7336
100
AcDbEntity
  8
0
  6
ACAD_ISO02W100
 62
   252
370
    15
100
AcDbCircle
 10
-5845.219150434277
 20
10326.31100273063
 30
0.0
 40
4000.0
100
AcDbArc
 50
356.9657324382442
 51
0.0
  0
ARC
  5
740F
330
7336
100
AcDbEntity
  8
0
  6
ACAD_ISO02W100
 62
   252
370
    15
100
AcDbCircle
 10
-1929.719150434277
 20
10101.31100273063
 30
0.0
 40
80.0
100
AcDbArc
 50
290.8595676865628
 51
343.8763436882948
  0
ARC
  5
7410
330
7336
100
AcDbEntity
  8
0
  6
ACAD_ISO02W100
 62
   252
370
    15
100
AcDbCircle
 10
-2150.826405138101
 20
10114.01669352576
 30
0.0
 40
300.0
100
AcDbArc
 50
353.3151192916303
 51
0.1072335641126258
  0
ARC
  5
7411
330
7336
100
AcDbEntity
  8
0
  6
ACAD_ISO02W100
 62
   252
370
    15
100
AcDbCircle
 10
-2029.041644897239
 20
10612.78392779842
 30
0.0
 40
600.0
100
AcDbArc
 50
276.774291586544
 51
282.2990769603691
  0
ARC
  5
7412
330
7336
100
AcDbEntity
  8
0
  6
ACAD_ISO02W100
 62
   252
370
    15
100
AcDbCircle
 10
-3734.643530847267
 20
29937.92873185668
 30
0.0
 40
20000.0
100
AcDbArc
 50
273.8021867488698
 51
275.0956598611273
  0
ARC
  5
7413
330
7336
100
AcDbEntity
  8
0
  6
ACAD_ISO02W100
 62
   252
370
    15
100
AcDbCircle
 10
-3734.643530847267
 20
-9250.080583857139
 30
0.0
 40
20000.0
100
AcDbArc
 50
86.36759962564385
 51
86.93388608083216
  0
LINE
  5
7414
330
7336
100
AcDbEntity
  8
0
  6
ACAD_ISO02W100
 62
   252
370
    15
100
AcDbLine
 10
-2703.993160931132
 20
10699.72160051846
 30
0.0
 11
-2697.306315774231
 21
10707.4733970881
 31
0.0
  0
ARC
  5
7415
330
7336
100
AcDbEntity
  8
0
  6
ACAD_ISO02W100
 62
   252
370
    15
100
AcDbCircle
 10
-3734.643530847267
 20
-9285.306726395429
 30
0.0
 40
20000.0
100
AcDbArc
 50
87.11558766215011
 51
88.00512317112143
  0
ARC
  5
7416
330
7336
100
AcDbEntity
  8
0
  6
ACAD_ISO02W100
 62
   252
370
    15
100
AcDbCircle
 10
-2667.018154100176
 20
10681.34626057439
 30
0.0
 40
40.0
100
AcDbArc
 50
86.93388608083145
 51
139.2183285414393
  0
ARC
  5
7417
330
7336
100
AcDbEntity
  8
0
  6
ACAD_ISO02W100
 62
   252
370
    15
100
AcDbCircle
 10
-2726.709282186675
 20
10719.31695290374
 30
0.0
 40
30.0
100
AcDbArc
 50
267.1155876621487
 51
319.218328541441
  0
ARC
  5
7418
330
7336
100
AcDbEntity
  8
0
  6
ACAD_ISO02W100
 62
   252
370
    15
100
AcDbCircle
 10
-3734.643530847267
 20
-9285.306726395429
 30
0.0
 40
20000.0
100
AcDbArc
 50
84.90434013887265
 51
86.20622736664564
  0
ARC
  5
7419
330
7336
100
AcDbEntity
  8
0
  6
ACAD_ISO02W100
 62
   252
370
    15
100
AcDbCircle
 10
-2029.041644897239
 20
10039.83807766283
 30
0.0
 40
600.0
100
AcDbArc
 50
77.70092303963092
 51
83.22570841345607
  0
ARC
  5
741A
330
7336
100
AcDbEntity
  8
0
  6
ACAD_ISO02W100
 62
   252
370
    15
100
AcDbCircle
 10
-2150.826405138101
 20
10538.60531193549
 30
0.0
 40
300.0
100
AcDbArc
 50
359.8927664358874
 51
6.684880708369654
  0
ARC
  5
741B
330
7336
100
AcDbEntity
  8
0
  6
ACAD_ISO02W100
 62
   252
370
    15
100
AcDbCircle
 10
-1929.719150434277
 20
10551.31100273063
 30
0.0
 40
80.0
100
AcDbArc
 50
16.1236563117052
 51
69.14043231343727
  0
ARC
  5
741C
330
7336
100
AcDbEntity
  8
0
  6
ACAD_ISO02W100
 62
   252
370
    15
100
AcDbCircle
 10
-3054.856992699526
 20
10102.79676295174
 30
0.0
 40
600.0
100
AcDbArc
 50
88.43217669425973
 51
94.03400075393001
  0
ARC
  5
741D
330
7336
100
AcDbEntity
  8
0
  6
ACAD_ISO02W100
 62
   252
370
    15
100
AcDbCircle
 10
-2880.869192695622
 20
10571.89250251107
 30
0.0
 40
300.0
100
AcDbArc
 50
163.7508993223069
 51
170.4580491168072
  0
ARC
  5
741E
330
7336
100
AcDbEntity
  8
0
  6
ACAD_ISO02W100
 62
   252
370
    15
100
AcDbCircle
 10
-3096.719150434277
 20
10621.31100273063
 30
0.0
 40
80.0
100
AcDbArc
 50
90.0
 51
154.4326962827905
  0
ARC
  5
741F
330
7336
100
AcDbEntity
  8
0
  6
ACAD_ISO02W100
 62
   252
370
    15
100
AcDbCircle
 10
-1808.219150434277
 20
10326.31100273063
 30
0.0
 40
1400.0
100
AcDbArc
 50
167.8227059741683
 51
180.0
  0
ARC
  5
7420
330
7336
100
AcDbEntity
  8
0
  6
ACAD_ISO02W100
 62
   252
370
    15
100
AcDbCircle
 10
-5845.219150434277
 20
10326.31100273063
 30
0.0
 40
4000.0
100
AcDbArc
 50
0.0
 51
3.034267561755842
  0
LINE
  5
7421
330
7336
100
AcDbEntity
  8
\U+56FE\U+5C423
370
    13
100
AcDbLine
 10
-1985.219150434277
 20
10403.06100273063
 30
0.0
 11
-1985.219150434277
 21
10249.56100273063
 31
0.0
  0
CIRCLE
  5
7422
330
7336
100
AcDbEntity
  8
0
100
AcDbCircle
 10
-1985.219150434277
 20
10326.31100273063
 30
0.0
 40
27.5
  0
LINE
  5
7423
330
7336
100
AcDbEntity
  8
0
100
AcDbLine
 10
-3308.219150434278
 20
10326.31100273063
 30
0.0
 11
-3308.219150434278
 21
10766.31100273062
 31
0.0
  0
LINE
  5
7424
330
7336
100
AcDbEntity
  8
\U+56FE\U+5C423
100
AcDbLine
 10
-1775.219150434277
 20
10786.31100273063
 30
0.0
 11
-1775.219150434277
 21
10766.31100273062
 31
0.0
  0
LINE
  5
7425
330
7336
100
AcDbEntity
  8
\U+56FE\U+5C423
370
    13
100
AcDbLine
 10
-3388.218206772896
 20
10326.31100273063
 30
0.0
 11
-1696.754724034222
 21
10326.31100273063
 31
0.0
  0
LINE
  5
7426
330
7336
100
AcDbEntity
  8
\U+56FE\U+5C423
370
    13
100
AcDbLine
 10
-2541.719150434277
 20
10821.01703494133
 30
0.0
 11
-2541.719150434277
 21
9831.604970519926
 31
0.0
  0
LINE
  5
7427
330
7336
100
AcDbEntity
  8
0
100
AcDbLine
 10
-3406.198139136897
 20
7049.128089252366
 30
0.0
 11
-3406.198139136897
 21
7822.128089252365
 31
0.0
  0
LINE
  5
7428
330
7336
100
AcDbEntity
  8
\U+56FE\U+5C423
100
AcDbLine
 10
-3386.198139136894
 20
7029.128089252366
 30
0.0
 11
-3406.198139136897
 21
7029.128089252366
 31
0.0
  0
ARC
  5
7429
330
7336
100
AcDbEntity
  8
0
100
AcDbCircle
 10
-3386.198139136897
 20
7049.128089252366
 30
0.0
 40
20.0
100
AcDbArc
 50
180.0
 51
270.0
  0
LINE
  5
742A
330
7336
100
AcDbEntity
  8
0
100
AcDbLine
 10
-1750.198139136897
 20
7029.128089252366
 30
0.0
 11
-3386.198139136894
 21
7029.128089252366
 31
0.0
  0
ARC
  5
742B
330
7336
100
AcDbEntity
  8
0
100
AcDbCircle
 10
-1750.198139136897
 20
7049.128089252366
 30
0.0
 40
20.0
100
AcDbArc
 50
270.0
 51
0.0
  0
LINE
  5
742C
330
7336
100
AcDbEntity
  8
0
100
AcDbLine
 10
-1730.198139136897
 20
7822.128089252363
 30
0.0
 11
-1730.198139136897
 21
7049.128089252366
 31
0.0
  0
ARC
  5
742D
330
7336
100
AcDbEntity
  8
0
100
AcDbCircle
 10
-1750.198139136901
 20
7822.128089252363
 30
0.0
 40
20.0
100
AcDbArc
 50
0.0
 51
90.0
  0
LINE
  5
742E
330
7336
100
AcDbEntity
  8
0
100
AcDbLine
 10
-3386.198139136901
 20
7842.128089252366
 30
0.0
 11
-1750.198139136901
 21
7842.128089252366
 31
0.0
  0
LINE
  5
742F
330
7336
100
AcDbEntity
  8
\U+56FE\U+5C423
100
AcDbLine
 10
-3406.198139136897
 20
7822.128089252365
 30
0.0
 11
-3406.198139136897
 21
7842.128089252366
 31
0.0
  0
ARC
  5
7430
330
7336
100
AcDbEntity
  8
0
100
AcDbCircle
 10
-3386.198139136901
 20
7822.128089252365
 30
0.0
 40
20.0
100
AcDbArc
 50
90.0
 51
180.0
  0
ARC
  5
7431
330
7336
100
AcDbEntity
  8
0
  6
ACAD_ISO02W100
 62
   252
370
    15
100
AcDbCircle
 10
-2107.634615084171
 20
7545.769061072869
 30
0.0
 40
300.0
100
AcDbArc
 50
3.898075848287587
 51
18.37236734666223
  0
ARC
  5
7432
330
7336
100
AcDbEntity
  8
0
  6
ACAD_ISO02W100
 62
   252
370
    15
100
AcDbCircle
 10
-5806.198139136897
 20
7435.628089252365
 30
0.0
 40
4000.0
100
AcDbArc
 50
0.0
 51
1.87011545044515
  0
ARC
  5
7433
330
7336
100
AcDbEntity
  8
0
  6
ACAD_ISO02W100
 62
   252
370
    15
100
AcDbCircle
 10
-1920.198139136897
 20
7617.128089252367
 30
0.0
 40
100.0
100
AcDbArc
 50
13.41389718051692
 51
73.67995943488248
  0
ARC
  5
7434
330
7336
100
AcDbEntity
  8
0
  6
ACAD_ISO02W100
 62
   252
370
    15
100
AcDbCircle
 10
-2315.79510656479
 20
5758.493803306804
 30
0.0
 40
2000.0
100
AcDbArc
 50
77.76929280107515
 51
82.90088288762069
  0
ARC
  5
7435
330
7336
100
AcDbEntity
  8
0
  6
ACAD_ISO02W100
 62
   252
370
    15
100
AcDbCircle
 10
-2903.199261203012
 20
7551.634538864838
 30
0.0
 40
400.0
100
AcDbArc
 50
160.5711770716546
 51
174.8203453511431
  0
ARC
  5
7436
330
7336
100
AcDbEntity
  8
0
  6
ACAD_ISO02W100
 62
   252
370
    15
100
AcDbCircle
 10
-806.1981391368972
 20
7435.628089252365
 30
0.0
 40
2500.0
100
AcDbArc
 50
176.5115567799108
 51
180.0
  0
ARC
  5
7437
330
7336
100
AcDbEntity
  8
0
  6
ACAD_ISO02W100
 62
   252
370
    15
100
AcDbCircle
 10
-3161.198139136898
 20
7647.128089252364
 30
0.0
 40
125.0
100
AcDbArc
 50
122.5848084982535
 51
162.5132366046716
  0
ARC
  5
7438
330
7336
100
AcDbEntity
  8
0
  6
ACAD_ISO02W100
 62
   252
370
    15
100
AcDbCircle
 10
-2961.807248939197
 20
6788.675472997093
 30
0.0
 40
1000.0
100
AcDbArc
 50
86.81218828025306
 51
105.4685453354507
  0
ARC
  5
7439
330
7336
100
AcDbEntity
  8
0
  6
ACAD_ISO02W100
 62
   252
370
    15
100
AcDbCircle
 10
-2906.198139136897
 20
-212.8719107476345
 30
0.0
 40
8000.0
100
AcDbArc
 50
83.99029457362439
 51
90.0
  0
LINE
  5
743A
330
7336
100
AcDbEntity
  8
\U+56FE\U+5C423
100
AcDbLine
 10
-1946.198139136905
 20
7490.62668604177
 30
0.0
 11
-1946.198139136905
 21
7380.629492462961
 31
0.0
  0
CIRCLE
  5
743B
330
7336
100
AcDbEntity
  8
0
100
AcDbCircle
 10
-1946.198139136905
 20
7435.628089252365
 30
0.0
 40
27.5
  0
ARC
  5
743C
330
7336
100
AcDbEntity
  8
0
  6
ACAD_ISO02W100
 62
   252
370
    15
100
AcDbCircle
 10
-2107.634615084171
 20
7325.487117431862
 30
0.0
 40
300.0
100
AcDbArc
 50
341.6276326533377
 51
356.1019241517124
  0
ARC
  5
743D
330
7336
100
AcDbEntity
  8
0
  6
ACAD_ISO02W100
 62
   252
370
    15
100
AcDbCircle
 10
-5806.198139136897
 20
7435.628089252365
 30
0.0
 40
4000.0
100
AcDbArc
 50
358.1298845495548
 51
0.0
  0
ARC
  5
743E
330
7336
100
AcDbEntity
  8
0
  6
ACAD_ISO02W100
 62
   252
370
    15
100
AcDbCircle
 10
-2315.79510656479
 20
9112.762375197929
 30
0.0
 40
2000.0
100
AcDbArc
 50
277.0991171123794
 51
282.2307071989249
  0
ARC
  5
743F
330
7336
100
AcDbEntity
  8
0
  6
ACAD_ISO02W100
 62
   252
370
    15
100
AcDbCircle
 10
-2906.198139136897
 20
15084.12808925236
 30
0.0
 40
8000.0
100
AcDbArc
 50
270.0
 51
276.0097054263756
  0
ARC
  5
7440
330
7336
100
AcDbEntity
  8
0
  6
ACAD_ISO02W100
 62
   252
370
    15
100
AcDbCircle
 10
-1920.198139136897
 20
7254.128089252365
 30
0.0
 40
100.0
100
AcDbArc
 50
286.3200405651176
 51
346.5861028194831
  0
ARC
  5
7441
330
7336
100
AcDbEntity
  8
0
  6
ACAD_ISO02W100
 62
   252
370
    15
100
AcDbCircle
 10
-2961.807248939197
 20
8082.580705507638
 30
0.0
 40
1000.0
100
AcDbArc
 50
254.5314546645493
 51
273.1878117197469
  0
ARC
  5
7442
330
7336
100
AcDbEntity
  8
0
  6
ACAD_ISO02W100
 62
   252
370
    15
100
AcDbCircle
 10
-2903.199261203012
 20
7319.621639639894
 30
0.0
 40
400.0
100
AcDbArc
 50
185.1796546488569
 51
199.4288229283454
  0
ARC
  5
7443
330
7336
100
AcDbEntity
  8
0
  6
ACAD_ISO02W100
 62
   252
370
    15
100
AcDbCircle
 10
-3161.198139136898
 20
7224.128089252367
 30
0.0
 40
125.0
100
AcDbArc
 50
197.4867633953283
 51
237.4151915017465
  0
ARC
  5
7444
330
7336
100
AcDbEntity
  8
0
  6
ACAD_ISO02W100
 62
   252
370
    15
100
AcDbCircle
 10
-806.1981391368972
 20
7435.628089252365
 30
0.0
 40
2500.0
100
AcDbArc
 50
180.0
 51
183.4884432200892
  0
LINE
  5
7445
330
7336
100
AcDbEntity
  8
\U+56FE\U+5C423
100
AcDbLine
 10
-3406.198139136897
 20
7029.128089252366
 30
0.0
 11
-3406.198139136901
 21
7049.128089252366
 31
0.0
  0
LINE
  5
7446
330
7336
100
AcDbEntity
  8
\U+56FE\U+5C423
100
AcDbLine
 10
-3406.198139136897
 20
7842.128089252366
 30
0.0
 11
-3386.198139136901
 21
7842.128089252366
 31
0.0
  0
LINE
  5
7447
330
7336
100
AcDbEntity
  8
\U+56FE\U+5C423
100
AcDbLine
 10
-3469.813408861221
 20
7435.628089252367
 30
0.0
 11
-1665.163762290984
 21
7435.628089252365
 31
0.0
  0
LINE
  5
7448
330
7336
100
AcDbEntity
  8
\U+56FE\U+5C423
100
AcDbLine
 10
-2567.488585576102
 20
7940.893591439395
 30
0.0
 11
-2567.488585576102
 21
6930.362587065339
 31
0.0
  0
ARC
  5
7449
330
7336
100
AcDbEntity
  8
0
  6
ACAD_ISO02W100
 62
   252
370
    15
100
AcDbCircle
 10
-1808.219150434277
 20
10326.31100273063
 30
0.0
 40
1444.6
100
AcDbArc
 50
167.3535094973142
 51
180.0
  0
ARC
  5
744A
330
7336
100
AcDbEntity
  8
0
  6
ACAD_ISO02W100
 62
   252
370
    15
100
AcDbCircle
 10
-1808.219150434277
 20
10326.31100273063
 30
0.0
 40
1444.6
100
AcDbArc
 50
180.0
 51
192.6464905026857
  0
ARC
  5
744B
330
7336
100
AcDbEntity
  8
0
  6
ACAD_ISO02W100
 62
   252
370
    15
100
AcDbCircle
 10
-5845.219150434277
 20
10326.31100273063
 30
0.0
 40
4035.179999999999
100
AcDbArc
 50
0.0
 51
3.019256807870326
  0
ARC
  5
744C
330
7336
100
AcDbEntity
  8
0
  6
ACAD_ISO02W100
 62
   252
370
    15
100
AcDbCircle
 10
-5845.219150434277
 20
10326.31100273063
 30
0.0
 40
4035.179999999999
100
AcDbArc
 50
356.9657324382442
 51
0.0
  0
ARC
  5
744D
330
7336
100
AcDbEntity
  8
0
  6
ACAD_ISO02W100
 62
   252
370
    15
100
AcDbCircle
 10
-2084.803774427517
 20
10112.18312972413
 30
0.0
 40
269.1680318311782
100
AcDbArc
 50
356.9555868726058
 51
0.5238361914522918
  0
ARC
  5
744E
330
7336
100
AcDbEntity
  8
0
  6
ACAD_ISO02W100
 62
   252
370
    15
100
AcDbCircle
 10
-2084.803774427538
 20
10540.43887573713
 30
0.0
 40
269.1680318311999
100
AcDbArc
 50
359.6618580708095
 51
3.044413127395189
  0
ARC
  5
744F
330
7336
100
AcDbEntity
  8
0
  6
ACAD_ISO02W100
 62
   252
370
    15
100
AcDbCircle
 10
-3734.643530847267
 20
-9250.080583857139
 30
0.0
 40
20022.0
100
AcDbArc
 50
86.36759962564385
 51
86.93388608083216
  0
ARC
  5
7450
330
7336
100
AcDbEntity
  8
0
  6
ACAD_ISO02W100
 62
   252
370
    15
100
AcDbCircle
 10
-2470.079990333386
 20
10669.82099853034
 30
0.0
 40
62.0
100
AcDbArc
 50
33.97621287268071
 51
86.36759962566546
  0
ARC
  5
7451
330
7336
100
AcDbEntity
  8
0
  6
ACAD_ISO02W100
 62
   252
370
    15
100
AcDbCircle
 10
-2406.414523168478
 20
10700.6060049051
 30
0.0
 40
8.0
100
AcDbArc
 50
213.9762128726588
 51
266.1978132511405
  0
LINE
  5
7452
330
7336
100
AcDbEntity
  8
0
  6
ACAD_ISO02W100
 62
   252
370
    15
100
AcDbLine
 10
-2418.66527155651
 20
10704.46961600773
 30
0.0
 11
-2413.048680430016
 21
10696.13521555318
 31
0.0
  0
ARC
  5
7453
330
7336
100
AcDbEntity
  8
0
  6
ACAD_ISO02W100
 62
   252
370
    15
100
AcDbCircle
 10
-2667.018154100176
 20
10681.34626057439
 30
0.0
 40
62.0
100
AcDbArc
 50
86.93388608083145
 51
139.2183285414393
  0
ARC
  5
7454
330
7336
100
AcDbEntity
  8
0
  6
ACAD_ISO02W100
 62
   252
370
    15
100
AcDbCircle
 10
-2726.709282186675
 20
10719.31695290374
 30
0.0
 40
8.0
100
AcDbArc
 50
267.1155876621487
 51
319.218328541441
  0
LINE
  5
7455
330
7336
100
AcDbEntity
  8
0
  6
ACAD_ISO02W100
 62
   252
370
    15
100
AcDbLine
 10
-2720.651649851863
 20
10714.091525601
 30
0.0
 11
-2713.964804694961
 21
10721.84332217064
 31
0.0
  0
ARC
  5
7456
330
7336
100
AcDbEntity
  8
0
  6
ACAD_ISO02W100
 62
   252
370
    15
100
AcDbCircle
 10
-3734.643530847267
 20
-9285.306726395429
 30
0.0
 40
20022.0
100
AcDbArc
 50
87.11558766215011
 51
88.00512317112143
  0
ARC
  5
7457
330
7336
100
AcDbEntity
  8
0
  6
ACAD_ISO02W100
 62
   252
370
    15
100
AcDbCircle
 10
-3054.856992699526
 20
10102.79676295174
 30
0.0
 40
622.0
100
AcDbArc
 50
88.43217669425973
 51
97.19086791016628
  0
ARC
  5
7458
330
7336
100
AcDbEntity
  8
0
  6
ACAD_ISO02W100
 62
   252
370
    15
100
AcDbCircle
 10
-5806.198139136897
 20
7435.628089252365
 30
0.0
 40
4036.0
100
AcDbArc
 50
0.0
 51
1.87011545044515
  0
ARC
  5
7459
330
7336
100
AcDbEntity
  8
0
  6
ACAD_ISO02W100
 62
   252
370
    15
100
AcDbCircle
 10
-5806.198139136897
 20
7435.628089252365
 30
0.0
 40
4036.0
100
AcDbArc
 50
358.1298845495548
 51
0.0
  0
ARC
  5
745A
330
7336
100
AcDbEntity
  8
0
  6
ACAD_ISO02W100
 62
   252
370
    15
100
AcDbCircle
 10
-2107.634615084171
 20
7325.487117431862
 30
0.0
 40
336.0
100
AcDbArc
 50
341.6276326533377
 51
356.1019241517124
  0
ARC
  5
745B
330
7336
100
AcDbEntity
  8
0
  6
ACAD_ISO02W100
 62
   252
370
    15
100
AcDbCircle
 10
-1920.198139136897
 20
7254.128089252365
 30
0.0
 40
136.0
100
AcDbArc
 50
286.3200405651176
 51
346.5861028194831
  0
ARC
  5
745C
330
7336
100
AcDbEntity
  8
0
  6
ACAD_ISO02W100
 62
   252
370
    15
100
AcDbCircle
 10
-1920.198139136897
 20
7617.128089252367
 30
0.0
 40
136.0
100
AcDbArc
 50
13.41389718051692
 51
73.67995943488248
  0
ARC
  5
745D
330
7336
100
AcDbEntity
  8
0
  6
ACAD_ISO02W100
 62
   252
370
    15
100
AcDbCircle
 10
-2107.634615084171
 20
7545.769061072869
 30
0.0
 40
336.0
100
AcDbArc
 50
3.898075848287587
 51
18.37236734666223
  0
ARC
  5
745E
330
7336
100
AcDbEntity
  8
0
  6
ACAD_ISO02W100
 62
   252
370
    15
100
AcDbCircle
 10
-2315.79510656479
 20
5758.493803306804
 30
0.0
 40
2036.0
100
AcDbArc
 50
77.76929280107515
 51
82.90088288762069
  0
ARC
  5
745F
330
7336
100
AcDbEntity
  8
0
  6
ACAD_ISO02W100
 62
   252
370
    15
100
AcDbCircle
 10
-2906.198139136897
 20
-212.8719107476345
 30
0.0
 40
8036.0
100
AcDbArc
 50
83.99029457362439
 51
90.0
  0
ARC
  5
7460
330
7336
100
AcDbEntity
  8
0
  6
ACAD_ISO02W100
 62
   252
370
    15
100
AcDbCircle
 10
-2315.79510656479
 20
9112.762375197929
 30
0.0
 40
2036.0
100
AcDbArc
 50
277.0991171123794
 51
282.2307071989249
  0
ARC
  5
7461
330
7336
100
AcDbEntity
  8
0
  6
ACAD_ISO02W100
 62
   252
370
    15
100
AcDbCircle
 10
-2906.198139136897
 20
15084.12808925236
 30
0.0
 40
8036.0
100
AcDbArc
 50
270.0
 51
276.0097054263756
  0
ARC
  5
7462
330
7336
100
AcDbEntity
  8
0
  6
ACAD_ISO02W100
 62
   252
370
    15
100
AcDbCircle
 10
-2961.807248939197
 20
8082.580705507638
 30
0.0
 40
1036.0
100
AcDbArc
 50
255.3100960959568
 51
273.1878117197469
  0
ARC
  5
7463
330
7336
100
AcDbEntity
  8
0
  6
ACAD_ISO02W100
 62
   252
370
    15
100
AcDbCircle
 10
-2961.807248939197
 20
6788.675472997093
 30
0.0
 40
1036.0
100
AcDbArc
 50
86.81218828025306
 51
104.6899039040432
  0
ARC
  5
7464
330
7336
100
AcDbEntity
  8
0
  6
ACAD_ISO02W100
 62
   252
370
    15
100
AcDbCircle
 10
-806.1981391368972
 20
7435.628089252365
 30
0.0
 40
2548.5
100
AcDbArc
 50
180.0
 51
183.4884432200892
  0
ARC
  5
7465
330
7336
100
AcDbEntity
  8
0
  6
ACAD_ISO02W100
 62
   252
370
    15
100
AcDbCircle
 10
-806.1981391368972
 20
7435.628089252365
 30
0.0
 40
2548.5
100
AcDbArc
 50
176.5115567799108
 51
180.0
  0
ARC
  5
7466
330
7336
100
AcDbEntity
  8
0
  6
ACAD_ISO02W100
 62
   252
370
    15
100
AcDbCircle
 10
-2903.199261203012
 20
7551.634538864838
 30
0.0
 40
448.5
100
AcDbArc
 50
161.6286153241671
 51
174.8203453511431
  0
ARC
  5
7467
330
7336
100
AcDbEntity
  8
0
  6
ACAD_ISO02W100
 62
   252
370
    15
100
AcDbCircle
 10
-2903.199261203012
 20
7319.621639639894
 30
0.0
 40
448.5
100
AcDbArc
 50
185.1796546488569
 51
198.3713846758321
  0
ARC
  5
7468
330
7336
100
AcDbEntity
  8
0
  6
ACAD_ISO02W100
 62
   252
370
    15
100
AcDbCircle
 10
-3186.485772418052
 20
7645.71430589054
 30
0.0
 40
150.0
100
AcDbArc
 50
104.6899039040431
 51
161.6286153241672
  0
ARC
  5
7469
330
7336
100
AcDbEntity
  8
0
  6
ACAD_ISO02W100
 62
   252
370
    15
100
AcDbCircle
 10
-3186.485772418052
 20
7225.541872614194
 30
0.0
 40
150.0
100
AcDbArc
 50
198.3713846758328
 51
255.3100960959568
  0
ARC
  5
746A
330
7336
100
AcDbEntity
  8
0
  6
ACAD_ISO02W100
 62
   252
370
    15
100
AcDbCircle
 10
-3734.643530847267
 20
29937.92873185668
 30
0.0
 40
20022.0
100
AcDbArc
 50
271.9948768288786
 51
272.8844123378499
  0
ARC
  5
746B
330
7336
100
AcDbEntity
  8
0
  6
ACAD_ISO02W100
 62
   252
370
    15
100
AcDbCircle
 10
-3054.856992699526
 20
10549.82524250951
 30
0.0
 40
622.0
100
AcDbArc
 50
262.8091320898337
 51
271.5678233057403
  0
ARC
  5
746C
330
7336
100
AcDbEntity
  8
0
  6
ACAD_ISO02W100
 62
   252
370
    15
100
AcDbCircle
 10
-2667.018154100176
 20
9971.275744886868
 30
0.0
 40
62.0
100
AcDbArc
 50
220.7816714585606
 51
273.0661139191685
  0
ARC
  5
746D
330
7336
100
AcDbEntity
  8
0
  6
ACAD_ISO02W100
 62
   252
370
    15
100
AcDbCircle
 10
-3734.643530847267
 20
29902.70258931839
 30
0.0
 40
20022.0
100
AcDbArc
 50
273.0661139191678
 51
273.6324003743561
  0
ARC
  5
746E
330
7336
100
AcDbEntity
  8
0
  6
ACAD_ISO02W100
 62
   252
370
    15
100
AcDbCircle
 10
-2726.709282186675
 20
9933.305052557514
 30
0.0
 40
8.0
100
AcDbArc
 50
40.78167145855903
 51
92.88441233785137
  0
LINE
  5
746F
330
7336
100
AcDbEntity
  8
0
  6
ACAD_ISO02W100
 62
   252
370
    15
100
AcDbLine
 10
-2720.651649851863
 20
9938.530479860254
 30
0.0
 11
-2713.964804694961
 21
9930.778683290611
 31
0.0
  0
ARC
  5
7470
330
7336
100
AcDbEntity
  8
0
  6
ACAD_ISO02W100
 62
   252
370
    15
100
AcDbCircle
 10
-2470.079990333386
 20
9982.801006930918
 30
0.0
 40
62.0
100
AcDbArc
 50
273.6324003743346
 51
326.0237871273193
  0
ARC
  5
7471
330
7336
100
AcDbEntity
  8
0
  6
ACAD_ISO02W100
 62
   252
370
    15
100
AcDbCircle
 10
-2406.414523168478
 20
9952.016000556152
 30
0.0
 40
8.0
100
AcDbArc
 50
93.8021867488595
 51
146.0237871273412
  0
LINE
  5
7472
330
7336
100
AcDbEntity
  8
0
  6
ACAD_ISO02W100
 62
   252
370
    15
100
AcDbLine
 10
-2418.66527155651
 20
9948.15238945352
 30
0.0
 11
-2411.405081116856
 21
9958.925709628992
 31
0.0
  0
ARC
  5
7473
330
7336
100
AcDbEntity
  8
0
  6
ACAD_ISO02W100
 62
   252
370
    15
100
AcDbCircle
 10
-3734.643530847267
 20
29937.92873185668
 30
0.0
 40
20022.0
100
AcDbArc
 50
273.8021867488698
 51
275.0956598611273
  0
ARC
  5
7474
330
7336
100
AcDbEntity
  8
0
  6
ACAD_ISO02W100
 62
   252
370
    15
100
AcDbCircle
 10
-2029.041644897239
 20
10612.78392779842
 30
0.0
 40
622.0
100
AcDbArc
 50
276.774291586544
 51
282.5208753072862
  0
ARC
  5
7475
330
7336
100
AcDbEntity
  8
0
  6
ACAD_ISO02W100
 62
   252
370
    15
100
AcDbCircle
 10
-3734.643530847267
 20
-9285.306726395429
 30
0.0
 40
20022.0
100
AcDbArc
 50
84.90434013887265
 51
86.20622736664564
  0
ARC
  5
7476
330
7336
100
AcDbEntity
  8
0
  6
ACAD_ISO02W100
 62
   252
370
    15
100
AcDbCircle
 10
-2029.041644897239
 20
10039.83807766283
 30
0.0
 40
622.0
100
AcDbArc
 50
77.47912469271392
 51
83.22570841345607
  0
ARC
  5
7477
330
7336
100
AcDbEntity
  8
0
  6
ACAD_ISO02W100
 62
   252
370
    15
100
AcDbCircle
 10
-3120.198396849947
 20
10031.93094740321
 30
0.0
 40
100.0
100
AcDbArc
 50
192.6464905026864
 51
262.8091320898337
  0
ARC
  5
7478
330
7336
100
AcDbEntity
  8
0
  6
ACAD_ISO02W100
 62
   252
370
    15
100
AcDbCircle
 10
-3120.198396849947
 20
10620.69105805804
 30
0.0
 40
100.0
100
AcDbArc
 50
97.19086791016628
 51
167.3535094973136
  0
ARC
  5
7479
330
7336
100
AcDbEntity
  8
0
  6
ACAD_ISO02W100
 62
   252
370
    15
100
AcDbCircle
 10
-1915.874495150188
 20
10549.42339556174
 30
0.0
 40
100.0
100
AcDbArc
 50
3.044413127395225
 51
77.47912469271387
  0
ARC
  5
747A
330
7336
100
AcDbEntity
  8
0
  6
ACAD_ISO02W100
 62
   252
370
    15
100
AcDbCircle
 10
-1915.874495150188
 20
10103.19860989952
 30
0.0
 40
100.0
100
AcDbArc
 50
282.5208753072861
 51
356.9555868726048
  0
LINE
  5
747B
330
7336
100
AcDbEntity
  8
\U+56FE\U+5C423
100
AcDbLine
 10
-2601.541303495342
 20
5655.854140655277
 30
0.0
 11
-2601.541303495342
 21
6659.289780655964
 31
0.0
  0
LINE
  5
747C
330
7336
100
AcDbEntity
  8
\U+56FE\U+5C423
100
AcDbLine
 10
-3607.315567200087
 20
6157.571960655619
 30
0.0
 11
-1626.544796910486
 21
6157.571960655619
 31
0.0
  0
ARC
  5
747D
330
7336
100
AcDbEntity
  8
0
  6
ACAD_ISO02W100
 62
   252
370
    15
100
AcDbCircle
 10
-5755.041303495346
 20
6157.571960655619
 30
0.0
 40
4000.0
100
AcDbArc
 50
0.0
 51
3.036838011360029
  0
ARC
  5
747E
330
7336
100
AcDbEntity
  8
0
  6
ACAD_ISO02W100
 62
   252
370
    15
100
AcDbCircle
 10
-3226.041303495342
 20
6401.571960655622
 30
0.0
 40
120.0
100
AcDbArc
 50
178.3281197088036
 51
180.0
  0
ARC
  5
747F
330
7336
100
AcDbEntity
  8
0
  6
ACAD_ISO02W100
 62
   252
370
    15
100
AcDbCircle
 10
-3052.017897818951
 20
6345.237649694315
 30
0.0
 40
300.0
100
AcDbArc
 50
155.629591330207
 51
168.4951252244845
  0
ARC
  5
7480
330
7336
100
AcDbEntity
  8
0
  6
ACAD_ISO02W100
 62
   252
370
    15
100
AcDbCircle
 10
-3226.041303495342
 20
6401.571960655622
 30
0.0
 40
120.0
100
AcDbArc
 50
97.71453236721804
 51
145.7965968458382
  0
ARC
  5
7481
330
7336
100
AcDbEntity
  8
0
  6
ACAD_ISO02W100
 62
   252
370
    15
100
AcDbCircle
 10
-3186.808767086536
 20
5923.043506284324
 30
0.0
 40
600.0
100
AcDbArc
 50
89.71377991624704
 51
95.29220196232218
  0
ARC
  5
7482
330
7336
100
AcDbEntity
  8
0
  6
ACAD_ISO02W100
 62
   252
370
    15
100
AcDbCircle
 10
-1859.041303495345
 20
6351.571960655619
 30
0.0
 40
100.0
100
AcDbArc
 50
10.31852708500217
 51
83.56062334518311
  0
ARC
  5
7483
330
7336
100
AcDbEntity
  8
0
  6
ACAD_ISO02W100
 62
   252
370
    15
100
AcDbCircle
 10
-1943.587944658346
 20
5858.632304158027
 30
0.0
 40
600.0
100
AcDbArc
 50
80.81614354545893
 51
84.79601836727747
  0
ARC
  5
7484
330
7336
100
AcDbEntity
  8
0
  6
ACAD_ISO02W100
 62
   252
370
    15
100
AcDbCircle
 10
-4599.728396480052
 20
-33451.89586644449
 30
0.0
 40
40000.0
100
AcDbArc
 50
86.1144290021232
 51
87.06227678056682
  0
ARC
  5
7485
330
7336
100
AcDbEntity
  8
0
  6
ACAD_ISO02W100
 62
   252
370
    15
100
AcDbCircle
 10
-1968.041303495342
 20
6157.571960655621
 30
0.0
 40
1400.0
100
AcDbArc
 50
169.9588162568186
 51
180.0
  0
ARC
  5
7486
330
7336
100
AcDbEntity
  8
0
  6
ACAD_ISO02W100
 62
   252
370
    15
100
AcDbCircle
 10
-1968.041303495342
 20
6157.571960655621
 30
0.0
 40
1400.0
100
AcDbArc
 50
180.0
 51
190.0411837431813
  0
ARC
  5
7487
330
7336
100
AcDbEntity
  8
0
  6
ACAD_ISO02W100
 62
   252
370
    15
100
AcDbCircle
 10
-4599.728396502821
 20
45767.03978833378
 30
0.0
 40
40000.00000057851
100
AcDbArc
 50
272.0285753614001
 51
272.4873981010494
  0
ARC
  5
7488
330
7336
100
AcDbEntity
  8
0
  6
ACAD_ISO02W100
 62
   252
370
    15
100
AcDbCircle
 10
-3186.808767086536
 20
6392.100415026918
 30
0.0
 40
600.0
100
AcDbArc
 50
264.7077980376778
 51
270.2862200837529
  0
ARC
  5
7489
330
7336
100
AcDbEntity
  8
0
  6
ACAD_ISO02W100
 62
   252
370
    15
100
AcDbCircle
 10
-3226.041303495342
 20
5913.571960655621
 30
0.0
 40
120.0
100
AcDbArc
 50
214.2034031541617
 51
262.285467632782
  0
ARC
  5
748A
330
7336
100
AcDbEntity
  8
0
  6
ACAD_ISO02W100
 62
   252
370
    15
100
AcDbCircle
 10
-3052.017897818951
 20
5969.906271616928
 30
0.0
 40
300.0
100
AcDbArc
 50
191.5048747755155
 51
204.370408669793
  0
ARC
  5
748B
330
7336
100
AcDbEntity
  8
0
  6
ACAD_ISO02W100
 62
   252
370
    15
100
AcDbCircle
 10
-3226.041303495342
 20
5913.571960655621
 30
0.0
 40
120.0
100
AcDbArc
 50
180.0
 51
181.6718802911963
  0
ARC
  5
748C
330
7336
100
AcDbEntity
  8
0
  6
ACAD_ISO02W100
 62
   252
370
    15
100
AcDbCircle
 10
-1943.587944658346
 20
6456.511617153215
 30
0.0
 40
600.0
100
AcDbArc
 50
275.2039816327225
 51
279.1838564545411
  0
ARC
  5
748D
330
7336
100
AcDbEntity
  8
0
  6
ACAD_ISO02W100
 62
   252
370
    15
100
AcDbCircle
 10
-1859.041303495345
 20
5963.571960655623
 30
0.0
 40
100.0
100
AcDbArc
 50
276.4393766548169
 51
349.6814729149979
  0
ARC
  5
748E
330
7336
100
AcDbEntity
  8
0
  6
ACAD_ISO02W100
 62
   252
370
    15
100
AcDbCircle
 10
-5755.041303495346
 20
6157.571960655623
 30
0.0
 40
4000.0
100
AcDbArc
 50
356.96316198864
 51
0.0
  0
CIRCLE
  5
748F
330
7336
100
AcDbEntity
  8
0
100
AcDbCircle
 10
-1895.041303495341
 20
6157.571960655619
 30
0.0
 40
39.0
  0
LINE
  5
7490
330
7336
100
AcDbEntity
  8
\U+56FE\U+5C423
100
AcDbLine
 10
-1895.041303495341
 20
6221.152630843938
 30
0.0
 11
-1895.041303495341
 21
6093.991290467299
 31
0.0
  0
ARC
  5
7491
330
7336
100
AcDbEntity
  8
0
  6
ACAD_ISO02W100
 62
   252
370
    15
100
AcDbCircle
 10
-2862.440366111696
 20
6540.387517972795
 30
0.0
 40
30.0
100
AcDbArc
 50
267.5126018989506
 51
310.084084311192
  0
ARC
  5
7492
330
7336
100
AcDbEntity
  8
0
  6
ACAD_ISO02W100
 62
   252
370
    15
100
AcDbCircle
 10
-4599.728396480052
 20
-33451.89586644449
 30
0.0
 40
40000.0
100
AcDbArc
 50
87.51260189895061
 51
87.97142463859996
  0
ARC
  5
7493
330
7336
100
AcDbEntity
  8
0
  6
ACAD_ISO02W100
 62
   252
370
    15
100
AcDbCircle
 10
-2810.00034803887
 20
6493.029950392662
 30
0.0
 40
40.0
100
AcDbArc
 50
87.43458459630259
 51
130.084084311192
  0
LINE
  5
7494
330
7336
100
AcDbEntity
  8
0
  6
ACAD_ISO02W100
 62
   252
370
    15
100
AcDbLine
 10
-2835.756793004832
 20
6523.633962265536
 30
0.0
 11
-2843.123032387219
 21
6517.434509068138
 31
0.0
  0
ARC
  5
7495
330
7336
100
AcDbEntity
  8
0
100
AcDbCircle
 10
-2604.839879712872
 20
6483.309714667401
 30
0.0
 40
40.0
100
AcDbArc
 50
44.43269984628151
 51
87.14027353529571
  0
ARC
  5
7496
330
7336
100
AcDbEntity
  8
0
  6
ACAD_ISO02W100
 62
   252
370
    15
100
AcDbCircle
 10
-4599.728396480052
 20
-33451.89586644449
 30
0.0
 40
40025.0
100
AcDbArc
 50
87.14027353529571
 51
87.43458459630259
  0
ARC
  5
7497
330
7336
100
AcDbEntity
  8
0
  6
ACAD_ISO02W100
 62
   252
370
    15
100
AcDbCircle
 10
-2548.171670844524
 20
6525.4979330705
 30
0.0
 40
30.0
100
AcDbArc
 50
224.4326998462815
 51
267.0622767805668
  0
LINE
  5
7498
330
7336
100
AcDbEntity
  8
0
  6
ACAD_ISO02W100
 62
   252
370
    15
100
AcDbLine
 10
-2569.593868387896
 20
6504.495803359147
 30
0.0
 11
-2576.276949655039
 21
6511.31255428254
 31
0.0
  0
LINE
  5
7499
330
7336
100
AcDbEntity
  8
0
  6
ACAD_ISO02W100
 62
   252
370
    15
100
AcDbLine
 10
-2569.593868387896
 20
5810.648117952093
 30
0.0
 11
-2576.276949655039
 21
5803.831367028699
 31
0.0
  0
ARC
  5
749A
330
7336
100
AcDbEntity
  8
0
  6
ACAD_ISO02W100
 62
   252
370
    15
100
AcDbCircle
 10
-2548.171670844524
 20
5789.64598824074
 30
0.0
 40
30.0
100
AcDbArc
 50
92.93772321943317
 51
135.5673001537185
  0
ARC
  5
749B
330
7336
100
AcDbEntity
  8
0
  6
ACAD_ISO02W100
 62
   252
370
    15
100
AcDbCircle
 10
-4599.728396480052
 20
45767.03978775572
 30
0.0
 40
40025.0
100
AcDbArc
 50
272.5654154036974
 51
272.8597264647043
  0
ARC
  5
749C
330
7336
100
AcDbEntity
  8
0
  6
ACAD_ISO02W100
 62
   252
370
    15
100
AcDbCircle
 10
-2604.839879712872
 20
5831.834206643838
 30
0.0
 40
40.0
100
AcDbArc
 50
272.8597264647043
 51
315.5673001537185
  0
LINE
  5
749D
330
7336
100
AcDbEntity
  8
0
  6
ACAD_ISO02W100
 62
   252
370
    15
100
AcDbLine
 10
-2835.756793004832
 20
5791.509959045703
 30
0.0
 11
-2843.123032387219
 21
5797.709412243101
 31
0.0
  0
ARC
  5
749E
330
7336
100
AcDbEntity
  8
0
  6
ACAD_ISO02W100
 62
   252
370
    15
100
AcDbCircle
 10
-2810.00034803887
 20
5822.113970918577
 30
0.0
 40
40.0
100
AcDbArc
 50
229.915915688808
 51
272.5654154036974
  0
ARC
  5
749F
330
7336
100
AcDbEntity
  8
0
  6
ACAD_ISO02W100
 62
   252
370
    15
100
AcDbCircle
 10
-2862.440366111696
 20
5774.756403338444
 30
0.0
 40
30.0
100
AcDbArc
 50
49.91591568880801
 51
92.48739810104936
  0
ARC
  5
74A0
330
7336
100
AcDbEntity
  8
0
  6
ACAD_ISO02W100
 62
   252
370
    15
100
AcDbCircle
 10
-4599.728396480052
 20
45767.03978775572
 30
0.0
 40
40000.0
100
AcDbArc
 50
272.9377232194332
 51
273.8855709978768
  0
ARC
  5
74A1
330
7336
100
AcDbEntity
  8
0
100
AcDbCircle
 10
-3498.041303495341
 20
6597.571960655621
 30
0.0
 40
20.0
100
AcDbArc
 50
90.0
 51
180.0
  0
LINE
  5
74A2
330
7336
100
AcDbEntity
  8
0
100
AcDbLine
 10
-3498.041303495341
 20
6617.57196065562
 30
0.0
 11
-1705.041303495342
 21
6617.571960655621
 31
0.0
  0
ARC
  5
74A3
330
7336
100
AcDbEntity
  8
0
100
AcDbCircle
 10
-1705.041303495342
 20
6597.571960655621
 30
0.0
 40
20.0
100
AcDbArc
 50
0.0
 51
90.0
  0
LINE
  5
74A4
330
7336
100
AcDbEntity
  8
0
100
AcDbLine
 10
-1685.041303495345
 20
6597.571960655621
 30
0.0
 11
-1685.041303495338
 21
5717.571960655619
 31
0.0
  0
ARC
  5
74A5
330
7336
100
AcDbEntity
  8
0
100
AcDbCircle
 10
-1705.041303495342
 20
5717.571960655619
 30
0.0
 40
20.0
100
AcDbArc
 50
270.0
 51
0.0
  0
LINE
  5
74A6
330
7336
100
AcDbEntity
  8
0
100
AcDbLine
 10
-1705.041303495342
 20
5697.571960655619
 30
0.0
 11
-3498.041303495341
 21
5697.571960655621
 31
0.0
  0
ARC
  5
74A7
330
7336
100
AcDbEntity
  8
0
100
AcDbCircle
 10
-3498.041303495338
 20
5717.571960655623
 30
0.0
 40
20.0
100
AcDbArc
 50
180.0
 51
270.0
  0
LINE
  5
74A8
330
7336
100
AcDbEntity
  8
0
100
AcDbLine
 10
-3518.041303495338
 20
5717.571960655623
 30
0.0
 11
-3518.041303495345
 21
6597.571960655621
 31
0.0
  0
ARC
  5
74A9
330
7336
100
AcDbEntity
  8
0
  6
ACAD_ISO02W100
 62
   252
370
    15
100
AcDbCircle
 10
-1968.041303495342
 20
6157.571960655621
 30
0.0
 40
1434.0
100
AcDbArc
 50
169.011483531405
 51
180.0
  0
ARC
  5
74AA
330
7336
100
AcDbEntity
  8
0
  6
ACAD_ISO02W100
 62
   252
370
    15
100
AcDbCircle
 10
-1968.041303495342
 20
6157.571960655621
 30
0.0
 40
1434.0
100
AcDbArc
 50
180.0
 51
190.9885164685952
  0
ARC
  5
74AB
330
7336
100
AcDbEntity
  8
0
  6
ACAD_ISO02W100
 62
   252
370
    15
100
AcDbCircle
 10
-5755.041303495346
 20
6157.571960655623
 30
0.0
 40
4026.0
100
AcDbArc
 50
357.0757785485767
 51
0.0
  0
ARC
  5
74AC
330
7336
100
AcDbEntity
  8
0
  6
ACAD_ISO02W100
 62
   252
370
    15
100
AcDbCircle
 10
-5755.041303495346
 20
6157.571960655619
 30
0.0
 40
4026.0
100
AcDbArc
 50
0.0
 51
3.036838011360029
  0
ARC
  5
74AD
330
7336
100
AcDbEntity
  8
0
  6
ACAD_ISO02W100
 62
   252
370
    15
100
AcDbCircle
 10
-4599.728396480052
 20
-33451.89586644449
 30
0.0
 40
40034.0
100
AcDbArc
 50
87.51715574634445
 51
87.97142463859996
  0
ARC
  5
74AE
330
7336
100
AcDbEntity
  8
0
  6
ACAD_ISO02W100
 62
   252
370
    15
100
AcDbCircle
 10
-3186.808767086536
 20
5923.043506284324
 30
0.0
 40
634.0
100
AcDbArc
 50
89.71377991624704
 51
94.51243953287821
  0
ARC
  5
74AF
330
7336
100
AcDbEntity
  8
0
  6
ACAD_ISO02W100
 62
   252
370
    15
100
AcDbCircle
 10
-3186.808767086536
 20
6392.100415026918
 30
0.0
 40
634.0
100
AcDbArc
 50
265.4875604671218
 51
270.2862200837529
  0
ARC
  5
74B0
330
7336
100
AcDbEntity
  8
0
  6
ACAD_ISO02W100
 62
   252
370
    15
100
AcDbCircle
 10
-4599.728396502821
 20
45767.03978833378
 30
0.0
 40
40034.00000057851
100
AcDbArc
 50
272.0285753614001
 51
272.4828442536523
  0
ARC
  5
74B1
330
7336
100
AcDbEntity
  8
0
  6
ACAD_ISO02W100
 62
   252
370
    15
100
AcDbCircle
 10
-2810.00034803887
 20
5822.113970918577
 30
0.0
 40
74.0
100
AcDbArc
 50
225.6453480589853
 51
272.5654154036974
  0
ARC
  5
74B2
330
7336
100
AcDbEntity
  8
0
  6
ACAD_ISO02W100
 62
   252
370
    15
100
AcDbCircle
 10
-4599.728396480052
 20
45767.03978775572
 30
0.0
 40
40059.0
100
AcDbArc
 50
272.5654154036974
 51
272.8597264647043
  0
ARC
  5
74B3
330
7336
100
AcDbEntity
  8
0
  6
ACAD_ISO02W100
 62
   252
370
    15
100
AcDbCircle
 10
-2604.839879712872
 20
5831.834206643838
 30
0.0
 40
74.0
100
AcDbArc
 50
272.8597264647043
 51
319.7797938094377
  0
ARC
  5
74B4
330
7336
100
AcDbEntity
  8
0
  6
ACAD_ISO02W100
 62
   252
370
    15
100
AcDbCircle
 10
-4599.728396480052
 20
45767.03978775572
 30
0.0
 40
40034.0
100
AcDbArc
 50
272.9422976147608
 51
273.8855709978768
  0
ARC
  5
74B5
330
7336
100
AcDbEntity
  8
0
  6
ACAD_ISO02W100
 62
   252
370
    15
100
AcDbCircle
 10
-1943.587944658346
 20
6456.511617153215
 30
0.0
 40
634.0
100
AcDbArc
 50
275.2039816327225
 51
279.1838564545411
  0
ARC
  5
74B6
330
7336
100
AcDbEntity
  8
0
  6
ACAD_ISO02W100
 62
   252
370
    15
100
AcDbCircle
 10
-4599.728396480052
 20
-33451.89586644449
 30
0.0
 40
40059.0
100
AcDbArc
 50
87.14027353529571
 51
87.43458459630259
  0
ARC
  5
74B7
330
7336
100
AcDbEntity
  8
0
  6
ACAD_ISO02W100
 62
   252
370
    15
100
AcDbCircle
 10
-2810.00034803887
 20
6493.029950392662
 30
0.0
 40
74.0
100
AcDbArc
 50
87.43458459630259
 51
134.3546519410348
  0
ARC
  5
74B8
330
7336
100
AcDbEntity
  8
0
  6
ACAD_ISO02W100
 62
   252
370
    15
100
AcDbCircle
 10
-2604.839879712872
 20
6483.309714667401
 30
0.0
 40
74.0
100
AcDbArc
 50
40.22020619056204
 51
87.14027353529571
  0
ARC
  5
74B9
330
7336
100
AcDbEntity
  8
0
  6
ACAD_ISO02W100
 62
   252
370
    15
100
AcDbCircle
 10
-4599.728396480052
 20
-33451.89586644449
 30
0.0
 40
40034.0
100
AcDbArc
 50
86.1144290021232
 51
87.05770238523921
  0
ARC
  5
74BA
330
7336
100
AcDbEntity
  8
0
  6
ACAD_ISO02W100
 62
   252
370
    15
100
AcDbCircle
 10
-1943.587944658346
 20
5858.632304158027
 30
0.0
 40
634.0
100
AcDbArc
 50
80.81614354545893
 51
84.79601836727747
  0
ARC
  5
74BB
330
7336
100
AcDbEntity
  8
0
  6
ACAD_ISO02W100
 62
   252
370
    15
100
AcDbCircle
 10
-2865.22906125415
 20
6549.517021803599
 30
0.0
 40
5.0
100
AcDbArc
 50
267.5171557463897
 51
314.3546519410311
  0
ARC
  5
74BC
330
7336
100
AcDbEntity
  8
0
  6
ACAD_ISO02W100
 62
   252
370
    15
100
AcDbCircle
 10
-2544.517979976456
 20
6534.322148565322
 30
0.0
 40
5.0
100
AcDbArc
 50
220.2202061905623
 51
267.0577023852023
  0
ARC
  5
74BD
330
7336
100
AcDbEntity
  8
0
  6
ACAD_ISO02W100
 62
   252
370
    15
100
AcDbCircle
 10
-2865.22906125413
 20
5765.626899507621
 30
0.0
 40
5.0
100
AcDbArc
 50
45.64534805898738
 51
92.48284425374862
  0
ARC
  5
74BE
330
7336
100
AcDbEntity
  8
0
  6
ACAD_ISO02W100
 62
   252
370
    15
100
AcDbCircle
 10
-2544.517979976456
 20
5780.821772745918
 30
0.0
 40
5.0
100
AcDbArc
 50
92.94229761491642
 51
139.779793809441
  0
ARC
  5
74BF
330
7336
100
AcDbEntity
  8
0
  6
ACAD_ISO02W100
 62
   252
370
    15
100
AcDbCircle
 10
-1864.114362714465
 20
6356.326939223555
 30
0.0
 40
130.0
100
AcDbArc
 50
2.924221451423516
 51
80.92740983377067
  0
ARC
  5
74C0
330
7336
100
AcDbEntity
  8
0
  6
ACAD_ISO02W100
 62
   252
370
    15
100
AcDbCircle
 10
-1864.114362714465
 20
5958.816982087686
 30
0.0
 40
130.0
100
AcDbArc
 50
279.0725901662293
 51
357.0757785485765
  0
ARC
  5
74C1
330
7336
100
AcDbEntity
  8
0
  6
ACAD_ISO02W100
 62
   252
370
    15
100
AcDbCircle
 10
-3224.573024079953
 20
6401.555638725849
 30
0.0
 40
154.0
100
AcDbArc
 50
94.51243953287827
 51
169.011483531405
  0
ARC
  5
74C2
330
7336
100
AcDbEntity
  8
0
  6
ACAD_ISO02W100
 62
   252
370
    15
100
AcDbCircle
 10
-3224.573024079953
 20
5913.58828258539
 30
0.0
 40
154.0
100
AcDbArc
 50
190.988516468595
 51
265.4875604671218
  0
TEXT
  5
74C3
330
7336
100
AcDbEntity
  8
0
100
AcDbText
 10
-2688.198765090455
 20
9664.99767947586
 30
0.0
 40
76.07945550861737
  1
FBY1500
 41
0.6600000000000001
  7
\U+68071
 72
     4
 11
-2533.974840280844
 21
9703.037407230169
 31
0.0
100
AcDbText
  0
TEXT
  5
74C4
330
7336
100
AcDbEntity
  8
0
100
AcDbText
 10
-2745.205696329178
 20
6796.179652274858
 30
0.0
 40
76.07945550861737
  1
FBY1700
 41
0.6600000000000001
  7
\U+68071
 72
     4
 11
-2590.981771519566
 21
6834.219380029167
 31
0.0
100
AcDbText
  0
TEXT
  5
74C5
330
7336
100
AcDbEntity
  8
0
100
AcDbText
 10
-2734.086965597997
 20
5528.96631874136
 30
0.0
 40
76.07945550861737
  1
FBY1800
 41
0.6600000000000001
  7
\U+68071
 72
     4
 11
-2579.863040788385
 21
5567.006046495669
 31
0.0
100
AcDbText
  0
LINE
  5
74C6
330
7336
100
AcDbEntity
  8
0
  6
ACAD_ISO02W100
 62
   252
370
    15
100
AcDbLine
 10
-3242.567374285867
 20
8629.280068444568
 30
0.0
 11
-3242.567374285867
 21
8608.306678664492
 31
0.0
  0
LINE
  5
74C7
330
7336
100
AcDbEntity
  8
\U+56FE\U+5C425
  6
Continuous
 62
     0
100
AcDbLine
 10
-3320.958939542581
 20
8649.280068444568
 30
0.0
 11
-3320.958939542581
 21
8510.828598085288
 31
0.0
  0
LINE
  5
74C8
330
7336
100
AcDbEntity
  8
0
  6
ACAD_ISO02W100
 62
   252
370
    15
100
AcDbLine
 10
-3242.567374285867
 20
9159.280068444569
 30
0.0
 11
-3242.567374285867
 21
9200.253458224644
 31
0.0
  0
LINE
  5
74C9
330
7336
100
AcDbEntity
  8
\U+56FE\U+5C425
  6
Continuous
 62
     0
100
AcDbLine
 10
-3320.958939542581
 20
9159.280068444569
 30
0.0
 11
-3320.958939542581
 21
9297.731538803848
 31
0.0
  0
LINE
  5
74CA
330
7336
100
AcDbEntity
  8
\U+56FE\U+5C425
  6
Continuous
 62
     0
100
AcDbLine
 10
-3320.958939542581
 20
8904.280068444569
 30
0.0
 11
-3320.958939542581
 21
8629.720690796238
 31
0.0
  0
LINE
  5
74CB
330
7336
100
AcDbEntity
  8
0
  6
ACAD_ISO02W100
 62
   252
370
    15
100
AcDbLine
 10
-3242.567374285867
 20
8904.280068444569
 30
0.0
 11
-3242.567374285867
 21
8626.107630132896
 31
0.0
  0
LINE
  5
74CC
330
7336
100
AcDbEntity
  8
\U+56FE\U+5C423
370
    13
100
AcDbLine
 10
-3455.561018490744
 20
8904.280068444569
 30
0.0
 11
-1635.756422083095
 21
8904.280068444569
 31
0.0
  0
LINE
  5
74CD
330
7336
100
AcDbEntity
  8
\U+56FE\U+5C423
  6
Continuous
 62
     4
370
     5
100
AcDbLine
 10
-3320.958939542581
 20
9304.775545233594
 30
0.0
 11
-3318.83529266364
 21
9304.775545233594
 31
0.0
  0
LINE
  5
74CE
330
7336
100
AcDbEntity
  8
\U+56FE\U+5C423
  6
Continuous
 62
     4
370
     5
100
AcDbLine
 10
-3320.958939542581
 20
8504.784591655541
 30
0.0
 11
-3318.532058411908
 21
8504.784591655541
 31
0.0
  0
LINE
  5
74CF
330
7336
100
AcDbEntity
  8
\U+56FE\U+5C423
  6
Continuous
 62
     4
370
     5
100
AcDbLine
 10
-1820.966992251684
 20
8504.784591655541
 30
0.0
 11
-1820.966992251684
 21
8507.505726525279
 31
0.0
  0
LINE
  5
74D0
330
7336
100
AcDbEntity
  8
\U+56FE\U+5C423
  6
Continuous
 62
     4
370
     5
100
AcDbLine
 10
-3320.958939542581
 20
8504.784591655541
 30
0.0
 11
-3320.958939542581
 21
8508.226771384299
 31
0.0
  0
LINE
  5
74D1
330
7336
100
AcDbEntity
  8
0
  6
ACAD_ISO02W100
 62
   252
370
    15
100
AcDbLine
 10
-3211.411752196659
 20
9231.40908031385
 30
0.0
 11
-1935.589480608512
 21
9231.40908031385
 31
0.0
  0
LINE
  5
74D2
330
7336
100
AcDbEntity
  8
0
  6
ACAD_ISO02W100
 62
   252
370
    15
100
AcDbLine
 10
-3211.411752196659
 20
8578.151056575286
 30
0.0
 11
-1935.589480608512
 21
8578.151056575286
 31
0.0
  0
LINE
  5
74D3
330
7336
100
AcDbEntity
  8
0
  6
ACAD_ISO02W100
 62
   252
370
    15
100
AcDbLine
 10
-3242.567374285867
 20
8904.280068444569
 30
0.0
 11
-3242.567374285867
 21
9159.280068444569
 31
0.0
  0
LINE
  5
74D4
330
7336
100
AcDbEntity
  8
0
  6
ACAD_ISO02W100
 62
   252
370
    15
100
AcDbLine
 10
-1904.433858519303
 20
8609.306678664493
 30
0.0
 11
-1904.433858519303
 21
9200.253458224644
 31
0.0
  0
ARC
  5
74D5
330
7336
100
AcDbEntity
  8
\U+56FE\U+5C425
  6
Continuous
 62
     0
100
AcDbCircle
 10
-3313.906056037746
 20
9297.731538803848
 30
0.0
 40
7.035140471756417
100
AcDbArc
 50
89.92802041529989
 51
180.1441400217321
  0
ARC
  5
74D6
330
7336
100
AcDbEntity
  8
\U+56FE\U+5C425
  6
Continuous
 62
     0
100
AcDbCircle
 10
-1828.019875756519
 20
9297.731538803848
 30
0.0
 40
7.035140471756516
100
AcDbArc
 50
359.8558599782679
 51
90.07197958459588
  0
ARC
  5
74D7
330
7336
100
AcDbEntity
  8
\U+56FE\U+5C425
  6
Continuous
 62
     0
100
AcDbCircle
 10
-1828.019875756519
 20
8511.828598085289
 30
0.0
 40
7.035140471756417
100
AcDbArc
 50
269.9280204154041
 51
0.1441400217321277
  0
ARC
  5
74D8
330
7336
100
AcDbEntity
  8
\U+56FE\U+5C425
  6
Continuous
 62
     0
100
AcDbCircle
 10
-3313.906056037746
 20
8511.828598085289
 30
0.0
 40
7.035140471756516
100
AcDbArc
 50
179.8558599782679
 51
270.0719795845959
  0
ARC
  5
74D9
330
7336
100
AcDbEntity
  8
0
  6
ACAD_ISO02W100
 62
   252
370
    15
100
AcDbCircle
 10
-1935.589480608512
 20
9200.253458224644
 30
0.0
 40
31.15562208920716
100
AcDbArc
 50
0.0
 51
90.0
  0
ARC
  5
74DA
330
7336
100
AcDbEntity
  8
0
  6
ACAD_ISO02W100
 62
   252
370
    15
100
AcDbCircle
 10
-3211.411752196659
 20
9200.253458224644
 30
0.0
 40
31.15562208920716
100
AcDbArc
 50
90.0
 51
180.0
  0
ARC
  5
74DB
330
7336
100
AcDbEntity
  8
0
  6
ACAD_ISO02W100
 62
   252
370
    15
100
AcDbCircle
 10
-3211.411752196659
 20
8609.306678664493
 30
0.0
 40
31.15562208920716
100
AcDbArc
 50
180.0
 51
270.0
  0
ARC
  5
74DC
330
7336
100
AcDbEntity
  8
0
  6
ACAD_ISO02W100
 62
   252
370
    15
100
AcDbCircle
 10
-1935.589480608512
 20
8609.306678664493
 30
0.0
 40
31.15562208920716
100
AcDbArc
 50
270.0
 51
0.0
  0
LINE
  5
74DD
330
7336
100
AcDbEntity
  8
\U+56FE\U+5C425
  6
Continuous
 62
     0
100
AcDbLine
 10
-3313.897217928548
 20
9304.775545233594
 30
0.0
 11
-1828.019875756519
 21
9304.775545233594
 31
0.0
  0
LINE
  5
74DE
330
7336
100
AcDbEntity
  8
\U+56FE\U+5C423
  6
Continuous
 62
     4
370
     5
100
AcDbLine
 10
-3320.958939542581
 20
9303.11630947553
 30
0.0
 11
-3320.958939542581
 21
9304.775545233594
 31
0.0
  0
LINE
  5
74DF
330
7336
100
AcDbEntity
  8
\U+56FE\U+5C425
  6
Continuous
 62
     0
100
AcDbLine
 10
-3320.958939542581
 20
8904.280068444569
 30
0.0
 11
-3320.958939542581
 21
9159.280068444569
 31
0.0
  0
LINE
  5
74E0
330
7336
100
AcDbEntity
  8
\U+56FE\U+5C425
  6
Continuous
 62
     0
100
AcDbLine
 10
-3313.906056037746
 20
8504.784591655541
 30
0.0
 11
-1828.019875756519
 21
8504.784591655541
 31
0.0
  0
LINE
  5
74E1
330
7336
100
AcDbEntity
  8
\U+56FE\U+5C423
  6
Continuous
 62
     4
370
     5
100
AcDbLine
 10
-1824.38679867185
 20
8504.784591655541
 30
0.0
 11
-1820.966992251684
 21
8504.784591655541
 31
0.0
  0
LINE
  5
74E2
330
7336
100
AcDbEntity
  8
\U+56FE\U+5C425
  6
Continuous
 62
     0
100
AcDbLine
 10
-1820.966992251684
 20
8511.828598085289
 30
0.0
 11
-1820.966992251684
 21
9297.731538803848
 31
0.0
  0
LINE
  5
74E3
330
7336
100
AcDbEntity
  8
\U+56FE\U+5C423
  6
Continuous
 62
     4
370
     5
100
AcDbLine
 10
-1825.025955488843
 20
9304.775545233594
 30
0.0
 11
-1820.966992251684
 21
9304.775545233594
 31
0.0
  0
LINE
  5
74E4
330
7336
100
AcDbEntity
  8
\U+56FE\U+5C423
  6
Continuous
 62
     4
370
     5
100
AcDbLine
 10
-1820.966992251684
 20
9301.315912590856
 30
0.0
 11
-1820.966992251684
 21
9304.775545233594
 31
0.0
  0
CIRCLE
  5
74E5
330
7336
100
AcDbEntity
  8
0
100
AcDbCircle
 10
-2036.086467280497
 20
8904.280068444569
 30
0.0
 40
30.0
  0
LINE
  5
74E6
330
7336
100
AcDbEntity
  8
\U+56FE\U+5C423
370
    13
100
AcDbLine
 10
-2570.958546842534
 20
9427.011849043863
 30
0.0
 11
-2570.958546842534
 21
8365.463627252482
 31
0.0
  0
LINE
  5
74E7
330
7336
100
AcDbEntity
  8
0
  6
ACAD_ISO02W100
 62
   252
370
    15
100
AcDbLine
 10
-3211.411752196659
 20
9244.409080313849
 30
0.0
 11
-1935.589480608512
 21
9244.409080313849
 31
0.0
  0
ARC
  5
74E8
330
7336
100
AcDbEntity
  8
0
  6
ACAD_ISO02W100
 62
   252
370
    15
100
AcDbCircle
 10
-3211.411752196659
 20
9200.253458224644
 30
0.0
 40
44.15562208920716
100
AcDbArc
 50
90.0
 51
180.0
  0
LINE
  5
74E9
330
7336
100
AcDbEntity
  8
0
  6
ACAD_ISO02W100
 62
   252
370
    15
100
AcDbLine
 10
-3255.567374285867
 20
9159.280068444569
 30
0.0
 11
-3255.567374285867
 21
9200.253458224644
 31
0.0
  0
LINE
  5
74EA
330
7336
100
AcDbEntity
  8
0
  6
ACAD_ISO02W100
 62
   252
370
    15
100
AcDbLine
 10
-3255.567374285867
 20
8904.280068444569
 30
0.0
 11
-3255.567374285867
 21
9159.280068444569
 31
0.0
  0
LINE
  5
74EB
330
7336
100
AcDbEntity
  8
0
  6
ACAD_ISO02W100
 62
   252
370
    15
100
AcDbLine
 10
-3255.567374285867
 20
8904.280068444569
 30
0.0
 11
-3255.567374285867
 21
8609.306678664493
 31
0.0
  0
ARC
  5
74EC
330
7336
100
AcDbEntity
  8
0
  6
ACAD_ISO02W100
 62
   252
370
    15
100
AcDbCircle
 10
-3211.411752196659
 20
8609.306678664493
 30
0.0
 40
44.15562208920716
100
AcDbArc
 50
180.0
 51
270.0
  0
LINE
  5
74ED
330
7336
100
AcDbEntity
  8
0
  6
ACAD_ISO02W100
 62
   252
370
    15
100
AcDbLine
 10
-3211.411752196659
 20
8565.151056575286
 30
0.0
 11
-1935.589480608512
 21
8565.151056575286
 31
0.0
  0
ARC
  5
74EE
330
7336
100
AcDbEntity
  8
0
  6
ACAD_ISO02W100
 62
   252
370
    15
100
AcDbCircle
 10
-1935.589480608512
 20
8609.306678664493
 30
0.0
 40
44.15562208920716
100
AcDbArc
 50
270.0
 51
0.0
  0
LINE
  5
74EF
330
7336
100
AcDbEntity
  8
0
  6
ACAD_ISO02W100
 62
   252
370
    15
100
AcDbLine
 10
-1891.433858519303
 20
8609.306678664493
 30
0.0
 11
-1891.433858519303
 21
9200.253458224644
 31
0.0
  0
ARC
  5
74F0
330
7336
100
AcDbEntity
  8
0
  6
ACAD_ISO02W100
 62
   252
370
    15
100
AcDbCircle
 10
-1935.589480608512
 20
9200.253458224644
 30
0.0
 40
44.15562208920716
100
AcDbArc
 50
0.0
 51
90.0
  0
TEXT
  5
74F1
330
7336
100
AcDbEntity
  8
0
100
AcDbText
 10
-2701.827257133249
 20
8230.324302970171
 30
0.0
 40
76.07945550861737
  1
FBY1550
 41
0.6600000000000001
  7
\U+68071
 72
     4
 11
-2547.603332323638
 21
8268.364030724479
 31
0.0
100
AcDbText
  0
ENDBLK
  5
74F3
330
7336
100
AcDbEntity
  8
0
 62
   142
 48
4.0
100
AcDbBlockEnd
  0
BLOCK
  5
783F
330
7833
100
AcDbEntity
  8
0
 62
   142
 48
4.0
100
AcDbBlockBegin
  2
*D58
 70
     1
 10
0.0
 20
0.0
 30
0.0
  3
*D58
  1

  0
LINE
  5
7834
330
7833
100
AcDbEntity
  8
template
  6
Continuous
 62
     0
 48
4.0
370
    -2
100
AcDbLine
 10
73.97187345661229
 20
42.52639152244163
 30
0.0
 11
76.80447660329271
 21
42.52639152244163
 31
0.0
  0
LINE
  5
7835
330
7833
100
AcDbEntity
  8
template
  6
Continuous
 62
     0
 48
4.0
370
    -2
100
AcDbLine
 10
73.97187345661243
 20
10.51851750669364
 30
0.0
 11
76.8044766032927
 21
10.51851750669364
 31
0.0
  0
LINE
  5
7836
330
7833
100
AcDbEntity
  8
template
  6
Continuous
 62
     0
 48
4.0
370
    -2
100
AcDbLine
 10
76.6244766032927
 20
42.34639152244162
 30
0.0
 11
76.62447660329269
 21
26.99082422807377
 31
0.0
  0
LINE
  5
7837
330
7833
100
AcDbEntity
  8
template
  6
Continuous
 62
     0
 48
4.0
370
    -2
100
AcDbLine
 10
76.62447660329269
 20
10.69851750669364
 30
0.0
 11
76.62447660329269
 21
26.0540848010615
 31
0.0
  0
SOLID
  5
7838
330
7833
100
AcDbEntity
  8
template
  6
Continuous
 62
     0
 48
4.0
100
AcDbTrace
 10
76.5944766032927
 20
42.34639152244162
 30
0.0
 11
76.6544766032927
 21
42.34639152244162
 31
0.0
 12
76.6244766032927
 22
42.52639152244163
 32
0.0
 13
76.6244766032927
 23
42.52639152244163
 33
0.0
  0
SOLID
  5
7839
330
7833
100
AcDbEntity
  8
template
  6
Continuous
 62
     0
 48
4.0
100
AcDbTrace
 10
76.59447660329269
 20
10.69851750669364
 30
0.0
 11
76.65447660329269
 21
10.69851750669364
 31
0.0
 12
76.62447660329269
 22
10.51851750669364
 32
0.0
 13
76.62447660329269
 23
10.51851750669364
 33
0.0
  0
MTEXT
  5
783A
330
7833
100
AcDbEntity
  8
template
  6
Continuous
 62
     0
 48
4.0
100
AcDbMText
 10
76.62447660329269
 20
26.74009776149807
 30
0.0
 40
0.25
 41
0.0
 71
     5
 72
     1
  1
\A1;32"
  7
ARIAL
 73
     1
 44
1.0
1001
ACAD
1000
MTEXTBEGIN
1070
    73
1070
     1
1070
    44
1040
1.0
1070
    74
1070
     0
1000
MTEXTEND
  0
MTEXT
  5
783B
330
7833
100
AcDbEntity
  8
template
  6
Continuous
 62
     0
 48
4.0
100
AcDbMText
 10
76.62447660329269
 20
26.27172804799193
 30
0.0
 40
0.25
 41
0.0
 71
     5
 72
     1
  1
\A1;[813mm]
  7
ARIAL
 73
     1
 44
1.0
1001
ACAD
1000
MTEXTBEGIN
1070
    73
1070
     1
1070
    44
1040
1.0
1070
    74
1070
     0
1000
MTEXTEND
  0
POINT
  5
783C
330
7833
100
AcDbEntity
  8
Defpoints
  6
Continuous
 62
     0
 48
4.0
100
AcDbPoint
 10
73.34687345661229
 20
42.52639152244163
 30
0.0
  0
POINT
  5
783D
330
7833
100
AcDbEntity
  8
Defpoints
  6
Continuous
 62
     0
 48
4.0
100
AcDbPoint
 10
73.34687345661243
 20
10.51851750669364
 30
0.0
  0
POINT
  5
783E
330
7833
100
AcDbEntity
  8
Defpoints
  6
Continuous
 62
     0
 48
4.0
100
AcDbPoint
 10
76.62447660329269
 20
10.51851750669364
 30
0.0
  0
ENDBLK
  5
7840
330
7833
100
AcDbEntity
  8
0
 62
   142
 48
4.0
100
AcDbBlockEnd
  0
BLOCK
  5
784E
330
7842
100
AcDbEntity
  8
0
 62
   142
 48
4.0
100
AcDbBlockBegin
  2
*D59
 70
     1
 10
0.0
 20
0.0
 30
0.0
  3
*D59
  1

  0
LINE
  5
7843
330
7842
100
AcDbEntity
  8
template
  6
Continuous
 62
     0
 48
4.0
370
    -2
100
AcDbLine
 10
74.13427503141557
 20
20.56740110015323
 30
0.0
 11
74.13427503141557
 21
20.16582517644898
 31
0.0
  0
LINE
  5
7844
330
7842
100
AcDbEntity
  8
template
  6
Continuous
 62
     0
 48
4.0
370
    -2
100
AcDbLine
 10
8.150023062911628
 20
20.56740110015323
 30
0.0
 11
8.150023062911628
 21
20.16582517644898
 31
0.0
  0
LINE
  5
7845
330
7842
100
AcDbEntity
  8
template
  6
Continuous
 62
     0
 48
4.0
370
    -2
100
AcDbLine
 10
73.95427503141556
 20
20.34582517644897
 30
0.0
 11
42.02256514539007
 21
20.34582517644897
 31
0.0
  0
LINE
  5
7846
330
7842
100
AcDbEntity
  8
template
  6
Continuous
 62
     0
 48
4.0
370
    -2
100
AcDbLine
 10
8.330023062911628
 20
20.34582517644897
 30
0.0
 11
40.26173294893713
 21
20.34582517644897
 31
0.0
  0
SOLID
  5
7847
330
7842
100
AcDbEntity
  8
template
  6
Continuous
 62
     0
 48
4.0
100
AcDbTrace
 10
73.95427503141556
 20
20.37582517644898
 30
0.0
 11
73.95427503141556
 21
20.31582517644897
 31
0.0
 12
74.13427503141557
 22
20.34582517644897
 32
0.0
 13
74.13427503141557
 23
20.34582517644897
 33
0.0
  0
SOLID
  5
7848
330
7842
100
AcDbEntity
  8
template
  6
Continuous
 62
     0
 48
4.0
100
AcDbTrace
 10
8.330023062911628
 20
20.37582517644898
 30
0.0
 11
8.330023062911628
 21
20.31582517644897
 31
0.0
 12
8.150023062911628
 22
20.34582517644897
 32
0.0
 13
8.150023062911628
 23
20.34582517644897
 33
0.0
  0
MTEXT
  5
7849
330
7842
100
AcDbEntity
  8
template
  6
Continuous
 62
     0
 48
4.0
100
AcDbMText
 10
41.1421490471636
 20
20.5634684233794
 30
0.0
 40
0.25
 41
0.0
 71
     5
 72
     1
  1
\A1;66"
  7
ARIAL
 73
     1
 44
1.0
1001
ACAD
1000
MTEXTBEGIN
1070
    73
1070
     1
1070
    44
1040
1.0
1070
    74
1070
     0
1000
MTEXTEND
  0
MTEXT
  5
784A
330
7842
100
AcDbEntity
  8
template
  6
Continuous
 62
     0
 48
4.0
100
AcDbMText
 10
41.1421490471636
 20
20.09509870987326
 30
0.0
 40
0.25
 41
0.0
 71
     5
 72
     1
  1
\A1;[1676mm]
  7
ARIAL
 73
     1
 44
1.0
1001
ACAD
1000
MTEXTBEGIN
1070
    73
1070
     1
1070
    44
1040
1.0
1070
    74
1070
     0
1000
MTEXTEND
  0
POINT
  5
784B
330
7842
100
AcDbEntity
  8
Defpoints
  6
Continuous
 62
     0
 48
4.0
100
AcDbPoint
 10
74.13427503141557
 20
21.19240110015323
 30
0.0
  0
POINT
  5
784C
330
7842
100
AcDbEntity
  8
Defpoints
  6
Continuous
 62
     0
 48
4.0
100
AcDbPoint
 10
8.150023062911628
 20
21.19240110015323
 30
0.0
  0
POINT
  5
784D
330
7842
100
AcDbEntity
  8
Defpoints
  6
Continuous
 62
     0
 48
4.0
100
AcDbPoint
 10
8.150023062911628
 20
20.34582517644897
 30
0.0
  0
ENDBLK
  5
784F
330
7842
100
AcDbEntity
  8
0
 62
   142
 48
4.0
100
AcDbBlockEnd
  0
ENDSEC
  0
SECTION
  2
ENTITIES
  0
LWPOLYLINE
  5
4874
102
{ACAD_REACTORS
330
4875
102
}
330
A
100
AcDbEntity
  8
template
 62
   142
100
AcDbPolyline
 90
        7
 70
     1
 43
0.0
 10
40.13190819746159
 20
28.17269959849177
 10
40.13190819746159
 20
28.17269959849183
 42
0.4729861284586391
 10
41.80050048333223
 20
28.17221385729992
 42
0.3318792280744457
 10
41.79588936900208
 20
29.24768318245519
 10
41.79588936900126
 20
29.24768318245613
 42
0.4685817664296389
 10
40.13721369275112
 20
29.24817494714591
 10
40.1372136927502
 20
29.24817494714478
 42
0.3318827794208164
  0
HATCH
  5
4875
330
A
100
AcDbEntity
  8
template
 62
   142
100
AcDbHatch
 10
0.0
 20
0.0
 30
0.0
210
0.0
220
0.0
230
1.0
  2
SOLID
 70
     1
 71
     1
 91
        2
 92
        1
 93
        4
 72
     2
 10
40.96640364496005
 20
28.85709715398559
 40
1.079250974454728
 50
219.356321199262
 51
320.6103202389355
 73
     1
 72
     2
 10
41.07729034533355
 20
28.70685761494369
 40
0.8993758120449479
 50
323.5257893453438
 51
396.9655231726366
 73
     1
 72
     2
 10
40.96634677020306
 20
28.55729072693588
 40
1.079250974454109
 50
39.76914948153907
 51
140.1968763777462
 73
     1
 72
     2
 10
40.85545993974746
 20
28.70688096051003
 40
0.8993758120455503
 50
142.997119377147
 51
216.4375863596886
 73
     1
 97
        1
330
4874
 92
       16
 93
        4
 72
     2
 10
40.29189053161903
 20
28.70694027089616
 40
1.199138769989905
 50
340.8676753184354
 51
379.1935274096843
 73
     1
 72
     2
 10
40.96639986061027
 20
28.94174383586329
 40
0.4849290325755376
 50
19.19352740526916
 51
160.7944129020822
 73
     1
 72
     2
 10
41.64085975292159
 20
28.70679830455764
 40
1.199138769989624
 50
160.7944129022216
 51
199.1202649951317
 73
     1
 72
     2
 10
40.9663505256558
 20
28.47296133560262
 40
0.4852463231065179
 50
199.1202649950887
 51
340.8676753164795
 73
     1
 97
        4
330
487C
330
4878
330
487B
330
4879
 75
     0
 76
     1
 98
        1
 10
41.58164342234735
 20
28.9175909605392
  0
HATCH
  5
4876
330
A
100
AcDbEntity
  8
template
 62
   142
100
AcDbHatch
 10
0.0
 20
0.0
 30
0.0
210
0.0
220
0.0
230
1.0
  2
SOLID
 70
     1
 71
     0
 91
        1
 92
        7
 72
     1
 73
     1
 93
       20
 10
38.27391950652395
 20
27.83779007729841
 42
0.0
 10
39.41311440575086
 20
27.83779007729841
 42
0.0
 10
39.4131601022134
 20
28.04765892314454
 42
0.0
 10
39.18836660435031
 20
28.04765892314454
 42
-0.4142773378492344
 10
39.05643786946138
 20
28.17961638708477
 42
0.0
 10
39.05669634920318
 20
29.36672895777595
 42
0.0
 10
39.21506190977487
 20
29.36672895777595
 42
-0.4142752124674228
 10
39.5692481811243
 20
29.01246812874502
 42
0.0
 10
39.56922810459145
 20
28.91708452085959
 42
0.0
 10
39.77909695508638
 20
28.91708452085955
 42
0.0
 10
39.77923577076371
 20
29.57659780362212
 42
0.0
 10
37.90845932626002
 20
29.57659780362213
 42
0.0
 10
37.90844566282075
 20
28.91708452085961
 42
0.0
 10
38.11827276890949
 20
28.91708452085961
 42
0.0
 10
38.11829287682517
 20
29.01261722841685
 42
-0.4141519149661068
 10
38.47247914817462
 20
29.36672895777595
 42
0.0
 10
38.631003379839
 20
29.36672895777595
 42
0.0
 10
38.63074488758769
 20
28.17955893523701
 42
-0.4141497897727766
 10
38.49881615269868
 20
28.04765892314454
 42
0.0
 10
38.27396520298643
 20
28.04765892314454
 42
0.0
 97
        0
 75
     0
 76
     1
 47
0.2439883527651791
 98
        1
 10
39.6355475202194
 20
29.3591567971805
  0
LWPOLYLINE
  5
4877
330
A
100
AcDbEntity
  8
template
 62
   142
100
AcDbPolyline
 90
       24
 70
     0
 43
0.0
 10
38.63074489071499
 20
28.1795876611609
 42
-0.4142135623730951
 10
38.4988161526986
 20
28.04765892314454
 10
38.27396520298643
 20
28.04765892314454
 10
38.27391950652395
 20
27.83779007729841
 10
39.41311440575086
 20
27.83779007729841
 10
39.4131601022134
 20
28.04765892314454
 10
39.18836660435031
 20
28.04765892314454
 42
-0.4142773378493006
 10
39.05643786946129
 20
28.17961638708477
 10
39.05643786946138
 20
28.17961638708477
 10
39.05669634920318
 20
29.36672895777595
 10
39.21506190977487
 20
29.36672895777595
 42
-0.4142752124675667
 10
39.5692481811243
 20
29.0124681287449
 10
39.5692481811243
 20
29.01246812874473
 10
39.56922810459145
 20
28.91708452085963
 10
39.77909695508638
 20
28.91708452085963
 10
39.77923577076371
 20
29.57659780362212
 10
37.90845932626002
 20
29.57659780362211
 10
37.90844566282075
 20
28.91708452085961
 10
38.11827276890949
 20
28.91708452085961
 10
38.11829287682517
 20
29.01261722841685
 10
38.11829287682517
 20
29.01261722841692
 42
-0.4141519149660314
 10
38.47247914817467
 20
29.36672895777595
 10
38.631003379839
 20
29.36672895777595
 10
38.63074488758769
 20
28.17955893523707
  0
ARC
  5
4878
102
{ACAD_REACTORS
330
4875
102
}
330
A
100
AcDbEntity
  8
template
 62
   142
100
AcDbCircle
 10
40.96639986061027
 20
28.94174383586329
 30
0.0
 40
0.4849290325755376
100
AcDbArc
 50
19.19352740526916
 51
160.7944129020822
  0
ARC
  5
4879
102
{ACAD_REACTORS
330
4875
102
}
330
A
100
AcDbEntity
  8
template
 62
   142
100
AcDbCircle
 10
40.9663505256558
 20
28.47296133560262
 30
0.0
 40
0.4852463231065179
100
AcDbArc
 50
199.1202649950887
 51
340.8676753164795
  0
LINE
  5
487A
330
A
100
AcDbEntity
  8
template
 62
   142
100
AcDbLine
 10
40.50845989430103
 20
29.1012654766876
 30
0.0
 11
40.50845989430044
 21
29.10126547668615
 31
0.0
  0
ARC
  5
487B
102
{ACAD_REACTORS
330
4875
102
}
330
A
100
AcDbEntity
  8
template
 62
   142
100
AcDbCircle
 10
41.64085975292159
 20
28.70679830455764
 30
0.0
 40
1.199138769989624
100
AcDbArc
 50
160.7944129022216
 51
199.1202649951317
  0
ARC
  5
487C
102
{ACAD_REACTORS
330
4875
102
}
330
A
100
AcDbEntity
  8
template
 62
   142
100
AcDbCircle
 10
40.29189053161903
 20
28.70694027089616
 30
0.0
 40
1.199138769989905
100
AcDbArc
 50
340.8676753184354
 51
19.1935274096843
  0
LWPOLYLINE
  5
487D
102
{ACAD_REACTORS
330
487F
102
}
330
A
100
AcDbEntity
  8
template
 62
   142
100
AcDbPolyline
 90
        5
 70
     1
 43
0.0
 10
44.75312313983676
 20
28.31401788426474
 42
0.7116314934561954
 10
45.67004326901332
 20
28.31392138700783
 42
0.1688045712628093
 10
45.66962280426159
 20
29.10116908533496
 42
0.7106688244406217
 10
44.75370930545773
 20
29.1012654766876
 10
44.75370930545722
 20
29.10126547668615
 42
0.1688045712702787
  0
LWPOLYLINE
  5
487E
102
{ACAD_REACTORS
330
487F
102
}
330
A
100
AcDbEntity
  8
template
 62
   142
100
AcDbPolyline
 90
        7
 70
     1
 43
0.0
 10
44.37715760861837
 20
28.17269959849177
 10
44.37715760861829
 20
28.17269959849186
 42
0.4729861284586391
 10
46.04574989448892
 20
28.17221385729995
 42
0.3318792280744457
 10
46.04113878015877
 20
29.24768318245521
 10
46.04113878015801
 20
29.24768318245613
 42
0.4685817664296389
 10
44.3824631039078
 20
29.24817494714591
 10
44.38246310390695
 20
29.24817494714478
 42
0.3318827794208164
  0
HATCH
  5
487F
330
A
100
AcDbEntity
  8
template
 62
   142
100
AcDbHatch
 10
0.0
 20
0.0
 30
0.0
210
0.0
220
0.0
230
1.0
  2
SOLID
 70
     1
 71
     1
 91
        2
 92
       16
 93
        4
 72
     2
 10
45.21159993681255
 20
28.4729613356026
 40
0.4852463231064965
 50
199.1202649951162
 51
340.8676753164555
 73
     1
 72
     2
 10
44.53713994277572
 20
28.70694027089616
 40
1.199138769989963
 50
340.8676753184332
 51
379.1935274096748
 73
     1
 72
     2
 10
45.21164927176704
 20
28.94174383586331
 40
0.4849290325755315
 50
19.19352740524878
 51
160.7944129020515
 73
     1
 72
     2
 10
45.88610916407835
 20
28.70679830455764
 40
1.199138769989626
 50
160.7944129022272
 51
199.1202649951332
 73
     1
 97
        1
330
487D
 92
        1
 93
        4
 72
     2
 10
45.21165305611674
 20
28.85709715398562
 40
1.079250974454728
 50
219.356321199262
 51
320.6103202389355
 73
     1
 72
     2
 10
45.32253975649025
 20
28.70685761494371
 40
0.8993758120449378
 50
323.5257893453439
 51
396.9655231726365
 73
     1
 72
     2
 10
45.21159618135977
 20
28.55729072693586
 40
1.079250974454144
 50
39.76914948153897
 51
140.1968763777463
 73
     1
 72
     2
 10
45.10070935090423
 20
28.70688096051005
 40
0.8993758120455488
 50
142.9971193771487
 51
216.4375863596903
 73
     1
 97
        1
330
487E
 75
     0
 76
     1
 98
        1
 10
-23.72530396748856
 20
-82.78699334902631
  0
HATCH
  5
4880
330
A
100
AcDbEntity
  8
template
 62
   142
100
AcDbHatch
 10
0.0
 20
0.0
 30
0.0
210
0.0
220
0.0
230
1.0
  2
SOLID
 70
     1
 71
     0
 91
        1
 92
        7
 72
     1
 73
     1
 93
       20
 10
42.51925232578628
 20
27.83779007729841
 42
0.0
 10
43.6584472250131
 20
27.83779007729838
 42
0.0
 10
43.65849292147558
 20
28.04765892314457
 42
0.0
 10
43.43369942361255
 20
28.04765892314457
 42
-0.4142773378492051
 10
43.30177068872353
 20
28.17961638708478
 42
0.0
 10
43.30202916846542
 20
29.36672895777599
 42
0.0
 10
43.46039472903711
 20
29.36672895777599
 42
-0.4142752124674276
 10
43.81458100038656
 20
29.012468128745
 42
0.0
 10
43.81456092385369
 20
28.91708452085963
 42
0.0
 10
44.02442977434861
 20
28.91708452085955
 42
0.0
 10
44.02456859002595
 20
29.57659780362212
 42
0.0
 10
42.15379214552226
 20
29.57659780362212
 42
0.0
 10
42.153778482083
 20
28.91708452085963
 42
0.0
 10
42.36360558817167
 20
28.91708452085955
 42
0.0
 10
42.36362569608741
 20
29.0126172284169
 42
-0.414151914966033
 10
42.71781196743686
 20
29.36672895777599
 42
0.0
 10
42.87633619910116
 20
29.36672895777603
 42
0.0
 10
42.87607770684985
 20
28.17955893523702
 42
-0.4141497897728013
 10
42.74414897196092
 20
28.04765892314457
 42
0.0
 10
42.51929802224867
 20
28.04765892314457
 42
0.0
 97
        0
 75
     0
 76
     1
 47
0.1093653812395761
 98
        1
 10
43.14826047138825
 20
29.07703526170223
  0
LWPOLYLINE
  5
4881
330
A
100
AcDbEntity
  8
template
 62
   142
100
AcDbPolyline
 90
       24
 70
     0
 43
0.0
 10
42.87607770997715
 20
28.17958766116085
 42
-0.4142135623730951
 10
42.74414897196083
 20
28.04765892314457
 10
42.51929802224867
 20
28.04765892314457
 10
42.51925232578628
 20
27.83779007729841
 10
43.6584472250131
 20
27.83779007729841
 10
43.65849292147558
 20
28.04765892314457
 10
43.43369942361255
 20
28.04765892314457
 42
-0.4142773378493006
 10
43.30177068872353
 20
28.17961638708478
 10
43.30177068872353
 20
28.17961638708478
 10
43.30202916846542
 20
29.36672895777599
 10
43.46039472903711
 20
29.36672895777599
 42
-0.4142752124675667
 10
43.81458100038656
 20
29.01246812874492
 10
43.81458100038656
 20
29.01246812874474
 10
43.81456092385369
 20
28.91708452085963
 10
44.02442977434861
 20
28.91708452085963
 10
44.02456859002595
 20
29.57659780362212
 10
42.15379214552226
 20
29.57659780362212
 10
42.153778482083
 20
28.91708452085963
 10
42.36360558817167
 20
28.91708452085963
 10
42.36362569608741
 20
29.01261722841686
 10
42.36362569608741
 20
29.0126172284169
 42
-0.4141519149660314
 10
42.71781196743686
 20
29.36672895777599
 10
42.87633619910116
 20
29.36672895777599
 10
42.87607770684985
 20
28.17955893523708
  0
HATCH
  5
4882
330
A
100
AcDbEntity
  8
template
  6
Continuous
 62
   142
 48
12.0
100
AcDbHatch
 10
0.0
 20
0.0
 30
0.0
210
0.0
220
0.0
230
1.0
  2
SOLID
 70
     1
 71
     0
 91
        4
 92
        7
 72
     1
 73
     1
 93
        2
 10
46.46496679341666
 20
29.63654170138971
 42
1.0
 10
46.46496679341666
 20
29.14088956258139
 42
1.0
 97
        0
 92
       22
 72
     1
 73
     1
 93
        2
 10
46.46496679341666
 20
29.17186782125695
 42
-1.0
 10
46.46496679341666
 20
29.6055634427142
 42
-1.0
 97
        0
 92
        6
 72
     0
 73
     1
 93
      207
 10
46.58124211005869
 20
29.35197785606003
 10
46.58121017330216
 20
29.35335113659255
 10
46.58081402514025
 20
29.35724659351674
 10
46.5804517994402
 20
29.36001268068144
 10
46.58004017932634
 20
29.36261411980085
 10
46.57959562960349
 20
29.36506737567929
 10
46.57910168546687
 20
29.36735598351179
 10
46.57854188211217
 20
29.3694964081036
 10
46.57794914914825
 20
29.37148864945444
 10
46.57730702177076
 20
29.37331624275964
 10
46.5766154999796
 20
29.37497918801954
 10
46.57587458377469
 20
29.37651041484283
 10
46.57508427315605
 20
29.37786052881622
 10
46.57437628656038
 20
29.37896367072112
 10
46.57343779270099
 20
29.38024792547615
 10
46.57236758040494
 20
29.3815651098406
 10
46.5711985792816
 20
29.38291522381395
 10
46.56989785972223
 20
29.38429826739589
 10
46.56848188653052
 20
29.38571424058757
 10
46.56693419490278
 20
29.38716314338849
 10
46.56527124964327
 20
29.38866144060229
 10
46.56349305075136
 20
29.39017620262145
 10
46.56158313342297
 20
29.39174035905391
 10
46.55955796246303
 20
29.39333744509531
 10
46.55741753787114
 20
29.39495099594126
 10
46.55514539484292
 20
29.39661394120157
 10
46.55275799818295
 20
29.39830981606933
 10
46.55025534789132
 20
29.40005508535262
 10
46.55112798253253
 20
29.40068074792544
 10
46.55316961829703
 20
29.40221197474892
 10
46.55516185964756
 20
29.40374320157201
 10
46.55710470658499
 20
29.40530735800455
 10
46.55896522949933
 20
29.40688797924179
 10
46.56077635800033
 20
29.40848506528373
 10
46.56252162728288
 20
29.41009861612958
 10
46.5642175021513
 20
29.41172863177987
 10
46.56583105299759
 20
29.4133751122351
 10
46.56739520943022
 20
29.41505452229973
 10
46.56889350664431
 20
29.4167339323638
 10
46.57034240944518
 20
29.41842980723304
 10
46.57172545302737
 20
29.42015861171076
 10
46.57304263739169
 20
29.42188741618885
 10
46.57429396253755
 20
29.42364915027606
 10
46.5754958932699
 20
29.42541088436298
 10
46.5766154999796
 20
29.42720554805937
 10
46.57770217708002
 20
29.42901667656008
 10
46.5787065301576
 20
29.43082780506063
 10
46.57966148882173
 20
29.43267186317057
 10
46.58055058826761
 20
29.43453238608511
 10
46.58137382849503
 20
29.43640937380378
 10
46.58214767430908
 20
29.43830282632744
 10
46.58283919610034
 20
29.44021274365552
 10
46.58348132347782
 20
29.44213912578813
 10
46.58407405644169
 20
29.44408197272516
 10
46.58458446538278
 20
29.44605774927152
 10
46.58504547991031
 20
29.44803352581788
 10
46.58545710002402
 20
29.45002576716858
 10
46.58578639611514
 20
29.45205093812861
 10
46.58606629779251
 20
29.45407610908843
 10
46.58628034025167
 20
29.45613420965765
 10
46.58642852349266
 20
29.45819231022658
 10
46.58652731231995
 20
29.4602833404047
 10
46.58655968190169
 20
29.46235499363515
 10
46.58651084751539
 20
29.46640824769817
 10
46.58641205868806
 20
29.46909201084031
 10
46.58628034025167
 20
29.47172637956845
 10
46.5860992274016
 20
29.47431135388325
 10
46.58586872013779
 20
29.47683046897994
 10
46.58560528326501
 20
29.47931665446714
 10
46.58527598717404
 20
29.48173698073583
 10
46.58491376147384
 20
29.48410791259171
 10
46.58450214135996
 20
29.48642945003364
 10
46.58405759163719
 20
29.48870159306182
 10
46.5835636475005
 20
29.49092434167646
 10
46.58300384414582
 20
29.49308123107285
 10
46.58241111118195
 20
29.49518872605518
 10
46.58178544860897
 20
29.49726329142891
 10
46.58109392681772
 20
29.49927199758429
 10
46.58036947541745
 20
29.501231309326
 10
46.5795956296034
 20
29.5031412266543
 10
46.57877238937584
 20
29.50498528476435
 10
46.57791621953902
 20
29.50679641326498
 10
46.57701065528863
 20
29.50854168254749
 10
46.57605569662467
 20
29.51025402222088
 10
46.57505134354727
 20
29.51190050267553
 10
46.57399759605567
 20
29.51349758871759
 10
46.57291091895507
 20
29.51504528034552
 10
46.57177484744119
 20
29.51652711275519
 10
46.57058938151334
 20
29.51797601555602
 10
46.56935452117198
 20
29.5193590591379
 10
46.56877825301225
 20
29.51996825690655
 10
46.56752692786693
 20
29.52123604685681
 10
46.56620974350215
 20
29.5224709071985
 10
46.56485962952934
 20
29.52365637312608
 10
46.56344365633763
 20
29.52479244463994
 10
46.56199475353704
 20
29.52591205134991
 10
46.56047999151837
 20
29.52698226364601
 10
46.5589322998901
 20
29.5280030815283
 10
46.55731874904449
 20
29.52900743460542
 10
46.55565580378464
 20
29.52996239326952
 10
46.55395992891567
 20
29.53086795752017
 10
46.55219819482818
 20
29.53174059216174
 10
46.55038706632808
 20
29.53258029719376
 10
46.54854300821784
 20
29.53338707261662
 10
46.54663309089037
 20
29.53414445362599
 10
46.54467377914906
 20
29.5348524402218
 10
46.54266507299243
 20
29.5355439620131
 10
46.54060697242352
 20
29.53618608939049
 10
46.53851594224542
 20
29.53677882235472
 10
46.53635905284963
 20
29.53735509051357
 10
46.53415276903928
 20
29.53788196425943
 10
46.53189709081615
 20
29.53835944359138
 10
46.52959201817765
 20
29.53880399331439
 10
46.52723755112788
 20
29.53921561342797
 10
46.52483368966289
 20
29.53959430393286
 10
46.52238043378424
 20
29.539923600024
 10
46.51987778349251
 20
29.54020350170124
 10
46.51732573878667
 20
29.54046693857412
 10
46.51472429966651
 20
29.54068098103339
 10
46.512073466136
 20
29.54084562907876
 10
46.50935677338316
 20
29.54099381231977
 10
46.50660715102185
 20
29.54109260114711
 10
46.50380813424857
 20
29.54114199556075
 10
46.5009597230594
 20
29.54115846036531
 10
46.37332455817295
 20
29.54115846036537
 10
46.37332455817295
 20
29.26237638968672
 10
46.409250761706
 20
29.26237638968672
 10
46.409250761706
 20
29.38207551878152
 10
46.50406608285365
 20
29.38207551878152
 10
46.50792963761273
 20
29.3819012230781
 10
46.5120678728274
 20
29.38140857602878
 10
46.51627832760527
 20
29.38055221234511
 10
46.52003612986172
 20
29.37939070982956
 10
46.52333781006527
 20
29.37801233848239
 10
46.52632375447419
 20
29.37641162601581
 10
46.52924668879231
 20
29.37444110849815
 10
46.53187836058373
 20
29.37222665296622
 10
46.53443404615512
 20
29.36956873997197
 10
46.53667188413564
 20
29.36670562373223
 10
46.53878190779408
 20
29.36329441881765
 10
46.54044210702084
 20
29.36000534487801
 10
46.5419779487965
 20
29.35619912830361
 10
46.54319719315066
 20
29.35232255651063
 10
46.54433299598418
 20
29.34763736982281
 10
46.54516036548852
 20
29.34274210025488
 10
46.54566989982362
 20
29.33824620906348
 10
46.54594156909865
 20
29.33429465597088
 10
46.54604196138675
 20
29.3315506000966
 10
46.54587570988041
 20
29.32831793191804
 10
46.54576045624861
 20
29.32551891514425
 10
46.54566166742128
 20
29.32278575758914
 10
46.54557934339854
 20
29.32011845925133
 10
46.54552994898489
 20
29.317517020132
 10
46.54549701937571
 20
29.31498144023105
 10
46.54549701937571
 20
29.31252818435253
 10
46.5455134841803
 20
29.31014078769294
 10
46.54554641378939
 20
29.30781925025092
 10
46.54561227300763
 20
29.30556357202664
 10
46.54569459703037
 20
29.303373753022
 10
46.54579338585768
 20
29.30124979323459
 10
46.54592510429416
 20
29.29920815747005
 10
46.5460897523395
 20
29.29723238092481
 10
46.54625440038512
 20
29.2953224635957
 10
46.54645197803978
 20
29.29347840548597
 10
46.54668248530356
 20
29.29171667139865
 10
46.54692945737187
 20
29.29000433172534
 10
46.54719289424474
 20
29.28837431607451
 10
46.5475551199448
 20
29.28631621550596
 10
46.54798320486309
 20
29.28402760767279
 10
46.54844421939055
 20
29.28175546464492
 10
46.54893816352728
 20
29.27951625122539
 10
46.5494650372729
 20
29.27730996741541
 10
46.55002484062765
 20
29.27510368360557
 10
46.55061757359144
 20
29.27293032940509
 10
46.5512432361645
 20
29.27077344000844
 10
46.55190182834661
 20
29.26864948022135
 10
46.55259335013778
 20
29.26652552043366
 10
46.5533178015381
 20
29.26443449025582
 10
46.5540751825475
 20
29.26237638968672
 10
46.59724590008349
 20
29.26237638968672
 10
46.59724590008349
 20
29.2714833448337
 10
46.59378058924957
 20
29.27461221772261
 10
46.59090473609862
 20
29.27791291281635
 10
46.58849915697269
 20
29.28155469232637
 10
46.58657654104999
 20
29.28550111448328
 10
46.58519796864561
 20
29.28973770284817
 10
46.58431600732842
 20
29.29428319579101
 10
46.5841234508552
 20
29.29736409936062
 10
46.58392587320071
 20
29.30044301781329
 10
46.58372829554605
 20
29.30343961224044
 10
46.58354718269606
 20
29.30638681225237
 10
46.58336606984593
 20
29.30925168824838
 10
46.58309778234647
 20
29.31339794960114
 10
46.58287212570934
 20
29.31743469610909
 10
46.58270747766386
 20
29.32001967042443
 10
46.58257575922744
 20
29.32253878552082
 10
46.58235587441845
 20
29.32617910069132
 10
46.58218060391809
 20
29.32968451069735
 10
46.58206535028642
 20
29.33192372411522
 10
46.58195009665445
 20
29.33409707831618
 10
46.58185130782712
 20
29.33620457329785
 10
46.58175251899979
 20
29.3382297442592
 10
46.58167019497699
 20
29.34018905600215
 10
46.58158787095425
 20
29.34208250852375
 10
46.5815055469315
 20
29.3439101018293
 10
46.58143968771327
 20
29.34567183591786
 10
46.58130883584553
 20
29.34900855854396
 97
        0
 92
        6
 72
     0
 73
     1
 93
       40
 10
46.52098816646352
 20
29.41618231830993
 10
46.5171034639255
 20
29.41518624073609
 10
46.51297477864176
 20
29.41445959212614
 10
46.50864313682058
 20
29.41400017556937
 10
46.50446123816354
 20
29.41381966195825
 10
46.409250761706
 20
29.41381966195827
 10
46.409250761706
 20
29.50941431718862
 10
46.50401943257347
 20
29.50941431718862
 10
46.50815025966458
 20
29.50925017836384
 10
46.51299100478886
 20
29.50871231779441
 10
46.51737428065439
 20
29.50791244993574
 10
46.52154613944785
 20
29.50678925718353
 10
46.52567900428988
 20
29.505310833988
 10
46.52956589716194
 20
29.50350141834081
 10
46.5331419291287
 20
29.50140172984652
 10
46.53673626754033
 20
29.49882931117933
 10
46.53969730846552
 20
29.49611247981484
 10
46.54251494008571
 20
29.49293021351441
 10
46.54491060538288
 20
29.48948439356639
 10
46.54694365816022
 20
29.48565547750219
 10
46.54846131283443
 20
29.48174832397928
 10
46.54957522070549
 20
29.47767460376502
 10
46.55032238017452
 20
29.47322413214515
 10
46.55058464398243
 20
29.46942130693111
 10
46.55063870431786
 20
29.4667363102696
 10
46.55055994677553
 20
29.46258841304238
 10
46.55026358029371
 20
29.4576489716771
 10
46.54972037287911
 20
29.45311159209616
 10
46.54886584343643
 20
29.4483404693741
 10
46.54778600338153
 20
29.44408859915807
 10
46.54660839368292
 20
29.44052557494166
 10
46.54512656127326
 20
29.43690331794038
 10
46.54341733226155
 20
29.43361385833288
 10
46.54135995510213
 20
29.43039063411648
 10
46.53920060484046
 20
29.42761893079556
 10
46.53671015682093
 20
29.42502751866704
 10
46.53405398021194
 20
29.42276005083022
 10
46.53122137523746
 20
29.42076435187077
 10
46.52794674456763
 20
29.41892237211899
 10
46.52462306659612
 20
29.41743801108311
 97
        0
 75
     0
 76
     1
 47
0.0814214242307967
 98
        4
 10
46.60764534603527
 20
29.20050738233094
 10
46.60764534603527
 20
29.20050738233094
 10
46.60764534603527
 20
29.20050738233094
 10
46.60764534603527
 20
29.20050738233094
  0
CIRCLE
  5
4883
330
A
100
AcDbEntity
  8
template
 62
   142
100
AcDbCircle
 10
46.46496679341658
 20
29.38871563198556
 30
0.0
 40
0.2478260694041408
  0
LWPOLYLINE
  5
4884
330
A
100
AcDbEntity
  8
template
 62
   142
370
     0
100
AcDbPolyline
 90
      239
 70
     1
 43
0.0
 10
46.51880757119656
 20
29.37977044614422
 10
46.52058577008824
 20
29.37916124837578
 10
46.52228164495705
 20
29.37845326178003
 10
46.52392812541234
 20
29.37769588077065
 10
46.52552521145383
 20
29.37683971093388
 10
46.52705643827729
 20
29.37591768187896
 10
46.52852180588246
 20
29.37492979360587
 10
46.52993777907394
 20
29.37385958130994
 10
46.53128789304713
 20
29.37272350979583
 10
46.53257214780228
 20
29.37150511425898
 10
46.53380700814364
 20
29.37022085950389
 10
46.53499247407142
 20
29.36885428072611
 10
46.53611208078103
 20
29.36742184273003
 10
46.53716582827231
 20
29.36590708071121
 10
46.53815371654545
 20
29.36430999466966
 10
46.53910867520949
 20
29.36264704940987
 10
46.53998130985073
 20
29.36091824493188
 10
46.54080455007838
 20
29.35910711643114
 10
46.54156193108778
 20
29.35723012871218
 10
46.54226991768354
 20
29.35527081697046
 10
46.54291204506103
 20
29.35322918120597
 10
46.54348831322039
 20
29.3511216862233
 10
46.54401518696608
 20
29.3489483320224
 10
46.54449266629808
 20
29.34669265379874
 10
46.54488782160728
 20
29.34435465155234
 10
46.54525004730749
 20
29.34195079008772
 10
46.54552994898489
 20
29.33948106940484
 10
46.54576045624861
 20
29.33692902469926
 10
46.54594156909865
 20
29.33429465597088
 10
46.54604035792599
 20
29.33159442802434
 10
46.5460238931214
 20
29.3311992727151
 10
46.54587570988041
 20
29.32831793191843
 10
46.54576045624861
 20
29.32551891514459
 10
46.54566166742128
 20
29.32278575758891
 10
46.54557934339854
 20
29.32011845925138
 10
46.54552994898489
 20
29.3175170201322
 10
46.54549701937571
 20
29.31498144023112
 10
46.54549701937571
 20
29.31252818435284
 10
46.5455134841803
 20
29.31014078769278
 10
46.54554641378939
 20
29.30781925025087
 10
46.54561227300763
 20
29.30556357202721
 10
46.54569459703037
 20
29.3033737530218
 10
46.54579338585768
 20
29.30124979323455
 10
46.54592510429416
 20
29.29920815747005
 10
46.54608975233964
 20
29.29723238092379
 10
46.54625440038512
 20
29.29532246359573
 10
46.54645197803978
 20
29.29347840548589
 10
46.54668248530356
 20
29.29171667139883
 10
46.54692945737179
 20
29.29000433172537
 10
46.54719289424469
 20
29.28837431607468
 10
46.5475551199448
 20
29.28631621550567
 10
46.54798320486309
 20
29.2840276076729
 10
46.5484442193906
 20
29.28175546464468
 10
46.54893816352713
 20
29.27951625122557
 10
46.5494650372729
 20
29.27730996741558
 10
46.55002484062765
 20
29.27510368360557
 10
46.55061757359152
 20
29.27293032940469
 10
46.5512432361645
 20
29.27077344000831
 10
46.55190182834661
 20
29.2686494802211
 10
46.55259335013778
 20
29.26652552043389
 10
46.5533178015381
 20
29.26443449025574
 10
46.5540751825475
 20
29.26237638968672
 10
46.59724590008349
 20
29.26237638968672
 10
46.59724590008349
 20
29.27154728582229
 10
46.59620861739671
 20
29.27241992046358
 10
46.59451274252774
 20
29.27395114728694
 10
46.59296505089986
 20
29.2755482333285
 10
46.59151614809928
 20
29.27721117858822
 10
46.59021542853969
 20
29.27895644787077
 10
46.5890299626119
 20
29.28075111156697
 10
46.58797621512053
 20
29.282628099286
 10
46.58703772126108
 20
29.28455448141854
 10
46.58623094583799
 20
29.28656318757396
 10
46.58555588885133
 20
29.28863775294754
 10
46.58499608549658
 20
29.29077817753928
 10
46.58456800057829
 20
29.29298446134932
 10
46.58425516929173
 20
29.29525660437753
 10
46.58412345085534
 20
29.29736409936021
 10
46.58392587320071
 20
29.3004430178115
 10
46.58372829554605
 20
29.30343961223996
 10
46.58354718269606
 20
29.30638681225486
 10
46.58336606984593
 20
29.30925168824695
 10
46.58318495699581
 20
29.31205070502081
 10
46.58302030895032
 20
29.31478386257652
 10
46.58287212570934
 20
29.31743469610938
 10
46.58270747766386
 20
29.32001967042409
 10
46.58257575922738
 20
29.32253878552058
 10
46.58242757598645
 20
29.3249920413989
 10
46.58229585755006
 20
29.32737943805897
 10
46.58218060391817
 20
29.32968451069627
 10
46.58206535028625
 20
29.33192372411538
 10
46.58195009665445
 20
29.33409707831625
 10
46.58185130782712
 20
29.33620457329896
 10
46.58175251899979
 20
29.33822974425891
 10
46.58167019497699
 20
29.3401890560006
 10
46.5815878709543
 20
29.34208250852413
 10
46.5815055469315
 20
29.34391010182942
 10
46.58143968771333
 20
29.34567183591652
 10
46.58137382849503
 20
29.34735124598086
 10
46.58132443408152
 20
29.34896479682694
 10
46.58127503966778
 20
29.35051248845484
 10
46.58124211005869
 20
29.35197785606003
 10
46.58120918044954
 20
29.35339382925152
 10
46.58111039162221
 20
29.354332323111
 10
46.58081402514034
 20
29.35724659351674
 10
46.58045179944013
 20
29.36001268068151
 10
46.58004017932634
 20
29.36261411980074
 10
46.5795956296034
 20
29.36506737567908
 10
46.57910168546695
 20
29.36735598351179
 10
46.57854188211217
 20
29.3694964081036
 10
46.57794914914825
 20
29.37148864945444
 10
46.57730702177068
 20
29.37331624275972
 10
46.57661549997951
 20
29.3749791880195
 10
46.57587458377469
 20
29.37651041484291
 10
46.57508427315611
 20
29.37786052881615
 10
46.57437628656038
 20
29.37896367072115
 10
46.57343779270099
 20
29.38024792547622
 10
46.57236758040503
 20
29.38156510984038
 10
46.57119857928177
 20
29.38291522381371
 10
46.56989785972223
 20
29.38429826739609
 10
46.56848188653066
 20
29.38571424058755
 10
46.56693419490278
 20
29.38716314338815
 10
46.56527124964305
 20
29.38866144060244
 10
46.56349305075136
 20
29.39017620262125
 10
46.56158313342325
 20
29.39174035905369
 10
46.55955796246334
 20
29.39333744509527
 10
46.5574175378716
 20
29.39495099594133
 10
46.55514539484338
 20
29.39661394120115
 10
46.55275799818332
 20
29.39830981607004
 10
46.55025534789132
 20
29.40005508535262
 10
46.5511279825327
 20
29.40068074792555
 10
46.55316961829711
 20
29.40221197474892
 10
46.55516185964788
 20
29.4037432015723
 10
46.55710470658513
 20
29.40530735800474
 10
46.55896522949951
 20
29.40688797924179
 10
46.56077635800019
 20
29.4084850652833
 10
46.56252162728281
 20
29.41009861612946
 10
46.56421750215168
 20
29.41172863178012
 10
46.56583105299773
 20
29.41337511223533
 10
46.56739520943022
 20
29.41505452229963
 10
46.56889350664454
 20
29.41673393236401
 10
46.57034240944511
 20
29.4184298072329
 10
46.57172545302751
 20
29.42015861171086
 10
46.57304263739169
 20
29.42188741618885
 10
46.57429396253763
 20
29.42364915027592
 10
46.5754958932699
 20
29.42541088436298
 10
46.57661549997951
 20
29.42720554805923
 10
46.57770217707997
 20
29.42901667655997
 10
46.57870653015765
 20
29.43082780506074
 10
46.57966148882173
 20
29.43267186317057
 10
46.58055058826744
 20
29.434532386085
 10
46.58137382849503
 20
29.43640937380394
 10
46.58214767430908
 20
29.43830282632746
 10
46.58283919610034
 20
29.44021274365552
 10
46.58348132347777
 20
29.4421391257881
 10
46.58407405644169
 20
29.44408197272525
 10
46.58458446538278
 20
29.44605774927152
 10
46.58504547991023
 20
29.44803352581779
 10
46.58545710002402
 20
29.45002576716861
 10
46.58578639611514
 20
29.45205093812861
 10
46.58606629779251
 20
29.45407610908848
 10
46.58628034025167
 20
29.45613420965752
 10
46.58642852349266
 20
29.4581923102265
 10
46.58652731231995
 20
29.46028334040466
 10
46.58656024192905
 20
29.4623908353874
 10
46.58654377712454
 20
29.46367509014248
 10
46.58651084751539
 20
29.4664082476981
 10
46.58641205868806
 20
29.46909201084013
 10
46.58628034025167
 20
29.47172637956851
 10
46.5860992274016
 20
29.47431135388318
 10
46.58586872013787
 20
29.47683046897971
 10
46.58560528326501
 20
29.47931665446708
 10
46.58527598717404
 20
29.48173698073624
 10
46.58491376147384
 20
29.4841079125918
 10
46.58450214136005
 20
29.48642945003367
 10
46.5840575916371
 20
29.48870159306186
 10
46.58356364750057
 20
29.49092434167642
 10
46.58300384414582
 20
29.49308123107272
 10
46.58241111118189
 20
29.49518872605546
 10
46.58178544860897
 20
29.49726329142907
 10
46.58109392681772
 20
29.4992719975844
 10
46.58036947541745
 20
29.50123130932609
 10
46.5795956296034
 20
29.50314122665418
 10
46.57877238937584
 20
29.50498528476402
 10
46.57791621953911
 20
29.50679641326478
 10
46.57701065528871
 20
29.50854168254728
 10
46.57605569662467
 20
29.51025402222074
 10
46.57505134354704
 20
29.51190050267598
 10
46.57399759605573
 20
29.51349758871754
 10
46.57291091895522
 20
29.51504528034543
 10
46.57177484744119
 20
29.51652711275516
 10
46.57058938151339
 20
29.51797601555573
 10
46.56935452117198
 20
29.51935905913816
 10
46.56877825301262
 20
29.51996825690658
 10
46.5675269278667
 20
29.5212360468571
 10
46.56620974350244
 20
29.5224709071985
 10
46.5648596295292
 20
29.5236563731263
 10
46.56344365633771
 20
29.5247924446404
 10
46.56199475353713
 20
29.52591205134991
 10
46.56047999151832
 20
29.52698226364585
 10
46.55893229989041
 20
29.52800308152807
 10
46.55731874904427
 20
29.52900743460579
 10
46.55565580378447
 20
29.52996239326978
 10
46.55395992891567
 20
29.53086795752013
 10
46.55219819482858
 20
29.53174059216145
 10
46.5503870663278
 20
29.53258029719359
 10
46.54854300821793
 20
29.53338707261662
 10
46.54663309088991
 20
29.53414445362607
 10
46.54467377914815
 20
29.5348524402218
 10
46.54266507299275
 20
29.53554396201298
 10
46.5406069724238
 20
29.53618608939052
 10
46.53851594224557
 20
29.53677882235444
 10
46.53635905284926
 20
29.53735509051374
 10
46.53415276903928
 20
29.5378819642594
 10
46.53189709081556
 20
29.5383594435914
 10
46.52959201817833
 20
29.53880399331435
 10
46.52723755112728
 20
29.53921561342817
 10
46.52483368966272
 20
29.53959430393286
 10
46.52238043378438
 20
29.5399236000239
 10
46.51987778349243
 20
29.54020350170129
 10
46.51732573878689
 20
29.54046693857412
 10
46.51472429966765
 20
29.54068098103335
 10
46.51207346613472
 20
29.54084562907879
 10
46.50935677338361
 20
29.54099381231977
 10
46.50660715102339
 20
29.54109260114711
 10
46.50380813424948
 20
29.54114199556075
 10
46.50095972306198
 20
29.54115846036531
 10
46.37332455817295
 20
29.54115846036531
 10
46.37332455817295
 20
29.26237638968672
 10
46.409250761706
 20
29.26237638968672
 10
46.409250761706
 20
29.38207551878152
 10
46.50286964039
 20
29.38207551878152
 10
46.50479602252267
 20
29.3820425891724
 10
46.50698584152809
 20
29.38194380034504
 10
46.50909333651074
 20
29.38176268749503
 10
46.51116790188433
 20
29.38151571542677
 10
46.51316014323515
 20
29.38118641933572
 10
46.51510299017235
 20
29.38079126402646
 10
46.51699644269586
 20
29.38033024949898
  0
LWPOLYLINE
  5
4885
330
A
100
AcDbEntity
  8
template
 62
   142
370
     0
100
AcDbPolyline
 90
       78
 70
     1
 43
0.0
 10
46.52857120029611
 20
29.50396446688176
 10
46.5304317232104
 20
29.5029930434132
 10
46.53222638690666
 20
29.50193929592183
 10
46.53395519138462
 20
29.50081968921234
 10
46.535634601449
 20
29.49961775848003
 10
46.53726461709965
 20
29.4983335037249
 10
46.53733047631789
 20
29.49828410931123
 10
46.53892756235944
 20
29.49681874170612
 10
46.54044232437826
 20
29.4952710500782
 10
46.54184183276515
 20
29.49369042884115
 10
46.54314255232484
 20
29.49202748358143
 10
46.5443444830571
 20
29.49029867910338
 10
46.54543116015756
 20
29.48850401540726
 10
46.54641904843069
 20
29.48664349249282
 10
46.54730814787649
 20
29.48471711036019
 10
46.54808199369049
 20
29.48272486900938
 10
46.54875705067706
 20
29.48066676844034
 10
46.54933331883642
 20
29.47855927345768
 10
46.54979433336388
 20
29.47636945445224
 10
46.55017302386863
 20
29.47411377622855
 10
46.55041999593694
 20
29.47180870359124
 10
46.55058464398243
 20
29.46942130693118
 10
46.55063403839608
 20
29.4669680510529
 10
46.55063403839608
 20
29.46649057172086
 10
46.55058464398243
 20
29.46388913260161
 10
46.5504858551551
 20
29.46135355270057
 10
46.55033767191412
 20
29.45888383201778
 10
46.55012362945498
 20
29.45647997055312
 10
46.54984372777753
 20
29.45414196830667
 10
46.54949796688192
 20
29.45186982527845
 10
46.5491028115727
 20
29.44966354146846
 10
46.54865826184982
 20
29.44752311687671
 10
46.54813138810408
 20
29.44544855150311
 10
46.5475715847493
 20
29.44343984534775
 10
46.54692945737179
 20
29.44149699841056
 10
46.54623793558061
 20
29.43962001069161
 10
46.54549701937571
 20
29.43780888219088
 10
46.54469024395265
 20
29.43606361290831
 10
46.54381760931141
 20
29.434384202844
 10
46.54287911545196
 20
29.43277065199789
 10
46.54189122717883
 20
29.43122296037
 10
46.54085394449203
 20
29.42974112796026
 10
46.53975080258709
 20
29.42832515476873
 10
46.5385818014638
 20
29.42697504079549
 10
46.53736340592695
 20
29.42570725084495
 10
46.53607915117186
 20
29.42448885530808
 10
46.53472903719861
 20
29.42333631898949
 10
46.53332952881169
 20
29.42224964188902
 10
46.53188062601105
 20
29.42122882400673
 10
46.53034939918774
 20
29.42027386534274
 10
46.52876877795068
 20
29.41938476589694
 10
46.52713876229995
 20
29.41856152566929
 10
46.52544288743115
 20
29.41780414465991
 10
46.52368115334406
 20
29.41711262286871
 10
46.52187002484327
 20
29.4164869602957
 10
46.51999303712432
 20
29.41592715694094
 10
46.51806665499174
 20
29.41543321280438
 10
46.51607441364089
 20
29.415005127886
 10
46.51401631307189
 20
29.41464290218589
 10
46.51190881808924
 20
29.41434653570393
 10
46.50973546388826
 20
29.41411602844018
 10
46.50751271527377
 20
29.41395138039468
 10
46.50522410744097
 20
29.41385259156734
 10
46.50286964039
 20
29.41381966195825
 10
46.409250761706
 20
29.41381966195825
 10
46.409250761706
 20
29.50941431718862
 10
46.5024909498853
 20
29.50941431718862
 10
46.50443379682246
 20
29.509397852384
 10
46.50691998230985
 20
29.5092990635567
 10
46.50934030857905
 20
29.50911795070663
 10
46.51171124043452
 20
29.50885451383378
 10
46.51401631307189
 20
29.50852521774273
 10
46.51627199129552
 20
29.50811359762893
 10
46.51846181030094
 20
29.5076196534924
 10
46.52060223489274
 20
29.50704338533304
 10
46.52267680026634
 20
29.50638479315096
 10
46.52470197122624
 20
29.50566034175068
 10
46.526661282968
 20
29.5048535663276
  0
CIRCLE
  5
4886
330
A
100
AcDbEntity
  8
template
 62
   142
100
AcDbCircle
 10
46.46496679341658
 20
29.38871563198556
 30
0.0
 40
0.2168478107286232
  0
HATCH
  5
4887
330
A
100
AcDbEntity
  8
template
 62
   142
100
AcDbHatch
 10
0.0
 20
0.0
 30
0.0
210
0.0
220
0.0
230
1.0
  2
SOLID
 70
     1
 71
     0
 91
        2
 92
        7
 72
     0
 73
     1
 93
      197
 10
46.50406608285351
 20
29.38207551878152
 10
46.50917566053379
 20
29.38184501151777
 10
46.51545215757923
 20
29.3808075739896
 10
46.52066888759555
 20
29.37919513016635
 10
46.52547267265958
 20
29.37698538903688
 10
46.53004406603844
 20
29.37390355080412
 10
46.5339201027645
 20
29.37022628519219
 10
46.53707191924417
 20
29.36619381410803
 10
46.54000825987163
 20
29.36108053129139
 10
46.54235642296839
 20
29.35526117057309
 10
46.54378416280173
 20
29.35003972204034
 10
46.54496612922798
 20
29.34445594961255
 10
46.54566989982353
 20
29.33824620906363
 10
46.54607973156112
 20
29.33228502015357
 10
46.54587570988041
 20
29.32831793191832
 10
46.54576045624852
 20
29.32551891514311
 10
46.54566166742128
 20
29.3227857575896
 10
46.54557934339854
 20
29.32011845925142
 10
46.54552994898489
 20
29.31751702013374
 10
46.54549701937571
 20
29.31498144023078
 10
46.54549701937571
 20
29.31252818435455
 10
46.5455134841803
 20
29.31014078769287
 10
46.54554641378939
 20
29.30781925025134
 10
46.54561227300763
 20
29.30556357202772
 10
46.54569459703037
 20
29.30337375302189
 10
46.54579338585768
 20
29.3012497932349
 10
46.54592510429416
 20
29.29920815747005
 10
46.54608975233964
 20
29.29723238092312
 10
46.54625440038512
 20
29.2953224635959
 10
46.54645197803978
 20
29.29347840548576
 10
46.54668248530342
 20
29.29171667139944
 10
46.54692945737173
 20
29.2900043317257
 10
46.5471928942446
 20
29.28837431607512
 10
46.5475551199448
 20
29.28631621550551
 10
46.54798320486316
 20
29.28402760767268
 10
46.54844421939069
 20
29.28175546464434
 10
46.54893816352728
 20
29.27951625122513
 10
46.5494650372729
 20
29.27730996741558
 10
46.5500248406276
 20
29.27510368360567
 10
46.55061757359158
 20
29.2729303294044
 10
46.5512432361645
 20
29.27077344000804
 10
46.55190182834644
 20
29.26864948022137
 10
46.55259335013783
 20
29.26652552043362
 10
46.5533178015381
 20
29.26443449025574
 10
46.5540751825475
 20
29.26237638968672
 10
46.59724590008349
 20
29.26237638968672
 10
46.59724590008349
 20
29.2714833448337
 10
46.59277935040458
 20
29.27551624891275
 10
46.5889147089801
 20
29.28070171715332
 10
46.58614407384487
 20
29.28638881032549
 10
46.58439030795324
 20
29.29309438579343
 10
46.58412345085543
 20
29.29736409935875
 10
46.58392587320071
 20
29.30044301781062
 10
46.58372829554622
 20
29.30343961223838
 10
46.58354718269637
 20
29.30638681224893
 10
46.58336606984625
 20
29.3092516882411
 10
46.58309778234624
 20
29.31339794960591
 10
46.58287212570948
 20
29.31743469610835
 10
46.58270747766386
 20
29.32001967042415
 10
46.58257575922738
 20
29.32253878552179
 10
46.58235587441839
 20
29.32617910069239
 10
46.58218060391831
 20
29.32968451069245
 10
46.58206535028642
 20
29.33192372411345
 10
46.58183484302298
 20
29.3362704325079
 10
46.58167019497722
 20
29.34018905599692
 10
46.5815878709543
 20
29.34208250852432
 10
46.58142322290854
 20
29.34573769514122
 10
46.58132443408166
 20
29.34896479681942
 10
46.58127503966769
 20
29.35051248845538
 10
46.58124211005869
 20
29.35197785606003
 10
46.58121017330216
 20
29.35335113659255
 10
46.58081402514025
 20
29.35724659351695
 10
46.5804517994402
 20
29.36001268068144
 10
46.58004017932634
 20
29.36261411980081
 10
46.57959562960349
 20
29.36506737567884
 10
46.57910168546695
 20
29.36735598351163
 10
46.57854188211217
 20
29.3694964081035
 10
46.57794914914825
 20
29.37148864945441
 10
46.57730702177068
 20
29.37331624275972
 10
46.5766154999796
 20
29.37497918801937
 10
46.57587458377469
 20
29.37651041484283
 10
46.57508427315619
 20
29.37786052881602
 10
46.57437628656038
 20
29.37896367072124
 10
46.5734377927009
 20
29.38024792547627
 10
46.57236758040494
 20
29.38156510984042
 10
46.57119857928177
 20
29.38291522381367
 10
46.56989785972223
 20
29.38429826739609
 10
46.56848188653066
 20
29.38571424058757
 10
46.56693419490269
 20
29.38716314338824
 10
46.56527124964298
 20
29.38866144060246
 10
46.56349305075136
 20
29.39017620262128
 10
46.56158313342342
 20
29.39174035905364
 10
46.55955796246334
 20
29.39333744509527
 10
46.5574175378716
 20
29.3949509959413
 10
46.55514539484338
 20
29.39661394120115
 10
46.55275799818326
 20
29.39830981607004
 10
46.55025534789132
 20
29.40005508535262
 10
46.55112798253262
 20
29.40068074792555
 10
46.55316961829689
 20
29.40221197474871
 10
46.55516185964834
 20
29.4037432015726
 10
46.55710470658528
 20
29.40530735800489
 10
46.55896522949942
 20
29.40688797924173
 10
46.56077635800019
 20
29.40848506528327
 10
46.56252162728264
 20
29.41009861612933
 10
46.56421750215153
 20
29.41172863178001
 10
46.56583105299782
 20
29.41337511223533
 10
46.56739520943045
 20
29.4150545222999
 10
46.56889350664454
 20
29.41673393236401
 10
46.57034240944518
 20
29.41842980723296
 10
46.57172545302768
 20
29.4201586117111
 10
46.57304263739169
 20
29.42188741618891
 10
46.57429396253769
 20
29.42364915027599
 10
46.57549589327004
 20
29.42541088436314
 10
46.5766154999796
 20
29.42720554805937
 10
46.57770217707997
 20
29.4290166765599
 10
46.57870653015765
 20
29.4308278050608
 10
46.57966148882173
 20
29.43267186317071
 10
46.58055058826744
 20
29.43453238608487
 10
46.58137382849503
 20
29.43640937380383
 10
46.58214767430908
 20
29.4383028263275
 10
46.58283919610025
 20
29.44021274365538
 10
46.58348132347777
 20
29.44213912578813
 10
46.58407405644152
 20
29.44408197272499
 10
46.58458446538278
 20
29.44605774927158
 10
46.58504547991038
 20
29.44803352581816
 10
46.58545710002402
 20
29.4500257671685
 10
46.58578639611514
 20
29.45205093812893
 10
46.58606629779245
 20
29.45407610908812
 10
46.58628034025173
 20
29.45613420965792
 10
46.58642852349257
 20
29.45819231022618
 10
46.5865273123199
 20
29.4602833404047
 10
46.58655968190169
 20
29.46235499363547
 10
46.58651084751539
 20
29.46640824769822
 10
46.58641205868806
 20
29.46909201084049
 10
46.58628034025167
 20
29.47172637956841
 10
46.5860992274016
 20
29.4743113538831
 10
46.58586872013779
 20
29.47683046898003
 10
46.58560528326501
 20
29.47931665446686
 10
46.58527598717404
 20
29.48173698073633
 10
46.58491376147376
 20
29.48410791259205
 10
46.58450214136005
 20
29.4864294500336
 10
46.5840575916371
 20
29.48870159306186
 10
46.58356364750057
 20
29.49092434167642
 10
46.58300384414573
 20
29.49308123107285
 10
46.58241111118189
 20
29.49518872605536
 10
46.58178544860897
 20
29.49726329142907
 10
46.58109392681772
 20
29.49927199758433
 10
46.58036947541745
 20
29.501231309326
 10
46.5795956296034
 20
29.50314122665424
 10
46.57877238937589
 20
29.50498528476395
 10
46.57791621953919
 20
29.50679641326468
 10
46.5770106552888
 20
29.50854168254723
 10
46.57605569662481
 20
29.51025402222062
 10
46.57505134354704
 20
29.51190050267594
 10
46.57399759605573
 20
29.51349758871754
 10
46.57291091895522
 20
29.51504528034543
 10
46.5717748474411
 20
29.51652711275523
 10
46.57058938151339
 20
29.51797601555573
 10
46.56935452117198
 20
29.51935905913816
 10
46.56877825301257
 20
29.51996825690662
 10
46.5675269278667
 20
29.52123604685714
 10
46.56620974350253
 20
29.52247090719846
 10
46.5648596295292
 20
29.5236563731263
 10
46.56344365633771
 20
29.52479244464031
 10
46.56199475353713
 20
29.52591205134991
 10
46.56047999151832
 20
29.52698226364585
 10
46.55893229989041
 20
29.52800308152807
 10
46.55731874904427
 20
29.52900743460579
 10
46.55565580378447
 20
29.52996239326978
 10
46.55395992891562
 20
29.53086795752013
 10
46.55219819482858
 20
29.53174059216143
 10
46.5503870663278
 20
29.53258029719363
 10
46.54854300821793
 20
29.53338707261662
 10
46.54663309088983
 20
29.53414445362607
 10
46.54467377914815
 20
29.5348524402218
 10
46.54266507299289
 20
29.53554396201294
 10
46.5406069724238
 20
29.53618608939052
 10
46.53851594224557
 20
29.53677882235444
 10
46.53635905284926
 20
29.53735509051374
 10
46.53415276903928
 20
29.5378819642594
 10
46.53189709081579
 20
29.53835944359138
 10
46.52959201817833
 20
29.53880399331435
 10
46.52723755112714
 20
29.53921561342817
 10
46.5248336896625
 20
29.5395943039329
 10
46.52238043378452
 20
29.53992360002387
 10
46.51987778349266
 20
29.54020350170124
 10
46.51732573878712
 20
29.54046693857409
 10
46.5147242996677
 20
29.54068098103335
 10
46.51207346613455
 20
29.54084562907879
 10
46.50935677338355
 20
29.54099381231977
 10
46.50660715102339
 20
29.54109260114711
 10
46.50380813424948
 20
29.54114199556075
 10
46.50095972306212
 20
29.54115846036531
 10
46.37332455817295
 20
29.54115846036531
 10
46.37332455817295
 20
29.26237638968672
 10
46.409250761706
 20
29.26237638968672
 10
46.409250761706
 20
29.38207551878152
 97
        0
 92
       23
 72
     0
 73
     1
 93
       30
 10
46.409250761706
 20
29.41381966195825
 10
46.409250761706
 20
29.50941431718862
 10
46.50401943257406
 20
29.50941431718862
 10
46.50924650450884
 20
29.50920661896601
 10
46.51632138570943
 20
29.50819592165168
 10
46.52274265948449
 20
29.50646711717373
 10
46.52867571380929
 20
29.50402409480473
 10
46.53403845038982
 20
29.50087533204185
 10
46.53726461709965
 20
29.4983335037249
 10
46.53794296704677
 20
29.4978247412647
 10
46.54197928269553
 20
29.49370067962356
 10
46.5454974322863
 20
29.48864032747224
 10
46.54814580138349
 20
29.48290219442849
 10
46.54993085863916
 20
29.47637398503623
 10
46.55056355270381
 20
29.47046884043327
 10
46.55065807992485
 20
29.46577398845717
 10
46.55043005613705
 20
29.45992137790636
 10
46.54992586491267
 20
29.45425892261672
 10
46.54873726863934
 20
29.44762259342383
 10
46.54708215667333
 20
29.44168366225149
 10
46.54475610317081
 20
29.43599775369
 10
46.54189211770312
 20
29.43107370849998
 10
46.5386968292928
 20
29.42697229352539
 10
46.53484240464772
 20
29.42331553168261
 10
46.53051508930966
 20
29.42026674133074
 10
46.52554438565684
 20
29.41775628494041
 10
46.52005889634255
 20
29.41586129772268
 10
46.5140821722899
 20
29.41457704296759
 10
46.50755960870441
 20
29.41388525592066
 10
46.50286964039023
 20
29.41381966195825
 97
        0
 75
     0
 76
     1
 47
0.1037924397788885
 98
        2
 10
46.49182918272777
 20
29.40253113418874
 10
46.49182918272777
 20
29.40253113418874
  0
MTEXT
  5
488B
330
A
100
AcDbEntity
  8
template
 62
   142
370
    30
100
AcDbMText
 10
38.89044213913027
 20
26.74838452120081
 30
0.0
 40
0.5
 41
3.572698217586889
 71
     1
 72
     5
  1
{\fArial|b1|i0|c0|p34;\C142;\c13470976;FBY1700 }
 73
     1
 44
1.0
1001
ACAD
1000
MTEXTBEGIN
1070
    73
1070
     1
1070
    44
1040
1.0
1070
    74
1070
     0
1000
MTEXTEND
  0
MTEXT
  5
4D7E
330
A
100
AcDbEntity
  8
template
 62
   142
370
    30
100
AcDbMText
 10
77.12745204576108
 20
42.63978139149097
 30
0.0
 40
0.5
 41
3.199326443229097
 71
     1
 72
     5
  1
{\fArial|b1|i0|c0|p34;\C142;\c13470976;0GU5050\P4-15-09}
 73
     1
 44
1.0
1001
ACAD
1000
MTEXTBEGIN
1070
    73
1070
     1
1070
    44
1040
1.0
1070
    74
1070
     0
1000
MTEXTEND
  0
TEXT
  5
5F67
330
A
100
AcDbEntity
  8
0
  6
Continuous
 62
     2
100
AcDbText
 10
115.8074460720188
 20
73.60449659234294
 30
0.0
 40
0.1
  1
 
 41
0.8000000000001248
  7
TEXTSTYLE_0
 72
     5
 11
115.8874460720188
 21
73.60449659234294
 31
0.0
100
AcDbText
  0
TEXT
  5
5F6B
330
A
100
AcDbEntity
  8
0
  6
Continuous
 62
     7
100
AcDbText
 10
100.0515315807188
 20
79.87459982224294
 30
0.0
 40
0.156
  1
 
 41
0.7999999999999574
  7
TEXTSTYLE_0
 72
     5
 11
100.1763315807188
 21
79.87459982224294
 31
0.0
100
AcDbText
  0
TEXT
  5
5F72
330
A
100
AcDbEntity
  8
0
  6
Continuous
 62
     2
100
AcDbText
 10
95.4652587543188
 20
88.01018321904294
 30
0.0
 40
0.116666666
  1
 
 41
0.8000000000000028
  7
TEXTSTYLE_0
 72
     5
 11
95.55859208711879
 21
88.01018321904294
 31
0.0
100
AcDbText
  0
TEXT
  5
5F74
330
A
100
AcDbEntity
  8
0
  6
Continuous
 62
     2
100
AcDbText
 10
95.4652587543188
 20
87.60118322004293
 30
0.0
 40
0.116666666
  1
 
 41
0.8000000000000028
  7
TEXTSTYLE_0
 72
     5
 11
95.55859208711879
 21
87.60118322004293
 31
0.0
100
AcDbText
  0
TEXT
  5
5F7E
330
A
100
AcDbEntity
  8
0
  6
Continuous
 62
     7
100
AcDbText
 10
95.6562598736188
 20
82.34791576984294
 30
0.0
 40
0.21875
  1
 
 41
0.9500000000000129
  7
TEXTSTYLE_0
 72
     5
 11
95.8640723736188
 21
82.34791576984294
 31
0.0
100
AcDbText
  0
TEXT
  5
5F80
330
A
100
AcDbEntity
  8
0
  6
Continuous
 62
     7
100
AcDbText
 10
95.6562598736188
 20
81.69166576984293
 30
0.0
 40
0.21875
  1
 
 41
0.9500000000000129
  7
TEXTSTYLE_0
 72
     5
 11
95.8640723736188
 21
81.69166576984293
 31
0.0
100
AcDbText
  0
TEXT
  5
5F8C
330
A
100
AcDbEntity
  8
0
  6
Continuous
 62
     2
100
AcDbText
 10
108.9847700788188
 20
85.97384117084294
 30
0.0
 40
0.125
  1
 
 41
0.7999999999999546
  7
TEXTSTYLE_0
 72
     5
 11
109.0847700788188
 21
85.97384117084294
 31
0.0
100
AcDbText
  0
TEXT
  5
5F8E
330
A
100
AcDbEntity
  8
0
  6
Continuous
 62
     2
100
AcDbText
 10
106.4847700788188
 20
85.59884117084294
 30
0.0
 40
0.125
  1
 
 41
0.7999999999999546
  7
TEXTSTYLE_0
 72
     5
 11
106.5847700788188
 21
85.59884117084294
 31
0.0
100
AcDbText
  0
TEXT
  5
5F90
330
A
100
AcDbEntity
  8
0
  6
Continuous
 62
     2
100
AcDbText
 10
108.9847700788188
 20
85.41134117084295
 30
0.0
 40
0.125
  1
 
 41
0.7999999999999546
  7
TEXTSTYLE_0
 72
     5
 11
109.0847700788188
 21
85.41134117084295
 31
0.0
100
AcDbText
  0
TEXT
  5
5F91
330
A
100
AcDbEntity
  8
0
  6
Continuous
 62
     2
100
AcDbText
 10
106.1847700788188
 20
85.22384117084294
 30
0.0
 40
0.125
  1
 
 41
0.7999999999998409
  7
TEXTSTYLE_0
 72
     5
 11
106.2847700788188
 21
85.22384117084294
 31
0.0
100
AcDbText
  0
TEXT
  5
5F96
330
A
100
AcDbEntity
  8
0
  6
Continuous
 62
     2
100
AcDbText
 10
114.6769925127188
 20
85.32790896454292
 30
0.0
 40
0.116666666
  1
 
 41
0.8000000000001247
  7
TEXTSTYLE_0
 72
     5
 11
114.7703258455188
 21
85.32790896454292
 31
0.0
100
AcDbText
  0
TEXT
  5
5F99
330
A
100
AcDbEntity
  8
0
  6
Continuous
 62
     2
100
AcDbText
 10
114.6769925127188
 20
84.77790896554294
 30
0.0
 40
0.116666666
  1
 
 41
0.8000000000001247
  7
TEXTSTYLE_0
 72
     5
 11
114.7703258455188
 21
84.77790896554294
 31
0.0
100
AcDbText
  0
TEXT
  5
5F9A
330
A
100
AcDbEntity
  8
0
  6
Continuous
 62
     2
100
AcDbText
 10
111.8769925127188
 20
84.59249229904294
 30
0.0
 40
0.116666666
  1
 
 41
0.8000000000000028
  7
TEXTSTYLE_0
 72
     5
 11
111.9703258455188
 21
84.59249229904294
 31
0.0
100
AcDbText
  0
TEXT
  5
5FA0
330
A
100
AcDbEntity
  8
0
  6
Continuous
 62
     2
100
AcDbText
 10
110.3169065363188
 20
82.58687362594294
 30
0.0
 40
0.1367187441
  1
 
 41
0.8000000001462957
  7
TEXTSTYLE_0
 72
     5
 11
110.4262815316188
 21
82.58687362594294
 31
0.0
100
AcDbText
  0
TEXT
  5
5FA4
330
A
100
AcDbEntity
  8
0
  6
Continuous
 62
     2
100
AcDbText
 10
110.3169065363188
 20
81.76656139304295
 30
0.0
 40
0.1367187441
  1
 
 41
0.8000000001462957
  7
TEXTSTYLE_0
 72
     5
 11
110.4262815316188
 21
81.76656139304295
 31
0.0
100
AcDbText
  0
LINE
  5
5FF1
330
A
100
AcDbEntity
  8
0
  6
Continuous
 62
     7
100
AcDbLine
 10
30.725055733782
 20
25.00301870331954
 30
0.0
 11
30.25918145515343
 21
25.00301870331954
 31
0.0
  0
LINE
  5
5FF2
330
A
100
AcDbEntity
  8
0
  6
Continuous
 62
     7
100
AcDbLine
 10
33.6322569264677
 20
27.02617149989095
 30
0.0
 11
31.3822569392677
 21
27.02617149989095
 31
0.0
  0
LINE
  5
5FF3
330
A
100
AcDbEntity
  8
0
  6
Continuous
 62
     7
100
AcDbLine
 10
31.3822569392677
 20
27.47617149737668
 30
0.0
 11
33.6322569264677
 21
27.47617149737668
 31
0.0
  0
LINE
  5
5FF4
330
A
100
AcDbEntity
  8
0
  6
Continuous
 62
     7
100
AcDbLine
 10
31.3822569392677
 20
28.07617149394811
 30
0.0
 11
33.6322569264677
 21
28.07617149394811
 31
0.0
  0
LINE
  5
5FF5
330
A
100
AcDbEntity
  8
0
  6
Continuous
 62
     7
100
AcDbLine
 10
30.25918145515343
 20
25.00301870331954
 30
0.0
 11
30.80270144692486
 21
27.03146292709096
 31
0.0
  0
LINE
  5
5FF6
330
A
100
AcDbEntity
  8
0
  6
Continuous
 62
     7
100
AcDbLine
 10
31.23736806612484
 20
26.91499435726238
 30
0.0
 11
30.725055733782
 21
25.00301870331954
 31
0.0
  0
LINE
  5
5FF7
330
A
100
AcDbEntity
  8
0
  6
Continuous
 62
     7
100
AcDbLine
 10
31.3822569392677
 20
27.47617149737668
 30
0.0
 11
31.3822569392677
 21
28.07617149394811
 31
0.0
  0
LINE
  5
5FF8
330
A
100
AcDbEntity
  8
0
  6
Continuous
 62
     7
100
AcDbLine
 10
33.6322569264677
 20
28.07617149394811
 30
0.0
 11
33.6322569264677
 21
27.02617149989095
 31
0.0
  0
ARC
  5
5FF9
330
A
100
AcDbEntity
  8
0
  6
Continuous
 62
     7
100
AcDbCircle
 10
31.3822569392677
 20
26.87617150080526
 30
0.0
 40
0.1499999990857143
100
AcDbArc
 50
90.0
 51
164.9999999999996
  0
ARC
  5
5FFA
330
A
100
AcDbEntity
  8
0
  6
Continuous
 62
     7
100
AcDbCircle
 10
31.3822569392677
 20
26.87617150080526
 30
0.0
 40
0.5999999965714286
100
AcDbArc
 50
90.0
 51
164.9999999999996
  0
LINE
  5
600A
330
A
100
AcDbEntity
  8
0
  6
Continuous
 62
     7
100
AcDbLine
 10
49.70260601226863
 20
25.78800183440298
 30
0.0
 11
49.23673173364008
 21
25.78800183440298
 31
0.0
  0
LINE
  5
600B
330
A
100
AcDbEntity
  8
0
  6
Continuous
 62
     7
100
AcDbLine
 10
52.83673171306864
 20
27.81115463097439
 30
0.0
 11
50.35980721775437
 21
27.81115463097439
 31
0.0
  0
LINE
  5
600C
330
A
100
AcDbEntity
  8
0
  6
Continuous
 62
     7
100
AcDbLine
 10
49.83673173021151
 20
28.26115462846011
 30
0.0
 11
52.83673171306864
 21
28.26115462846011
 31
0.0
  0
LINE
  5
600D
330
A
100
AcDbEntity
  8
0
  6
Continuous
 62
     7
100
AcDbLine
 10
52.83673171306864
 20
28.86115462503153
 30
0.0
 11
49.83673173021151
 21
28.86115462503153
 31
0.0
  0
LINE
  5
600E
330
A
100
AcDbEntity
  8
0
  6
Continuous
 62
     7
100
AcDbLine
 10
49.23673173364008
 20
25.78800183440298
 30
0.0
 11
49.78025172518292
 21
27.81644605794582
 31
0.0
  0
LINE
  5
600F
330
A
100
AcDbEntity
  8
0
  6
Continuous
 62
     7
100
AcDbLine
 10
50.21491834461148
 20
27.69997748834584
 30
0.0
 11
49.70260601226863
 21
25.78800183440298
 31
0.0
  0
LINE
  5
6010
330
A
100
AcDbEntity
  8
0
  6
Continuous
 62
     7
100
AcDbLine
 10
49.83673173021151
 20
28.26115462846011
 30
0.0
 11
49.83673173021151
 21
28.86115462503153
 31
0.0
  0
LINE
  5
6011
330
A
100
AcDbEntity
  8
0
  6
Continuous
 62
     7
100
AcDbLine
 10
52.83673171306864
 20
28.86115462503153
 30
0.0
 11
52.83673171306864
 21
27.81115463097439
 31
0.0
  0
ARC
  5
6012
330
A
100
AcDbEntity
  8
0
  6
Continuous
 62
     7
100
AcDbCircle
 10
50.35980721775437
 20
27.66115463188868
 30
0.0
 40
0.1499999990857143
100
AcDbArc
 50
90.0
 51
164.9999999999996
  0
ARC
  5
6013
330
A
100
AcDbEntity
  8
0
  6
Continuous
 62
     7
100
AcDbCircle
 10
50.35980721775437
 20
27.66115463188868
 30
0.0
 40
0.5999999965714286
100
AcDbArc
 50
90.0
 51
164.9999999999996
  0
MTEXT
  5
60A9
330
A
100
AcDbEntity
  8
template
 62
   142
370
    30
100
AcDbMText
 10
30.93430162474394
 20
29.90694059438549
 30
0.0
 40
0.25
 41
4.75144822892264
 71
     1
 72
     5
  1
{\fArial|b1|i0|c0|p34;\C142;\c13470976;RECESS MOUNT \PMONTAJE EN CAVIDADES\PMONTAGE ENCASTR\fArial|b0|i0|c0|p34;É}
 73
     1
 44
1.0
1001
ACAD
1000
MTEXTBEGIN
1070
    73
1070
     1
1070
    44
1040
1.0
1070
    74
1070
     0
1000
MTEXTEND
  0
MTEXT
  5
634A
330
A
100
AcDbEntity
  8
template
 62
   142
370
    30
100
AcDbMText
 10
49.92889076178562
 20
30.38133177247758
 30
0.0
 40
0.25
 41
4.75144822892264
 71
     1
 72
     5
  1
{\fArial|b1|i0|c0|p34;\C142;\c13470976;FLUSH MOUNT \PMONTAJE AL RAS\PMONTAGE AFFLEUR\fArial|b0|i0|c0|p34;É}
 73
     1
 44
1.0
1001
ACAD
1000
MTEXTBEGIN
1070
    73
1070
     1
1070
    44
1040
1.0
1070
    74
1070
     0
1000
MTEXTEND
  0
LEADER
  5
639B
330
A
100
AcDbEntity
  8
template
  6
Continuous
 62
   142
 48
4.0
100
AcDbLeader
  3
STANDARD
 73
     0
 74
     0
 75
     1
 40
3.379831741700773
 41
6.24931787175989
 76
     3
 10
44.35959196651374
 20
39.92725560633863
 30
0.0
 10
49.94501328700128
 20
34.10863589340788
 30
0.0
 10
50.12501328700128
 20
34.10863589340788
 30
0.0
340
639C
213
0.0
223
0.125
233
0.0
1001
ACAD
1000
DSTYLE
1002
{
1070
   147
1040
0.09
1070
    77
1070
     0
1002
}
  0
MTEXT
  5
639C
102
{ACAD_REACTORS
330
639B
102
}
330
A
100
AcDbEntity
  8
template
  6
Continuous
 62
   142
 48
4.0
100
AcDbMText
 10
50.21501328700129
 20
33.98363589340788
 30
0.0
 40
0.25
 41
0.0
 71
     4
 72
     1
  1
CUT ALONG THIS LINE FOR \PFLUSH MOUNT INSTALLATION\P\PCORTE A LO LARGO DE ESTA L{\C142;\c13470976;ÍNEA\PPARA MONTAJES AL RAS\P\PDÉCOUPER LE LONG CETTE LIGNE\PPOUR DES MONTAGES AFFLEURÉS}
  7
ARIAL
 73
     1
 44
1.0
1001
ACAD
1000
MTEXTBEGIN
1070
    73
1070
     1
1070
    44
1040
1.0
1070
    74
1070
     0
1000
MTEXTEND
  0
LINE
  5
6B5D
330
A
100
AcDbEntity
  8
template
  6
Continuous
 62
   142
 48
10.0
100
AcDbLine
 10
4.666066735190721
 20
43.66001670944373
 30
0.0
 11
81.66606673519073
 21
43.66001670944376
 31
0.0
  0
LINE
  5
6B61
330
A
100
AcDbEntity
  8
template
  6
Continuous
 62
   142
 48
10.0
100
AcDbLine
 10
4.666066735190721
 20
43.66001670944373
 30
0.0
 11
4.6660667351907
 21
9.660016709443736
 31
0.0
  0
LINE
  5
6B64
330
A
100
AcDbEntity
  8
template
  6
Continuous
 62
   142
 48
10.0
100
AcDbLine
 10
70.66606673519072
 20
43.66001670944377
 30
0.0
 11
70.66606673519072
 21
43.16001670944374
 31
0.0
  0
LINE
  5
6B72
330
A
100
AcDbEntity
  8
template
  6
Continuous
 62
   142
 48
10.0
100
AcDbLine
 10
4.666066735190728
 20
9.660016709443738
 30
0.0
 11
81.66606673519074
 21
9.660016709443752
 31
0.0
  0
LINE
  5
6B73
330
A
100
AcDbEntity
  8
template
  6
Continuous
 62
   142
 48
10.0
100
AcDbLine
 10
4.666066735190723
 20
35.16001670944374
 30
0.0
 11
5.166066735190717
 21
35.16001670944374
 31
0.0
  0
LINE
  5
6B74
330
A
100
AcDbEntity
  8
template
  6
Continuous
 62
   142
 48
10.0
100
AcDbLine
 10
4.666066735190725
 20
26.66001670944374
 30
0.0
 11
5.166066735190711
 21
26.66001670944374
 31
0.0
  0
LINE
  5
6B75
330
A
100
AcDbEntity
  8
template
  6
Continuous
 62
   142
 48
10.0
100
AcDbLine
 10
4.666066735190726
 20
18.16001670944373
 30
0.0
 11
5.166066735190706
 21
18.16001670944373
 31
0.0
  0
LINE
  5
6B7D
330
A
100
AcDbEntity
  8
template
  6
Continuous
 62
   142
 48
10.0
100
AcDbLine
 10
15.66606673519072
 20
43.66001670944373
 30
0.0
 11
15.66606673519072
 21
43.16001670944374
 31
0.0
  0
LINE
  5
6B7E
330
A
100
AcDbEntity
  8
template
  6
Continuous
 62
   142
 48
10.0
100
AcDbLine
 10
26.66606673519072
 20
43.66001670944372
 30
0.0
 11
26.66606673519072
 21
43.16001670944374
 31
0.0
  0
LINE
  5
6B7F
330
A
100
AcDbEntity
  8
template
  6
Continuous
 62
   142
 48
10.0
100
AcDbLine
 10
37.66606673519073
 20
43.66001670944371
 30
0.0
 11
37.66606673519073
 21
43.16001670944374
 31
0.0
  0
LINE
  5
6B80
330
A
100
AcDbEntity
  8
template
  6
Continuous
 62
   142
 48
10.0
100
AcDbLine
 10
48.66606673519072
 20
43.6600167094437
 30
0.0
 11
48.66606673519073
 21
43.16001670944375
 31
0.0
  0
LINE
  5
6B81
330
A
100
AcDbEntity
  8
template
  6
Continuous
 62
   142
 48
10.0
100
AcDbLine
 10
59.66606673519073
 20
43.6600167094437
 30
0.0
 11
59.66606673519073
 21
43.16001670944374
 31
0.0
  0
LINE
  5
6B82
330
A
100
AcDbEntity
  8
template
  6
Continuous
 62
   142
 48
10.0
100
AcDbLine
 10
59.66606673519071
 20
10.16001670944375
 30
0.0
 11
59.6660667351907
 21
9.660016709443697
 31
0.0
  0
LINE
  5
6B83
330
A
100
AcDbEntity
  8
template
  6
Continuous
 62
   142
 48
10.0
100
AcDbLine
 10
48.66606673519069
 20
10.16001670944374
 30
0.0
 11
48.66606673519069
 21
9.660016709443706
 31
0.0
  0
LINE
  5
6B84
330
A
100
AcDbEntity
  8
template
  6
Continuous
 62
   142
 48
10.0
100
AcDbLine
 10
37.6660667351907
 20
10.16001670944374
 30
0.0
 11
37.6660667351907
 21
9.660016709443715
 31
0.0
  0
LINE
  5
6B85
330
A
100
AcDbEntity
  8
template
  6
Continuous
 62
   142
 48
10.0
100
AcDbLine
 10
26.6660667351907
 20
10.16001670944374
 30
0.0
 11
26.6660667351907
 21
9.660016709443722
 31
0.0
  0
LINE
  5
6B86
330
A
100
AcDbEntity
  8
template
  6
Continuous
 62
   142
 48
10.0
100
AcDbLine
 10
15.6660667351907
 20
10.16001670944374
 30
0.0
 11
15.6660667351907
 21
9.660016709443729
 31
0.0
  0
LEADER
  5
6BD7
330
A
100
AcDbEntity
  8
template
  6
Continuous
 62
   142
 48
4.0
100
AcDbLeader
  3
STANDARD
 73
     0
 74
     0
 75
     1
 40
3.379831741700773
 41
6.24931787175989
 76
     3
 10
20.54837500763021
 20
41.51950966427913
 30
0.0
 10
28.77647802848214
 20
34.48774836124642
 30
0.0
 10
28.95647802848214
 20
34.48774836124642
 30
0.0
340
6BD8
213
0.0
223
-0.125
233
0.0
1001
ACAD
1000
DSTYLE
1002
{
1070
   147
1040
0.09
1070
    77
1070
     0
1002
}
  0
MTEXT
  5
6BD8
102
{ACAD_REACTORS
330
6BD7
102
}
330
A
100
AcDbEntity
  8
template
  6
Continuous
 62
   142
 48
4.0
100
AcDbMText
 10
29.04647802848214
 20
34.61274836124642
 30
0.0
 40
0.25
 41
0.0
 71
     4
 72
     1
  1
\A1;CUT {\C142;\c13470976;ALONG THIS LINE FOR\PRECESS MOUNT INSTALLATION\P\PCORTE A LO LARGO DE ESTA L\A0;ÍNEA\PPARA MONTAJE EN CAVIDADES\P\PDÉCOUPER LE LONG CETTE LIGNE\PPOUR DES MONTAGES ENCASTRÉS}
  7
ARIAL
 73
     1
 44
1.0
1001
ACAD
1000
MTEXTBEGIN
1070
    73
1070
     1
1070
    44
1040
1.0
1070
    74
1070
     0
1000
MTEXTEND
  0
LINE
  5
75E7
330
A
100
AcDbEntity
  8
0
  6
Continuous
 62
     7
100
AcDbLine
 10
8.150023062911628
 20
11.30591908149679
 30
0.0
 11
8.150023062911628
 21
41.73898994763854
 31
0.0
  0
ARC
  5
75E9
330
A
100
AcDbEntity
  8
0
  6
Continuous
 62
     7
100
AcDbCircle
 10
8.937424637714798
 20
11.30591908149679
 30
0.0
 40
0.7874015748031496
100
AcDbArc
 50
180.0
 51
270.0
  0
LINE
  5
75EA
330
A
100
AcDbEntity
  8
0
  6
Continuous
 62
     7
100
AcDbLine
 10
73.34687345661243
 20
10.5185175066936
 30
0.0
 11
8.93742463771494
 21
10.5185175066936
 31
0.0
  0
ARC
  5
75EB
330
A
100
AcDbEntity
  8
0
  6
Continuous
 62
     7
100
AcDbCircle
 10
73.34687345661243
 20
11.30591908149679
 30
0.0
 40
0.7874015748031496
100
AcDbArc
 50
270.0
 51
0.0
  0
LINE
  5
75EC
330
A
100
AcDbEntity
  8
0
  6
Continuous
 62
     7
100
AcDbLine
 10
74.13427503141557
 20
41.73898994763843
 30
0.0
 11
74.13427503141557
 21
11.30591908149679
 31
0.0
  0
ARC
  5
75ED
330
A
100
AcDbEntity
  8
0
  6
Continuous
 62
     7
100
AcDbCircle
 10
73.34687345661229
 20
41.73898994763843
 30
0.0
 40
0.7874015748031496
100
AcDbArc
 50
0.0
 51
90.0
  0
LINE
  5
75EE
330
A
100
AcDbEntity
  8
0
  6
Continuous
 62
     7
100
AcDbLine
 10
8.937424637714656
 20
42.52639152244163
 30
0.0
 11
73.34687345661229
 21
42.52639152244163
 31
0.0
  0
ARC
  5
75F0
330
A
100
AcDbEntity
  8
0
  6
Continuous
 62
     7
100
AcDbCircle
 10
8.937424637714656
 20
41.73898994763854
 30
0.0
 40
0.7874015748031496
100
AcDbArc
 50
90.0
 51
180.0
  0
ARC
  5
75F1
330
A
100
AcDbEntity
  8
0
  6
Continuous
 62
     7
100
AcDbCircle
 10
59.27457125396387
 20
30.85871324765836
 30
0.0
 40
11.81102362204724
100
AcDbArc
 50
3.898075848290946
 51
18.37236734666088
  0
ARC
  5
75F2
330
A
100
AcDbEntity
  8
0
  6
Continuous
 62
     7
100
AcDbCircle
 10
-86.33816591346633
 20
26.52245451456761
 30
0.0
 40
157.4803149606299
100
AcDbArc
 50
0.0
 51
1.870115450448485
  0
ARC
  5
75F3
330
A
100
AcDbEntity
  8
0
  6
Continuous
 62
     7
100
AcDbCircle
 10
66.65396007078567
 20
33.66812380590628
 30
0.0
 40
3.937007874015748
100
AcDbArc
 50
13.4138971805225
 51
73.67995943488757
  0
ARC
  5
75F4
330
A
100
AcDbEntity
  8
0
  6
Continuous
 62
     7
100
AcDbCircle
 10
51.07927631378197
 20
-39.5064543809269
 30
0.0
 40
78.74015748031496
100
AcDbArc
 50
77.76929280108517
 51
82.90088288762753
  0
ARC
  5
75F5
330
A
100
AcDbEntity
  8
0
  6
Continuous
 62
     7
100
AcDbCircle
 10
27.95312849337957
 20
31.08963757017685
 30
0.0
 40
15.74803149606299
100
AcDbArc
 50
160.5711770716516
 51
174.8203453511462
  0
ARC
  5
75F6
330
A
100
AcDbEntity
  8
0
  6
Continuous
 62
     7
100
AcDbCircle
 10
110.5122277873211
 20
26.52245451456761
 30
0.0
 40
98.4251968503937
100
AcDbArc
 50
176.5115567799135
 51
180.0
  0
ARC
  5
75F7
330
A
100
AcDbEntity
  8
0
  6
Continuous
 62
     7
100
AcDbCircle
 10
17.79569235425022
 20
34.84922616811085
 30
0.0
 40
4.921259842519685
100
AcDbArc
 50
122.5848084982543
 51
162.5132366046744
  0
ARC
  5
75F8
330
A
100
AcDbEntity
  8
0
  6
Continuous
 62
     7
100
AcDbCircle
 10
25.64572740140381
 20
1.051879071446734
 30
0.0
 40
39.37007874015748
100
AcDbArc
 50
86.81218828025675
 51
105.4685453354427
  0
ARC
  5
75F9
330
A
100
AcDbEntity
  8
0
  6
Continuous
 62
     7
100
AcDbCircle
 10
27.83506243299039
 20
-274.5995927295268
 30
0.0
 40
314.9606299212599
100
AcDbArc
 50
83.99029457361793
 51
90.0
  0
CIRCLE
  5
75FB
330
A
100
AcDbEntity
  8
0
  6
Continuous
 62
     7
100
AcDbCircle
 10
65.63033802354127
 20
26.52245451456761
 30
0.0
 40
1.08267716535433
  0
ARC
  5
75FC
330
A
100
AcDbEntity
  8
0
  6
Continuous
 62
     7
100
AcDbCircle
 10
59.27457125396387
 20
22.18619578147698
 30
0.0
 40
11.81102362204724
100
AcDbArc
 50
341.6276326533391
 51
356.1019241517091
  0
ARC
  5
75FD
330
A
100
AcDbEntity
  8
0
  6
Continuous
 62
     7
100
AcDbCircle
 10
-86.33816591346633
 20
26.52245451456761
 30
0.0
 40
157.4803149606299
100
AcDbArc
 50
358.1298845495515
 51
0.0
  0
ARC
  5
75FE
330
A
100
AcDbEntity
  8
0
  6
Continuous
 62
     7
100
AcDbCircle
 10
51.07927631378197
 20
92.55136341006224
 30
0.0
 40
78.74015748031496
100
AcDbArc
 50
277.0991171123725
 51
282.2307071989148
  0
ARC
  5
75FF
330
A
100
AcDbEntity
  8
0
  6
Continuous
 62
     7
100
AcDbCircle
 10
27.83506243299039
 20
327.6445017586622
 30
0.0
 40
314.9606299212599
100
AcDbArc
 50
270.0
 51
276.0097054263821
  0
ARC
  5
7600
330
A
100
AcDbEntity
  8
0
  6
Continuous
 62
     7
100
AcDbCircle
 10
66.65396007078567
 20
19.37678522322895
 30
0.0
 40
3.937007874015748
100
AcDbArc
 50
286.3200405651124
 51
346.5861028194775
  0
ARC
  5
7601
330
A
100
AcDbEntity
  8
0
  6
Continuous
 62
     7
100
AcDbCircle
 10
25.64572740140381
 20
51.9930299576886
 30
0.0
 40
39.37007874015748
100
AcDbArc
 50
254.5314546645573
 51
273.1878117197432
  0
ARC
  5
7602
330
A
100
AcDbEntity
  8
0
  6
Continuous
 62
     7
100
AcDbCircle
 10
27.95312849337957
 20
21.95527145895849
 30
0.0
 40
15.74803149606299
100
AcDbArc
 50
185.1796546488538
 51
199.4288229283483
  0
ARC
  5
7603
330
A
100
AcDbEntity
  8
0
  6
Continuous
 62
     7
100
AcDbCircle
 10
17.79569235425022
 20
18.19568286102438
 30
0.0
 40
4.921259842519685
100
AcDbArc
 50
197.4867633953254
 51
237.4151915017456
  0
ARC
  5
7604
330
A
100
AcDbEntity
  8
0
  6
Continuous
 62
     7
100
AcDbCircle
 10
110.5122277873211
 20
26.52245451456761
 30
0.0
 40
98.4251968503937
100
AcDbArc
 50
180.0
 51
183.4884432200864
  0
ARC
  5
7618
330
A
100
AcDbEntity
  8
0
  6
Continuous
 62
     7
100
AcDbCircle
 10
-86.33816591346633
 20
26.52245451456761
 30
0.0
 40
158.8976377952756
100
AcDbArc
 50
0.0
 51
1.870115450448485
  0
ARC
  5
7619
330
A
100
AcDbEntity
  8
0
  6
Continuous
 62
     7
100
AcDbCircle
 10
-86.33816591346633
 20
26.52245451456761
 30
0.0
 40
158.8976377952756
100
AcDbArc
 50
358.1298845495515
 51
0.0
  0
ARC
  5
761A
330
A
100
AcDbEntity
  8
0
  6
Continuous
 62
     7
100
AcDbCircle
 10
59.27457125396387
 20
22.18619578147698
 30
0.0
 40
13.22834645669291
100
AcDbArc
 50
341.6276326533391
 51
356.1019241517091
  0
ARC
  5
761B
330
A
100
AcDbEntity
  8
0
  6
Continuous
 62
     7
100
AcDbCircle
 10
66.65396007078567
 20
19.37678522322895
 30
0.0
 40
5.354330708661417
100
AcDbArc
 50
286.3200405651124
 51
346.5861028194775
  0
ARC
  5
761C
330
A
100
AcDbEntity
  8
0
  6
Continuous
 62
     7
100
AcDbCircle
 10
66.65396007078567
 20
33.66812380590628
 30
0.0
 40
5.354330708661417
100
AcDbArc
 50
13.4138971805225
 51
73.67995943488757
  0
ARC
  5
761D
330
A
100
AcDbEntity
  8
0
  6
Continuous
 62
     7
100
AcDbCircle
 10
59.27457125396387
 20
30.85871324765836
 30
0.0
 40
13.22834645669291
100
AcDbArc
 50
3.898075848290946
 51
18.37236734666088
  0
ARC
  5
761E
330
A
100
AcDbEntity
  8
0
  6
Continuous
 62
     7
100
AcDbCircle
 10
51.07927631378197
 20
-39.5064543809269
 30
0.0
 40
80.15748031496062
100
AcDbArc
 50
77.76929280108517
 51
82.90088288762753
  0
ARC
  5
761F
330
A
100
AcDbEntity
  8
0
  6
Continuous
 62
     7
100
AcDbCircle
 10
27.83506243299039
 20
-274.5995927295268
 30
0.0
 40
316.3779527559055
100
AcDbArc
 50
83.99029457361793
 51
90.0
  0
ARC
  5
7620
330
A
100
AcDbEntity
  8
0
  6
Continuous
 62
     7
100
AcDbCircle
 10
51.07927631378197
 20
92.55136341006224
 30
0.0
 40
80.15748031496062
100
AcDbArc
 50
277.0991171123725
 51
282.2307071989148
  0
ARC
  5
7621
330
A
100
AcDbEntity
  8
0
  6
Continuous
 62
     7
100
AcDbCircle
 10
27.83506243299039
 20
327.6445017586622
 30
0.0
 40
316.3779527559055
100
AcDbArc
 50
270.0
 51
276.0097054263821
  0
ARC
  5
7622
330
A
100
AcDbEntity
  8
0
  6
Continuous
 62
     7
100
AcDbCircle
 10
25.64572740140381
 20
51.9930299576886
 30
0.0
 40
40.78740157480314
100
AcDbArc
 50
255.3100960959581
 51
273.1878117197432
  0
ARC
  5
7623
330
A
100
AcDbEntity
  8
0
  6
Continuous
 62
     7
100
AcDbCircle
 10
25.64572740140381
 20
1.051879071446734
 30
0.0
 40
40.78740157480314
100
AcDbArc
 50
86.81218828025675
 51
104.6899039040418
  0
ARC
  5
7624
330
A
100
AcDbEntity
  8
0
  6
Continuous
 62
     7
100
AcDbCircle
 10
110.5122277873211
 20
26.52245451456761
 30
0.0
 40
100.3346456692913
100
AcDbArc
 50
180.0
 51
183.4884432200864
  0
ARC
  5
7625
330
A
100
AcDbEntity
  8
0
  6
Continuous
 62
     7
100
AcDbCircle
 10
110.5122277873211
 20
26.52245451456761
 30
0.0
 40
100.3346456692913
100
AcDbArc
 50
176.5115567799135
 51
180.0
  0
ARC
  5
7626
330
A
100
AcDbEntity
  8
0
  6
Continuous
 62
     7
100
AcDbCircle
 10
27.95312849337957
 20
31.08963757017685
 30
0.0
 40
17.65748031496063
100
AcDbArc
 50
161.6286153241661
 51
174.8203453511462
  0
ARC
  5
7627
330
A
100
AcDbEntity
  8
0
  6
Continuous
 62
     7
100
AcDbCircle
 10
27.95312849337957
 20
21.95527145895849
 30
0.0
 40
17.65748031496063
100
AcDbArc
 50
185.1796546488538
 51
198.3713846758336
  0
ARC
  5
7628
330
A
100
AcDbEntity
  8
0
  6
Continuous
 62
     7
100
AcDbCircle
 10
16.80011624081891
 20
34.79356540583436
 30
0.0
 40
5.905511811023622
100
AcDbArc
 50
104.6899039040418
 51
161.6286153241661
  0
ARC
  5
7629
330
A
100
AcDbEntity
  8
0
  6
Continuous
 62
     7
100
AcDbCircle
 10
16.80011624081891
 20
18.25134362330109
 30
0.0
 40
5.905511811023622
100
AcDbArc
 50
198.3713846758336
 51
255.3100960959581
  0
LINE
  5
782B
330
A
100
AcDbEntity
  8
template
  6
Continuous
 62
   142
 48
10.0
100
AcDbLine
 10
81.16606673519072
 20
35.16001670944375
 30
0.0
 11
81.66606673519073
 21
35.16001670944375
 31
0.0
  0
LINE
  5
782C
330
A
100
AcDbEntity
  8
template
  6
Continuous
 62
   142
 48
10.0
100
AcDbLine
 10
81.16606673519072
 20
26.66001670944376
 30
0.0
 11
81.66606673519073
 21
26.66001670944375
 31
0.0
  0
LINE
  5
782D
330
A
100
AcDbEntity
  8
template
  6
Continuous
 62
   142
 48
10.0
100
AcDbLine
 10
81.16606673519072
 20
18.16001670944375
 30
0.0
 11
81.66606673519073
 21
18.16001670944375
 31
0.0
  0
LINE
  5
782E
330
A
100
AcDbEntity
  8
template
  6
Continuous
 62
   142
 48
10.0
100
AcDbLine
 10
81.66606673519073
 20
43.66001670944377
 30
0.0
 11
81.66606673519074
 21
9.660016709443752
 31
0.0
  0
LINE
  5
7831
330
A
100
AcDbEntity
  8
template
  6
Continuous
 62
   142
 48
10.0
100
AcDbLine
 10
70.66606673519074
 20
10.16001670944375
 30
0.0
 11
70.66606673519074
 21
9.660016709443752
 31
0.0
  0
DIMENSION
  5
7832
330
A
100
AcDbEntity
  8
template
  6
Continuous
 62
   142
 48
4.0
100
AcDbDimension
  2
*D58
 10
76.62447660329269
 20
10.51851750669364
 30
0.0
 11
76.62447660329269
 21
26.52245451456765
 31
0.0
 70
    32
 71
     5
 42
32.00787401574798
  3
STANDARD
100
AcDbAlignedDimension
 13
73.34687345661229
 23
42.52639152244163
 33
0.0
 14
73.34687345661243
 24
10.51851750669364
 34
0.0
 50
90.0
100
AcDbRotatedDimension
  0
DIMENSION
  5
7841
330
A
100
AcDbEntity
  8
template
  6
Continuous
 62
   142
 48
4.0
100
AcDbDimension
  2
*D59
 10
8.150023062911628
 20
20.34582517644897
 30
0.0
 11
41.1421490471636
 21
20.34582517644897
 31
0.0
 70
    32
 71
     5
 42
65.98425196850394
  3
STANDARD
100
AcDbAlignedDimension
 13
74.13427503141557
 23
21.19240110015323
 33
0.0
 14
8.150023062911628
 24
21.19240110015323
 34
0.0
100
AcDbRotatedDimension
  0
VIEWPORT
  5
641A
102
{ACAD_XDICTIONARY
360
7937
102
}
330
6413
100
AcDbEntity
 67
     1
  8
0
  6
Continuous
 62
   142
 48
4.0
100
AcDbViewport
 10
145.3250122070312
 20
101.8250000476837
 30
0.0
 40
550.2034496919917
 41
222.18
 68
     1
 69
     1
 12
145.3250122070312
 22
101.8250000476837
 13
0.0
 23
0.0
 14
0.5
 24
0.5
 15
0.5
 25
0.5
 16
0.0
 26
0.0
 36
1.0
 17
0.0
 27
0.0
 37
0.0
 42
50.0
 43
0.0
 44
0.0
 45
222.18
 50
0.0
 51
0.0
 72
   100
 90
   557088
  1

281
     0
 71
     1
 74
     0
110
0.0
120
0.0
130
0.0
111
1.0
121
0.0
131
0.0
112
0.0
122
1.0
132
0.0
 79
     0
146
0.0
  0
VIEWPORT
  5
641C
102
{ACAD_XDICTIONARY
360
7939
102
}
330
6413
100
AcDbEntity
 67
     1
  8
template
  6
Continuous
 62
   142
 48
4.0
100
AcDbViewport
 10
145.3250061273575
 20
101.8249984979629
 30
0.0
 40
232.5200098037719
 41
162.9199975967407
 68
     2
 69
     2
 12
11.2340093017982
 22
87.49856113919241
 13
0.0
 23
0.0
 14
0.5
 24
0.5
 15
0.5
 25
0.5
 16
0.0
 26
0.0
 36
1.0
 17
0.0
 27
0.0
 37
0.0
 42
50.0
 43
0.0
 44
0.0
 45
48.20725711726906
 50
0.0
 51
0.0
 72
   100
 90
   557088
  1

281
     0
 71
     1
 74
     0
110
0.0
120
0.0
130
0.0
111
1.0
121
0.0
131
0.0
112
0.0
122
1.0
132
0.0
 79
     0
146
0.0
  0
ENDSEC
  0
SECTION
  2
OBJECTS
  0
DICTIONARY
  5
19
330
0
100
AcDbDictionary
281
     1
  3
ACAD_BACKGROUND
350
6410
  3
ACAD_COLOR
350
2A70
  3
ACAD_GROUP
350
1A
  3
ACAD_LAYOUT
350
2A75
  3
ACAD_MATERIAL
350
2A5B
  3
ACAD_MLINESTYLE
350
1B
  3
ACAD_PLOTSETTINGS
350
2A74
  3
ACAD_PLOTSTYLENAME
350
2A59
  3
ACAD_TABLESTYLE
350
2A71
  3
ACAD_VISUALSTYLE
350
2A5F
  3
AcadDim
350
639A
  3
AcDbVariableDictionary
350
469C
  3
DWGPROPS
350
7925
  0
DICTIONARY
  5
5682
330
7
100
AcDbDictionary
280
     1
281
     1
  0
DICTIONARY
  5
46A5
330
2
100
AcDbDictionary
280
     1
281
     1
  3
ACAD_LAYERFILTERS
360
49AD
  3
ACAD_LAYERSTATES
360
47AE
  3
ACLYDICTIONARY
360
49AC
  0
DICTIONARY
  5
2A7B
330
A
100
AcDbDictionary
280
     1
281
     1
  3
ACAD_SORTENTS
360
2A7C
  0
DICTIONARY
  5
7338
330
7337
100
AcDbDictionary
280
     1
281
     1
  3
ACAD_DIMASSOC
360
7339
  0
DICTIONARY
  5
7340
330
733F
100
AcDbDictionary
280
     1
281
     1
  3
ACAD_DIMASSOC
360
7341
  0
DICTIONARY
  5
7343
330
7342
100
AcDbDictionary
280
     1
281
     1
  3
ACAD_DIMASSOC
360
7344
  0
DICTIONARY
  5
7346
330
7345
100
AcDbDictionary
280
     1
281
     1
  3
ACAD_DIMASSOC
360
7347
  0
DICTIONARY
  5
7349
330
7348
100
AcDbDictionary
280
     1
281
     1
  3
ACAD_DIMASSOC
360
734A
  0
DICTIONARY
  5
734D
330
734C
100
AcDbDictionary
280
     1
281
     1
  3
ACAD_DIMASSOC
360
734E
  0
DICTIONARY
  5
7351
330
7350
100
AcDbDictionary
280
     1
281
     1
  3
ACAD_DIMASSOC
360
7352
  0
DICTIONARY
  5
7354
330
7353
100
AcDbDictionary
280
     1
281
     1
  3
ACAD_DIMASSOC
360
7355
  0
DICTIONARY
  5
735F
330
735E
100
AcDbDictionary
280
     1
281
     1
  3
ACAD_DIMASSOC
360
7360
  0
DICTIONARY
  5
7362
330
7361
100
AcDbDictionary
280
     1
281
     1
  3
ACAD_DIMASSOC
360
7363
  0
DICTIONARY
  5
7366
330
7365
100
AcDbDictionary
280
     1
281
     1
  3
ACAD_DIMASSOC
360
7367
  0
DICTIONARY
  5
7386
330
7385
100
AcDbDictionary
280
     1
281
     1
  3
ACAD_DIMASSOC
360
7387
  0
DICTIONARY
  5
7390
330
738F
100
AcDbDictionary
280
     1
281
     1
  3
ACAD_DIMASSOC
360
7391
  0
DICTIONARY
  5
73A1
330
73A0
100
AcDbDictionary
280
     1
281
     1
  3
ACAD_DIMASSOC
360
73A2
  0
DICTIONARY
  5
73A4
330
73A3
100
AcDbDictionary
280
     1
281
     1
  3
ACAD_DIMASSOC
360
73A5
  0
DICTIONARY
  5
73CC
330
73CB
100
AcDbDictionary
280
     1
281
     1
  3
ACAD_DIMASSOC
360
73CD
  0
DICTIONARY
  5
7937
330
641A
100
AcDbDictionary
280
     1
281
     1
  3
ACAD_XREC_ROUNDTRIP
360
7938
  0
DICTIONARY
  5
7939
330
641C
100
AcDbDictionary
280
     1
281
     1
  3
ACAD_XREC_ROUNDTRIP
360
793A
  0
DICTIONARY
  5
6410
102
{ACAD_REACTORS
330
19
102
}
330
19
100
AcDbDictionary
281
     1
  0
DICTIONARY
  5
2A70
102
{ACAD_REACTORS
330
19
102
}
330
19
100
AcDbDictionary
281
     1
  3
DIC COLOR GUIDE(R)$DIC 181
350
47AD
  0
DICTIONARY
  5
1A
102
{ACAD_REACTORS
330
19
102
}
330
19
100
AcDbDictionary
281
     1
  3
*A1
350
47A9
  3
*A2
350
4F22
  0
DICTIONARY
  5
2A75
102
{ACAD_REACTORS
330
19
102
}
330
19
100
AcDbDictionary
281
     1
  3
Layout1
350
6414
  3
Model
350
2A76
  0
DICTIONARY
  5
2A5B
102
{ACAD_REACTORS
330
19
102
}
330
19
100
AcDbDictionary
281
     1
  3
ByBlock
350
2A5D
  3
ByLayer
350
2A5C
  3
Global
350
2A5E
  0
DICTIONARY
  5
1B
102
{ACAD_REACTORS
330
19
102
}
330
19
100
AcDbDictionary
281
     1
  3
STANDARD
350
1C
  0
DICTIONARY
  5
2A74
102
{ACAD_REACTORS
330
19
102
}
330
19
100
AcDbDictionary
281
     1
  3
Paper 24 x 70
350
64AF
  3
Paper 34 x 66
350
6D31
  3
Paper 34 x 77
350
7875
  3
Setup1
350
47AA
  3
Setup2
350
47AB
  3
template paper size
350
47AC
  0
ACDBDICTIONARYWDFLT
  5
2A59
102
{ACAD_REACTORS
330
19
102
}
330
19
100
AcDbDictionary
281
     1
  3
Normal
350
2A5A
100
AcDbDictionaryWithDefault
340
2A5A
  0
DICTIONARY
  5
2A71
102
{ACAD_REACTORS
330
19
102
}
330
19
100
AcDbDictionary
281
     1
  3
Standard
350
2A72
  0
DICTIONARY
  5
2A5F
102
{ACAD_REACTORS
330
19
102
}
330
19
100
AcDbDictionary
281
     1
  3
2dWireframe
350
2A65
  3
3D Hidden
350
71DA
  3
3dWireframe
350
71D9
  3
Basic
350
2A64
  3
Brighten
350
2A6B
  3
ColorChange
350
2A6F
  3
Conceptual
350
71DB
  3
Dim
350
2A6A
  3
Facepattern
350
2A6E
  3
Flat
350
2A60
  3
FlatWithEdges
350
2A61
  3
Gouraud
350
2A62
  3
GouraudWithEdges
350
2A63
  3
Linepattern
350
2A6D
  3
Realistic
350
71DC
  3
Thicken
350
2A6C
  0
XRECORD
  5
639A
102
{ACAD_REACTORS
330
19
102
}
330
19
100
AcDbXrecord
280
     1
 90
   990106
  3

 60
     0
 61
     0
 62
     1
 63
     3
 64
     0
 65
     0
 66
     0
 67
     3
 68
     1
 69
     0
 70
     0
 71
     0
 72
     0
 40
0.0
170
     0
340
6BD8
  0
DICTIONARY
  5
469C
102
{ACAD_REACTORS
330
19
102
}
330
19
100
AcDbDictionary
281
     1
  3
CTABLESTYLE
350
469D
  3
DIMASSOC
350
7924
  3
INDEXCTL
350
7923
  3
SORTENTS
350
7922
  0
XRECORD
  5
7925
102
{ACAD_REACTORS
330
19
102
}
330
19
100
AcDbXrecord
280
     1
  1
DWGPROPS COOKIE
  2

  3

  4

  6

  7

  8
jgayle
  9

300
=
301
=
302
=
303
=
304
=
305
=
306
=
307
=
308
=
309
=
 40
0.7309743865740741
 41
2311888.289094722
 42
2455154.425472176
  1

 90
        0
  0
DICTIONARY
  5
49AD
102
{ACAD_REACTORS
330
46A5
102
}
330
46A5
100
AcDbDictionary
281
     1
  0
DICTIONARY
  5
47AE
102
{ACAD_REACTORS
330
46A5
102
}
330
46A5
100
AcDbDictionary
281
     1
  0
DICTIONARY
  5
49AC
102
{ACAD_REACTORS
330
46A5
102
}
330
46A5
100
AcDbDictionary
281
     1
1001
ACAD
1000
<All
  0
SORTENTSTABLE
  5
2A7C
102
{ACAD_REACTORS
330
2A7B
102
}
330
2A7B
100
AcDbSortentsTable
330
A
331
487A
  5
4888
331
5F80
  5
5F80
331
4882
  5
48C0
331
5F90
  5
5F90
331
75FB
  5
75FE
331
7603
  5
7619
331
761B
  5
761E
331
782D
  5
7830
331
5FA0
  5
5FA0
331
6B7E
  5
6B80
331
6B86
  5
6B7F
331
5FF8
  5
5FF8
331
7623
  5
7626
331
75EC
  5
75F0
331
75F4
  5
75F7
331
487B
  5
4889
331
6010
  5
6010
331
4883
  5
48CF
331
488B
  5
490F
331
5F91
  5
5F91
331
5F99
  5
5F99
331
75FC
  5
75FF
331
7604
  5
761A
331
761C
  5
761F
331
782E
  5
7831
331
6B7F
  5
6B82
331
5FF1
  5
5FF1
331
5F72
  5
5F72
331
5FF9
  5
5FF9
331
6BD7
  5
75E9
331
4874
  5
4882
331
7624
  5
7627
331
75ED
  5
75F1
331
75F5
  5
75F8
331
487C
  5
488A
331
6011
  5
6011
331
4884
  5
48D0
331
60A9
  5
60A9
331
5F9A
  5
5F9A
331
75FD
  5
7600
331
761D
  5
7620
331
6B80
  5
6B84
331
5F6B
  5
5F6B
331
5FF2
  5
5FF2
331
5FFA
  5
5FFA
331
6BD8
  5
75EA
331
4875
  5
4883
331
600A
  5
600A
331
7625
  5
7628
331
75EE
  5
75F2
331
75F6
  5
75F9
331
487D
  5
488B
331
6012
  5
6012
331
4885
  5
48D1
331
634A
  5
634A
331
6B61
  5
6B7D
331
75FE
  5
7601
331
761E
  5
7621
331
5FF3
  5
5FF3
331
6B81
  5
6B86
331
5F74
  5
5F74
331
4876
  5
4884
331
600B
  5
600B
331
75E7
  5
75EB
331
7626
  5
7629
331
75F7
  5
75FB
331
487E
  5
488C
331
6013
  5
6013
331
4886
  5
48D2
331
5F8C
  5
5F8C
331
75FF
  5
7602
331
6B72
  5
6B7B
331
761F
  5
7622
331
7831
  5
75E7
331
639B
  5
639B
331
4D7E
  5
4E39
331
5FA4
  5
5FA4
331
6B82
  5
6BD7
331
5FF4
  5
5FF4
331
4877
  5
4885
331
600C
  5
600C
331
7627
  5
782B
331
75F0
  5
75F3
331
487F
  5
488D
331
4887
  5
48D3
331
75F8
  5
75FC
331
6B73
  5
6B73
331
7600
  5
7603
331
7618
  5
761B
331
639C
  5
639C
331
6B83
  5
6B85
331
5FF5
  5
5FF5
331
5F7E
  5
5F7E
331
600D
  5
600D
331
7620
  5
7623
331
75E9
  5
75EC
331
7628
  5
782C
331
75F1
  5
75F4
331
4878
  5
4886
331
4880
  5
488E
331
5F8E
  5
5F8E
331
6B64
  5
6BD8
331
5F96
  5
5F96
331
75F9
  5
75FD
331
6B74
  5
6B75
331
7601
  5
7604
331
7619
  5
761C
331
782B
  5
782E
331
5F67
  5
5F67
331
6B84
  5
6B83
331
5FF6
  5
5FF6
331
600E
  5
600E
331
7621
  5
7624
331
75EA
  5
75ED
331
7629
  5
782D
331
75F2
  5
75F5
331
4879
  5
4887
331
4881
  5
48A7
331
6B5D
  5
6B5D
331
6B75
  5
6B77
331
7602
  5
7618
331
761A
  5
761D
331
782C
  5
782F
331
6B7D
  5
6B7E
331
6B85
  5
6B81
331
5FF7
  5
5FF7
331
600F
  5
600F
331
7622
  5
7625
331
75EB
  5
75EE
331
75F3
  5
75F6
  0
DIMASSOC
  5
7339
102
{ACAD_REACTORS
330
7338
102
}
330
7338
100
AcDbDimAssoc
330
7337
 90
        2
 70
     0
 71
     0
  1
AcDbOsnapPointRef
 72
     3
331
739C
 73
     2
 91
        0
 40
0.0
 10
0.0
 20
0.0
 30
0.0
 75
     0
  0
DIMASSOC
  5
7341
102
{ACAD_REACTORS
330
7340
102
}
330
7340
100
AcDbDimAssoc
330
733F
 90
        3
 70
     0
 71
     0
  1
AcDbOsnapPointRef
 72
    13
331
733C
 73
     2
 91
        0
 40
0.0
 10
0.0
 20
0.0
 30
2.000000000000000E+50
 75
     0
  1
AcDbOsnapPointRef
 72
    13
331
733B
 73
     2
 91
        0
 40
0.0
 10
0.0
 20
0.0
 30
2.000000000000000E+50
 75
     0
  0
DIMASSOC
  5
7344
102
{ACAD_REACTORS
330
7343
102
}
330
7343
100
AcDbDimAssoc
330
7342
 90
        2
 70
     0
 71
     0
  1
AcDbOsnapPointRef
 72
    13
331
733A
 73
     2
 91
        0
 40
0.0
 10
0.0
 20
0.0
 30
2.000000000000000E+50
 75
     0
  0
DIMASSOC
  5
7347
102
{ACAD_REACTORS
330
7346
102
}
330
7346
100
AcDbDimAssoc
330
7345
 90
        3
 70
     0
 71
     0
  1
AcDbOsnapPointRef
 72
    13
331
733A
 73
     2
 91
        0
 40
0.0
 10
0.0
 20
0.0
 30
2.000000000000000E+50
 75
     0
  1
AcDbOsnapPointRef
 72
    13
331
733D
 73
     2
 91
        0
 40
0.0
 10
0.0
 20
0.0
 30
2.000000000000000E+50
 75
     0
  0
DIMASSOC
  5
734A
102
{ACAD_REACTORS
330
7349
102
}
330
7349
100
AcDbDimAssoc
330
7348
 90
        3
 70
     0
 71
     0
  1
AcDbOsnapPointRef
 72
    13
331
733D
 73
     2
 91
        0
 40
0.0
 10
0.0
 20
0.0
 30
2.000000000000000E+50
 75
     0
  1
AcDbOsnapPointRef
 72
    13
331
733E
 73
     2
 91
        0
 40
0.0
 10
0.0
 20
0.0
 30
2.000000000000000E+50
 75
     0
  0
DIMASSOC
  5
734E
102
{ACAD_REACTORS
330
734D
102
}
330
734D
100
AcDbDimAssoc
330
734C
 90
        2
 70
     0
 71
     0
  1
AcDbOsnapPointRef
 72
     3
331
738C
 73
     2
 91
        0
 40
0.0
 10
0.0
 20
0.0
 30
0.0
 75
     0
  0
DIMASSOC
  5
7352
102
{ACAD_REACTORS
330
7351
102
}
330
7351
100
AcDbDimAssoc
330
7350
 90
        2
 70
     0
 71
     0
  1
AcDbOsnapPointRef
 72
     3
331
735C
 73
     2
 91
        0
 40
0.0
 10
0.0
 20
0.0
 30
0.0
 75
     0
  0
DIMASSOC
  5
7355
102
{ACAD_REACTORS
330
7354
102
}
330
7354
100
AcDbDimAssoc
330
7353
 90
        2
 70
     0
 71
     0
  1
AcDbOsnapPointRef
 72
     3
331
735D
 73
     2
 91
        0
 40
0.0
 10
0.0
 20
0.0
 30
0.0
 75
     0
  0
DIMASSOC
  5
7360
102
{ACAD_REACTORS
330
735F
102
}
330
735F
100
AcDbDimAssoc
330
735E
 90
        2
 70
     0
 71
     0
  1
AcDbOsnapPointRef
 72
     3
331
7382
 73
     2
 91
        0
 40
0.0
 10
0.0
 20
0.0
 30
0.0
 75
     0
  0
DIMASSOC
  5
7363
102
{ACAD_REACTORS
330
7362
102
}
330
7362
100
AcDbDimAssoc
330
7361
 90
        2
 70
     0
 71
     0
  1
AcDbOsnapPointRef
 72
     3
331
7383
 73
     2
 91
        0
 40
0.0
 10
0.0
 20
0.0
 30
0.0
 75
     0
  0
DIMASSOC
  5
7367
102
{ACAD_REACTORS
330
7366
102
}
330
7366
100
AcDbDimAssoc
330
7365
 90
        2
 70
     0
 71
     0
  1
AcDbOsnapPointRef
 72
     3
331
7397
 73
     2
 91
        0
 40
0.0
 10
0.0
 20
0.0
 30
0.0
 75
     0
  0
DIMASSOC
  5
7387
102
{ACAD_REACTORS
330
7386
102
}
330
7386
100
AcDbDimAssoc
330
7385
 90
        3
 70
     0
 71
     0
  1
AcDbOsnapPointRef
 72
     6
331
738B
 73
     2
 91
        0
 40
0.0750704910767175
 10
0.0
 20
0.0
 30
0.0
332
739B
 74
     2
 92
        0
 75
     0
  1
AcDbOsnapPointRef
 72
     1
331
739E
 73
     2
 91
        0
 40
1.0
 10
0.0
 20
0.0
 30
2.000000000000000E+50
 75
     0
  0
DIMASSOC
  5
7391
102
{ACAD_REACTORS
330
7390
102
}
330
7390
100
AcDbDimAssoc
330
738F
 90
        1
 70
     0
 71
     0
  1
AcDbOsnapPointRef
 72
    13
331
7399
 73
     2
 91
        0
 40
0.0
 10
0.0
 20
0.0
 30
2.000000000000000E+50
 75
     0
  0
DIMASSOC
  5
73A2
102
{ACAD_REACTORS
330
73A1
102
}
330
73A1
100
AcDbDimAssoc
330
73A0
 90
        3
 70
     0
 71
     0
  1
AcDbOsnapPointRef
 72
     1
331
7398
 73
     2
 91
        0
 40
3.141415342808722
 10
0.0
 20
0.0
 30
2.000000000000000E+50
 75
     0
  1
AcDbOsnapPointRef
 72
     8
331
7375
 73
     2
 91
        0
 40
6.283172743030677
 10
0.0
 20
0.0
 30
0.0
 75
     1
  1
AcDbOsnapPointRef
 72
     1
331
7398
 73
     2
 91
        0
 40
3.141415342808722
 10
0.0
 20
0.0
 30
2.000000000000000E+50
 75
     0
  0
DIMASSOC
  5
73A5
102
{ACAD_REACTORS
330
73A4
102
}
330
73A4
100
AcDbDimAssoc
330
73A3
 90
        2
 70
     0
 71
     0
  1
AcDbOsnapPointRef
 72
     3
331
7398
 73
     2
 91
        0
 40
0.0
 10
0.0
 20
0.0
 30
0.0
 75
     0
  0
DIMASSOC
  5
73CD
102
{ACAD_REACTORS
330
73CC
102
}
330
73CC
100
AcDbDimAssoc
330
73CB
 90
        3
 70
     0
 71
     0
  1
AcDbOsnapPointRef
 72
     1
331
73B4
 73
     2
 91
        0
 40
1.51728254366419
 10
0.0
 20
0.0
 30
2.000000000000000E+50
 75
     0
  1
AcDbOsnapPointRef
 72
     1
331
73BD
 73
     2
 91
        0
 40
4.765902763515413
 10
0.0
 20
0.0
 30
2.000000000000000E+50
 75
     0
  0
XRECORD
  5
7938
102
{ACAD_REACTORS
330
7937
102
}
330
7937
100
AcDbXrecord
280
     1
102
SHADEPLOT
 70
     0
  0
XRECORD
  5
793A
102
{ACAD_REACTORS
330
7939
102
}
330
7939
100
AcDbXrecord
280
     1
102
SHADEPLOT
 70
     0
  0
DBCOLOR
  5
47AD
102
{ACAD_REACTORS
330
2A70
102
}
330
2A70
100
AcDbColor
  0
GROUP
  5
47A9
102
{ACAD_REACTORS
330
1A
102
}
330
1A
100
AcDbGroup
300

 70
     0
 71
     1
  0
GROUP
  5
4F22
102
{ACAD_REACTORS
330
1A
102
}
330
1A
100
AcDbGroup
300

 70
     0
 71
     1
  0
LAYOUT
  5
6414
102
{ACAD_XDICTIONARY
360
6421
102
}
102
{ACAD_REACTORS
330
2A75
102
}
330
2A75
100
AcDbPlotSettings
  1

  2
Fax
  4
A4 Small
  6

 40
3.174999952316284
 41
3.174999952316284
 42
3.175003051757812
 43
3.17498779296875
 44
210.0
 45
297.0
 46
0.0
 47
0.0
 48
0.0
 49
0.0
140
0.0
141
0.0
142
1.0
143
1.0
 70
   688
 72
     1
 73
     1
 74
     5
  7
monochrome.ctb
 75
    16
147
1.0
148
0.0
149
0.0
100
AcDbLayout
  1
Layout1
 70
     1
 71
     1
 10
-3.17498779296875
 20
-3.174999952316284
 11
293.8250122070312
 21
206.8250000476837
 12
0.0
 22
0.0
 32
0.0
 14
29.0650012254715
 24
20.3649996995926
 34
0.0
 15
261.5850110292434
 25
183.2849972963333
 35
0.0
146
0.0
 13
0.0
 23
0.0
 33
0.0
 16
1.0
 26
0.0
 36
0.0
 17
0.0
 27
1.0
 37
0.0
 76
     0
330
6413
331
641A
1001
ACAD_PSEXT
1000
Fax
1000
Microsoft Shared Fax Driver
1000
SHRFAX:
1000

1070
     0
  0
LAYOUT
  5
2A76
102
{ACAD_XDICTIONARY
360
792E
102
}
102
{ACAD_REACTORS
330
2A75
102
}
330
2A75
100
AcDbPlotSettings
  1
Paper 34 x 77
  2
HP DesignJet 500 42.pc3
  4
User259
  6

 40
4.995333194732666
 41
16.97574996948242
 42
4.99530029296875
 43
16.9757080078125
 44
914.357666015625
 45
1981.115356445312
 46
20.2657361916676
 47
-4.545277396197252
 48
49.12974605866123
 49
22.31177225853103
140
91.12974605866126
141
94.31177225853103
142
1.0
143
1.0
 70
 11956
 72
     0
 73
     1
 74
     1
  7
monochrome.ctb
 75
    16
147
1.0
148
-118.3616247466743
149
-245.2429336104137
100
AcDbLayout
  1
Model
 70
     1
 71
     0
 10
0.0
 20
0.0
 11
12.0
 21
9.0
 12
0.0
 22
0.0
 32
0.0
 14
0.0
 24
0.0
 34
0.0
 15
0.0
 25
0.0
 35
0.0
146
0.0
 13
0.0
 23
0.0
 33
0.0
 16
1.0
 26
0.0
 36
0.0
 17
0.0
 27
1.0
 37
0.0
 76
     0
330
A
331
15
1001
ACAD_PSEXT
1000
HP DesignJet 500 42.pc3
1000
HP DesignJet 500 42+HPGL2 Card
1000
IP_172.16.4.69
1000

1070
     0
  0
MATERIAL
  5
2A5D
102
{ACAD_XDICTIONARY
360
7928
102
}
102
{ACAD_REACTORS
330
2A5B
102
}
330
2A5B
100
AcDbMaterial
  1
ByBlock
  0
MATERIAL
  5
2A5C
102
{ACAD_XDICTIONARY
360
7926
102
}
102
{ACAD_REACTORS
330
2A5B
102
}
330
2A5B
100
AcDbMaterial
  1
ByLayer
  0
MATERIAL
  5
2A5E
102
{ACAD_XDICTIONARY
360
792A
102
}
102
{ACAD_REACTORS
330
2A5B
102
}
330
2A5B
100
AcDbMaterial
  1
Global
  0
MLINESTYLE
  5
1C
102
{ACAD_REACTORS
330
1B
102
}
330
1B
100
AcDbMlineStyle
  2
STANDARD
 70
     0
  3

 62
     0
 51
90.0
 52
90.0
 71
     2
 49
0.5
 62
   256
  6
BYLAYER
 49
-0.5
 62
   256
  6
BYLAYER
  0
PLOTSETTINGS
  5
64AF
102
{ACAD_XDICTIONARY
360
793B
102
}
102
{ACAD_REACTORS
330
2A74
102
}
330
2A74
100
AcDbPlotSettings
  1
Paper 24 x 70
  2
HP DesignJet 500 42.pc3
  4
User257
  6

 40
4.995333194732666
 41
16.97562789916992
 42
4.99530029296875
 43
16.9757080078125
 44
609.5576782226562
 45
1777.915283203125
 46
1.406275960349696
 47
8.329263687072156
 48
49.12974605866123
 49
22.31177225853103
140
91.12974605866126
141
94.31177225853103
142
1.0
143
1.0
 70
 11956
 72
     0
 73
     1
 74
     1
  7
monochrome.ctb
 75
    16
147
1.0
148
578.3088696738741
149
-1924.038042661773
1001
ACAD_PSEXT
1000
HP DesignJet 500 42.pc3
1000
HP DesignJet 500 42+HPGL2 Card
1000
IP_172.16.4.69
1000

1070
     0
  0
PLOTSETTINGS
  5
6D31
102
{ACAD_XDICTIONARY
360
793D
102
}
102
{ACAD_REACTORS
330
2A74
102
}
330
2A74
100
AcDbPlotSettings
  1
Paper 34 x 66
  2
HP DesignJet 500 42.pc3
  4
User258
  6

 40
4.995333194732666
 41
16.97562789916992
 42
4.99530029296875
 43
16.9757080078125
 44
863.5576782226562
 45
1676.315307617187
 46
-5.016477632523386
 47
-17.01801414489796
 48
49.12974605866123
 49
22.31177225853103
140
91.12974605866126
141
94.31177225853103
142
1.0
143
1.0
 70
 11956
 72
     0
 73
     1
 74
     1
  7
monochrome.ctb
 75
    16
147
1.0
148
-118.5180950738438
149
-245.3644244198699
1001
ACAD_PSEXT
1000
HP DesignJet 500 42.pc3
1000
HP DesignJet 500 42+HPGL2 Card
1000
IP_172.16.4.69
1000

1070
     0
  0
PLOTSETTINGS
  5
7875
102
{ACAD_XDICTIONARY
360
7940
102
}
102
{ACAD_REACTORS
330
2A74
102
}
330
2A74
100
AcDbPlotSettings
  1
Paper 34 x 77
  2
HP DesignJet 500 42.pc3
  4
User259
  6

 40
4.995333194732666
 41
16.97574996948242
 42
4.99530029296875
 43
16.9757080078125
 44
914.357666015625
 45
1981.115356445312
 46
20.2657361916676
 47
-4.545277396197252
 48
49.12974605866123
 49
22.31177225853103
140
91.12974605866126
141
94.31177225853103
142
1.0
143
1.0
 70
 11956
 72
     0
 73
     1
 74
     1
  7
monochrome.ctb
 75
    16
147
1.0
148
-118.3616247466743
149
-245.2429336104137
1001
ACAD_PSEXT
1000
HP DesignJet 500 42.pc3
1000
HP DesignJet 500 42+HPGL2 Card
1000
IP_172.16.4.69
1000

1070
     0
  0
PLOTSETTINGS
  5
47AA
102
{ACAD_XDICTIONARY
360
7930
102
}
102
{ACAD_REACTORS
330
2A74
102
}
330
2A74
100
AcDbPlotSettings
  1
Setup1
  2
\\totosrv3\RD-03-HPDJ500
  4
User616
  6

 40
0.0
 41
0.0
 42
0.0
 43
0.0
 44
863.6000366210938
 45
1117.599975585937
 46
-691.9704068398781
 47
-1006.535115846916
 48
49.12974605866123
 49
22.31177225853103
140
91.12974605866126
141
94.31177225853103
142
1.0
143
1.0
 70
 11956
 72
     0
 73
     1
 74
     0
  7
monochrome.ctb
 75
    16
147
1.0
148
-283.0690141168545
149
-416.3630618764871
1001
ACAD_PSEXT
1000
\\totosrv3\RD-03-HPDJ500
1000
HP DesignJet 500 42+HPGL2 Card
1000
R & D/Quality Engineering
1000
IP 172.16.4.69, HP DesignJet 500, S/N
1070
     0
  0
PLOTSETTINGS
  5
47AB
102
{ACAD_XDICTIONARY
360
7932
102
}
102
{ACAD_REACTORS
330
2A74
102
}
330
2A74
100
AcDbPlotSettings
  1
Setup2
  2
\\totosrv3\RD-03-HPDJ500
  4
User262
  6

 40
4.995333194732666
 41
16.97567367553711
 42
4.995330810546875
 43
16.97567749023437
 44
215.857666015625
 45
279.3153381347656
 46
0.0
 47
0.0
 48
0.0
 49
0.0
140
0.0
141
0.0
142
1.0
143
12.75928976356006
 70
 11952
 72
     0
 73
     1
 74
     0
  7
monochrome.ctb
 75
     0
147
0.0783742683590394
148
-283.0690141168545
149
-416.3630618764871
1001
ACAD_PSEXT
1000
\\totosrv3\RD-03-HPDJ500
1000
HP DesignJet 500 42+HPGL2 Card
1000
R & D/Quality Engineering
1000
IP 172.16.4.69, HP DesignJet 500, S/N
1070
     0
  0
PLOTSETTINGS
  5
47AC
102
{ACAD_XDICTIONARY
360
7934
102
}
102
{ACAD_REACTORS
330
2A74
102
}
330
2A74
100
AcDbPlotSettings
  1
template paper size
  2
\\totosrv3\RD-03-HPDJ500
  4
User616
  6

 40
0.0
 41
0.0
 42
0.0
 43
0.0
 44
863.6000366210938
 45
1117.599975585937
 46
-691.9704068398781
 47
-1006.535115846916
 48
49.12974605866123
 49
22.31177225853103
140
91.12974605866126
141
94.31177225853103
142
1.0
143
1.0
 70
 11956
 72
     0
 73
     1
 74
     0
  7
monochrome.ctb
 75
    16
147
1.0
148
-283.0690141168545
149
-416.3630618764871
1001
ACAD_PSEXT
1000
\\totosrv3\RD-03-HPDJ500
1000
HP DesignJet 500 42+HPGL2 Card
1000
R & D/Quality Engineering
1000
IP 172.16.4.69, HP DesignJet 500, S/N
1070
     0
  0
ACDBPLACEHOLDER
  5
2A5A
102
{ACAD_REACTORS
330
2A59
102
}
330
2A59
  0
TABLESTYLE
  5
2A72
102
{ACAD_XDICTIONARY
360
792C
102
}
102
{ACAD_REACTORS
330
2A71
102
}
330
2A71
100
AcDbTableStyle
  3
Standard
 70
     0
 71
     0
 40
1.5
 41
1.5
280
     0
281
     0
  7
STANDARD
140
4.5
170
     2
 62
     0
 63
     7
283
     0
274
    -2
284
     1
 64
     0
275
    -2
285
     1
 65
     0
276
    -2
286
     1
 66
     0
277
    -2
287
     1
 67
     0
278
    -2
288
     1
 68
     0
279
    -2
289
     1
 69
     0
  7
STANDARD
140
6.0
170
     5
 62
     0
 63
     7
283
     0
274
    -2
284
     1
 64
     0
275
    -2
285
     1
 65
     0
276
    -2
286
     1
 66
     0
277
    -2
287
     1
 67
     0
278
    -2
288
     1
 68
     0
279
    -2
289
     1
 69
     0
  7
STANDARD
140
4.5
170
     5
 62
     0
 63
     7
283
     0
274
    -2
284
     1
 64
     0
275
    -2
285
     1
 65
     0
276
    -2
286
     1
 66
     0
277
    -2
287
     1
 67
     0
278
    -2
288
     1
 68
     0
279
    -2
289
     1
 69
     0
  0
VISUALSTYLE
  5
2A65
102
{ACAD_REACTORS
330
2A5F
102
}
330
2A5F
100
AcDbVisualStyle
  2
2dWireframe
 70
     4
 71
     0
 72
     2
 73
     0
 90
        0
 40
-0.6
 41
-30.0
 62
     5
 63
     7
 74
     1
 91
        4
 64
     7
 65
   257
 75
     1
175
     1
 42
1.0
 92
        0
 66
   257
 43
1.0
 76
     1
 77
     6
 78
     2
 67
     7
 79
     5
170
     0
171
     0
290
     0
174
     0
 93
        1
 44
0.0
173
     0
291
     0
 45
0.0
1001
ACAD
1000
AcDbSavedByObjectVersion
1070
     0
  0
VISUALSTYLE
  5
71DA
102
{ACAD_REACTORS
330
2A5F
102
}
330
2A5F
100
AcDbVisualStyle
  2
3D Hidden
 70
     6
 71
     1
 72
     2
 73
     2
 90
        0
 40
-0.6
 41
-30.0
 62
     5
 63
     7
 74
     2
 91
        2
 64
     7
 65
   257
 75
     2
175
     1
 42
40.0
 92
        0
 66
   257
 43
1.0
 76
     1
 77
     6
 78
     2
 67
     7
 79
     3
170
     0
171
     0
290
     0
174
     0
 93
        1
 44
0.0
173
     0
291
     0
 45
0.0
1001
ACAD
1000
AcDbSavedByObjectVersion
1070
     0
  0
VISUALSTYLE
  5
71D9
102
{ACAD_REACTORS
330
2A5F
102
}
330
2A5F
100
AcDbVisualStyle
  2
3dWireframe
 70
     5
 71
     0
 72
     2
 73
     0
 90
        0
 40
-0.6
 41
-30.0
 62
     5
 63
     7
 74
     1
 91
        4
 64
     7
 65
   257
 75
     1
175
     1
 42
1.0
 92
        0
 66
   257
 43
1.0
 76
     1
 77
     6
 78
     2
 67
     7
 79
     5
170
     0
171
     0
290
     0
174
     0
 93
        1
 44
0.0
173
     0
291
     0
 45
0.0
1001
ACAD
1000
AcDbSavedByObjectVersion
1070
     0
  0
VISUALSTYLE
  5
2A64
102
{ACAD_REACTORS
330
2A5F
102
}
330
2A5F
100
AcDbVisualStyle
  2
Basic
 70
     7
 71
     1
 72
     0
 73
     1
 90
        0
 40
-0.6
 41
-30.0
 62
     5
 63
     7
 74
     0
 91
        4
 64
     7
 65
   257
 75
     1
175
     1
 42
1.0
 92
        8
 66
     7
 43
1.0
 76
     1
 77
     6
 78
     2
 67
     7
 79
     5
170
     0
171
     0
290
     0
174
     0
 93
        1
 44
0.0
173
     0
291
     1
 45
0.0
1001
ACAD
1000
AcDbSavedByObjectVersion
1070
     0
  0
VISUALSTYLE
  5
2A6B
102
{ACAD_REACTORS
330
2A5F
102
}
330
2A5F
100
AcDbVisualStyle
  2
Brighten
 70
    12
 71
     2
 72
     2
 73
     0
 90
        0
 40
-0.6
 41
-30.0
 62
     5
 63
     7
 74
     1
 91
        4
 64
     7
 65
   257
 75
     1
175
     1
 42
1.0
 92
        8
 66
     7
 43
1.0
 76
     1
 77
     6
 78
     2
 67
     7
 79
     5
170
     0
171
     0
290
     0
174
     0
 93
        1
 44
50.0
173
     0
291
     1
 45
0.0
1001
ACAD
1000
AcDbSavedByObjectVersion
1070
     0
  0
VISUALSTYLE
  5
2A6F
102
{ACAD_REACTORS
330
2A5F
102
}
330
2A5F
100
AcDbVisualStyle
  2
ColorChange
 70
    16
 71
     2
 72
     2
 73
     3
 90
        0
 40
-0.6
 41
-30.0
 62
     5
 63
     8
 74
     1
 91
        4
 64
     7
 65
   257
 75
     1
175
     1
 42
1.0
 92
        8
 66
     8
 43
1.0
 76
     1
 77
     6
 78
     2
 67
     7
 79
     5
170
     0
171
     0
290
     0
174
     0
 93
        1
 44
0.0
173
     0
291
     1
 45
0.0
1001
ACAD
1000
AcDbSavedByObjectVersion
1070
     0
  0
VISUALSTYLE
  5
71DB
102
{ACAD_REACTORS
330
2A5F
102
}
330
2A5F
100
AcDbVisualStyle
  2
Conceptual
 70
     9
 71
     3
 72
     2
 73
     0
 90
        0
 40
-0.6
 41
-30.0
 62
     5
 63
     7
 74
     2
 91
        2
 64
     7
 65
   257
 75
     1
175
     1
 42
40.0
 92
        8
 66
     7
 43
1.0
 76
     1
 77
     6
 78
     2
 67
     7
 79
     3
170
     0
171
     0
290
     0
174
     0
 93
        1
 44
0.0
173
     0
291
     0
 45
0.0
1001
ACAD
1000
AcDbSavedByObjectVersion
1070
     0
  0
VISUALSTYLE
  5
2A6A
102
{ACAD_REACTORS
330
2A5F
102
}
330
2A5F
100
AcDbVisualStyle
  2
Dim
 70
    11
 71
     2
 72
     2
 73
     0
 90
        0
 40
-0.6
 41
-30.0
 62
     5
 63
     7
 74
     1
 91
        4
 64
     7
 65
   257
 75
     1
175
     1
 42
1.0
 92
        8
 66
     7
 43
1.0
 76
     1
 77
     6
 78
     2
 67
     7
 79
     5
170
     0
171
     0
290
     0
174
     0
 93
        1
 44
-50.0
173
     0
291
     1
 45
0.0
1001
ACAD
1000
AcDbSavedByObjectVersion
1070
     0
  0
VISUALSTYLE
  5
2A6E
102
{ACAD_REACTORS
330
2A5F
102
}
330
2A5F
100
AcDbVisualStyle
  2
Facepattern
 70
    15
 71
     2
 72
     2
 73
     0
 90
        0
 40
-0.6
 41
-30.0
 62
     5
 63
     7
 74
     1
 91
        4
 64
     7
 65
   257
 75
     1
175
     1
 42
1.0
 92
        8
 66
     7
 43
1.0
 76
     1
 77
     6
 78
     2
 67
     7
 79
     5
170
     0
171
     0
290
     0
174
     0
 93
        1
 44
0.0
173
     0
291
     1
 45
0.0
1001
ACAD
1000
AcDbSavedByObjectVersion
1070
     0
  0
VISUALSTYLE
  5
2A60
102
{ACAD_REACTORS
330
2A5F
102
}
330
2A5F
100
AcDbVisualStyle
  2
Flat
 70
     0
 71
     2
 72
     1
 73
     1
 90
        2
 40
-0.6
 41
30.0
 62
     5
 63
     7
 74
     0
 91
        4
 64
     7
 65
   257
 75
     1
175
     1
 42
1.0
 92
        8
 66
     7
 43
1.0
 76
     1
 77
     6
 78
     2
 67
     7
 79
     5
170
     0
171
     0
290
     0
174
     0
 93
       13
 44
0.0
173
     0
291
     1
 45
0.0
1001
ACAD
1000
AcDbSavedByObjectVersion
1070
     0
  0
VISUALSTYLE
  5
2A61
102
{ACAD_REACTORS
330
2A5F
102
}
330
2A5F
100
AcDbVisualStyle
  2
FlatWithEdges
 70
     1
 71
     2
 72
     1
 73
     1
 90
        2
 40
-0.6
 41
30.0
 62
     5
 63
     7
 74
     1
 91
        4
 64
     7
 65
   257
 75
     1
175
     1
 42
1.0
 92
        0
 66
   257
 43
1.0
 76
     1
 77
     6
 78
     2
 67
     7
 79
     5
170
     0
171
     0
290
     0
174
     0
 93
       13
 44
0.0
173
     0
291
     1
 45
0.0
1001
ACAD
1000
AcDbSavedByObjectVersion
1070
     0
  0
VISUALSTYLE
  5
2A62
102
{ACAD_REACTORS
330
2A5F
102
}
330
2A5F
100
AcDbVisualStyle
  2
Gouraud
 70
     2
 71
     2
 72
     2
 73
     1
 90
        2
 40
-0.6
 41
30.0
 62
     5
 63
     7
 74
     0
 91
        4
 64
     7
 65
   257
 75
     1
175
     1
 42
1.0
 92
        0
 66
     7
 43
1.0
 76
     1
 77
     6
 78
     2
 67
     7
 79
     5
170
     0
171
     0
290
     0
174
     0
 93
       13
 44
0.0
173
     0
291
     1
 45
0.0
1001
ACAD
1000
AcDbSavedByObjectVersion
1070
     0
  0
VISUALSTYLE
  5
2A63
102
{ACAD_REACTORS
330
2A5F
102
}
330
2A5F
100
AcDbVisualStyle
  2
GouraudWithEdges
 70
     3
 71
     2
 72
     2
 73
     1
 90
        2
 40
-0.6
 41
30.0
 62
     5
 63
     7
 74
     1
 91
        4
 64
     7
 65
   257
 75
     1
175
     1
 42
1.0
 92
        0
 66
   257
 43
1.0
 76
     1
 77
     6
 78
     2
 67
     7
 79
     5
170
     0
171
     0
290
     0
174
     0
 93
       13
 44
0.0
173
     0
291
     1
 45
0.0
1001
ACAD
1000
AcDbSavedByObjectVersion
1070
     0
  0
VISUALSTYLE
  5
2A6D
102
{ACAD_REACTORS
330
2A5F
102
}
330
2A5F
100
AcDbVisualStyle
  2
Linepattern
 70
    14
 71
     2
 72
     2
 73
     0
 90
        0
 40
-0.6
 41
-30.0
 62
     5
 63
     7
 74
     1
 91
        4
 64
     7
 65
   257
 75
     7
175
     7
 42
1.0
 92
        8
 66
     7
 43
1.0
 76
     1
 77
     6
 78
     2
 67
     7
 79
     5
170
     0
171
     0
290
     0
174
     0
 93
        1
 44
0.0
173
     0
291
     1
 45
0.0
1001
ACAD
1000
AcDbSavedByObjectVersion
1070
     0
  0
VISUALSTYLE
  5
71DC
102
{ACAD_REACTORS
330
2A5F
102
}
330
2A5F
100
AcDbVisualStyle
  2
Realistic
 70
     8
 71
     2
 72
     2
 73
     0
 90
        0
 40
-0.6
 41
-30.0
 62
     5
 63
     7
 74
     1
 91
        0
 64
     7
 65
   257
 75
     1
175
     1
 42
1.0
 92
        8
 66
     8
 43
1.0
 76
     1
 77
     6
 78
     2
 67
     7
 79
     5
170
     0
171
     0
290
     0
174
     0
 93
       13
 44
0.0
173
     0
291
     0
 45
0.0
1001
ACAD
1000
AcDbSavedByObjectVersion
1070
     0
  0
VISUALSTYLE
  5
2A6C
102
{ACAD_REACTORS
330
2A5F
102
}
330
2A5F
100
AcDbVisualStyle
  2
Thicken
 70
    13
 71
     2
 72
     2
 73
     0
 90
        0
 40
-0.6
 41
-30.0
 62
     5
 63
     7
 74
     1
 91
        4
 64
     7
 65
   257
 75
     1
175
     1
 42
1.0
 92
       12
 66
     7
 43
1.0
 76
     1
 77
     6
 78
     2
 67
     7
 79
     5
170
     0
171
     0
290
     0
174
     0
 93
        1
 44
0.0
173
     0
291
     1
 45
0.0
1001
ACAD
1000
AcDbSavedByObjectVersion
1070
     0
  0
DICTIONARYVAR
  5
469D
102
{ACAD_REACTORS
330
469C
102
}
330
469C
100
DictionaryVariables
280
     0
  1
STANDARD
  0
DICTIONARYVAR
  5
7924
102
{ACAD_REACTORS
330
469C
102
}
330
469C
100
DictionaryVariables
280
     0
  1
1
  0
DICTIONARYVAR
  5
7923
102
{ACAD_REACTORS
330
469C
102
}
330
469C
100
DictionaryVariables
280
     0
  1
0
  0
DICTIONARYVAR
  5
7922
102
{ACAD_REACTORS
330
469C
102
}
330
469C
100
DictionaryVariables
280
     0
  1
127
  0
DICTIONARY
  5
6421
330
6414
100
AcDbDictionary
280
     1
281
     1
  3
ACAD_XREC_ROUNDTRIP
360
7936
  3
ADSK_XREC_LAYOUTTHUMBNAIL
360
6422
  0
DICTIONARY
  5
792E
330
2A76
100
AcDbDictionary
280
     1
281
     1
  3
ACAD_XREC_ROUNDTRIP
360
792F
  0
DICTIONARY
  5
7928
330
2A5D
100
AcDbDictionary
280
     1
281
     1
  3
ACAD_XREC_ROUNDTRIP
360
7929
  0
DICTIONARY
  5
7926
330
2A5C
100
AcDbDictionary
280
     1
281
     1
  3
ACAD_XREC_ROUNDTRIP
360
7927
  0
DICTIONARY
  5
792A
330
2A5E
100
AcDbDictionary
280
     1
281
     1
  3
ACAD_XREC_ROUNDTRIP
360
792B
  0
DICTIONARY
  5
793B
330
64AF
100
AcDbDictionary
280
     1
281
     1
  3
ACAD_XREC_ROUNDTRIP
360
793C
  0
DICTIONARY
  5
793D
330
6D31
100
AcDbDictionary
280
     1
281
     1
  3
ACAD_XREC_ROUNDTRIP
360
793E
  0
DICTIONARY
  5
7940
330
7875
100
AcDbDictionary
280
     1
281
     1
  3
ACAD_XREC_ROUNDTRIP
360
7941
  0
DICTIONARY
  5
7930
330
47AA
100
AcDbDictionary
280
     1
281
     1
  3
ACAD_XREC_ROUNDTRIP
360
7931
  0
DICTIONARY
  5
7932
330
47AB
100
AcDbDictionary
280
     1
281
     1
  3
ACAD_XREC_ROUNDTRIP
360
7933
  0
DICTIONARY
  5
7934
330
47AC
100
AcDbDictionary
280
     1
281
     1
  3
ACAD_XREC_ROUNDTRIP
360
7935
  0
DICTIONARY
  5
792C
330
2A72
100
AcDbDictionary
280
     1
281
     1
  3
ACAD_XREC_ROUNDTRIP
360
792D
  0
XRECORD
  5
7936
102
{ACAD_REACTORS
330
6421
102
}
330
6421
100
AcDbXrecord
280
     1
102
SHADEPLOT
 70
     0
102
SHADEPLOTRESLEVEL
 70
     2
102
SHADEPLOTCUSTOMDPI
 70
   300
  0
XRECORD
  5
6422
102
{ACAD_REACTORS
330
6421
102
}
330
6421
100
AcDbXrecord
280
     1
310
28000000B40000007F00000001000800000000004C59000000000000000000000001000000000000FFFFFF0000000000FFFFFF000000000000000000000000000000000000000000000000000000000000000000330000006600000099000000CC000000FF00000000330000333300006633000099330000CC330000FF3300
310
0000660000336600006666000099660000CC660000FF66000000990000339900006699000099990000CC990000FF99000000CC000033CC000066CC000099CC0000CCCC0000FFCC000000FF000033FF000066FF000099FF0000CCFF0000FFFF000000003300330033006600330099003300CC003300FF003300003333003333
310
33006633330099333300CC333300FF33330000663300336633006666330099663300CC663300FF66330000993300339933006699330099993300CC993300FF99330000CC330033CC330066CC330099CC3300CCCC3300FFCC330000FF330033FF330066FF330099FF3300CCFF3300FFFF330000006600330066006600660099
310
006600CC006600FF00660000336600333366006633660099336600CC336600FF33660000666600336666006666660099666600CC666600FF66660000996600339966006699660099996600CC996600FF99660000CC660033CC660066CC660099CC6600CCCC6600FFCC660000FF660033FF660066FF660099FF6600CCFF6600
310
FFFF660000009900330099006600990099009900CC009900FF00990000339900333399006633990099339900CC339900FF33990000669900336699006666990099669900CC669900FF66990000999900339999006699990099999900CC999900FF99990000CC990033CC990066CC990099CC9900CCCC9900FFCC990000FF99
310
0033FF990066FF990099FF9900CCFF9900FFFF99000000CC003300CC006600CC009900CC00CC00CC00FF00CC000033CC003333CC006633CC009933CC00CC33CC00FF33CC000066CC003366CC006666CC009966CC00CC66CC00FF66CC000099CC003399CC006699CC009999CC00CC99CC00FF99CC0000CCCC0033CCCC0066CC
310
CC0099CCCC00CCCCCC00FFCCCC0000FFCC0033FFCC0066FFCC0099FFCC00CCFFCC00FFFFCC000000FF003300FF006600FF009900FF00CC00FF00FF00FF000033FF003333FF006633FF009933FF00CC33FF00FF33FF000066FF003366FF006666FF009966FF00CC66FF00FF66FF000099FF003399FF006699FF009999FF00CC
310
99FF00FF99FF0000CCFF0033CCFF0066CCFF0099CCFF00CCCCFF00FFCCFF0000FFFF0033FFFF0066FFFF0099FFFF00CCFFFF00FFFFFF00000000000D0D0D001A1A1A00282828003535350043434300505050005D5D5D006B6B6B00787878008686860093939300A1A1A100AEAEAE00BBBBBB00C9C9C900D6D6D600E4E4E400
310
F1F1F100FFFFFF0000000000000000000000000000000000000000000000000000000000000000000000000000000000E2E2E2E2E2E2E2E2E2E2E2E2E2E2E2E2E2E2E2E2E2E2E2E2E2E2E2E2E2E2E2E2E2E2E2E2E2E2E2E2E2E2E2E2E2E2E2E2E2E2E2E2E2E2E2E2E2E2E2E2E2E2E2E2E2E2E2E2E2E2E2E2E2E2E2E2E2E2E2
310
E2E2E2E2E2E2E2E2E2E2E2E2E2E2E2E2E2E2E2E2E2E2E2E2E2E2E2E2E2E2E2E2E2E2E2E2E2E2E2E2E2E2E2E2E2E2E2E2E2E2E2E2E2E2E2E2E2E2E2E2E2E2E2E2E2E2E2E2E2E2E2E2E2E2E2E2E2E2E2E2E2E2E2E2E2E2E2E2E2E2E2E2E2E2E2E2E2E2E2E2EFE2F5F5F5F5F5F5F5F5F5F5F5F5F5F5F5F5F5F5F5F5F5F5F5F5F5
310
F5F5F5F5F5F5F5F5F5F5F5F5F5F5F5F5F5F5F5F5F5F5F5F5F5F5F5F5F5F5F5F5F5F5F5F5F5F5F5F5F5F5F5F5F5F5F5F5F5F5F5F5F5F5F5F5F5F5F5F5F5F5F5F5F5F5F5F5F5F5F5F5F5F5F5F5F5F5F5F5F5F5F5F5F5F5F5F5F5F5F5F5F5F5F5F5F5F5F5F5F5F5F5F5F5F5F5F5F5F5F5F5F5F5F5F5F5F5F5F5F5F5F5F5F5F5F5
310
F5F5F5F5F5F5F5F5F5F5F5F5F5F5F5F5F5F5F5F5F5F5F5F5E2E2EFE2E2E2E2E2E2E2E2E2E2F5F5F5F5F5F5F5F5F5E2E2E2E2E2E2E2E2E2E2E2E2E2E2E2E2F5F5F5F5F5F5F5F5F5E2E2E2E2E2E2E2E2E2E2E2E2E2E2E2E2F5F5F5F5F5F5F5F5F5E2E2E2E2E2E2E2E2E2E2E2E2E2E2E2E2F5F5F5F5F5F5F5F5F5E2E2E2E2E2E2
310
E2E2E2E2E2E2E2E2E2E2F5F5F5F5F5F5F5F5F5E2E2E2E2E2E2E2E2E2E2E2E2E2E2E2E2F5F5F5F5F5F5F5F5F5E2E2E2E2E2E2E2E2E2E2E2E2E2E2E2E2F5F5F5F5F5F5F5F5F5E2E2E2E2E2E2E2E2E2E2EFE2E2F5F5F5F5F5F5F5F5F5F5F5F5F5F5F5F5F5F5F5F5F5F5F5F5F5F5F5F5F5F5F5F5F5F5F5F5F5F5F5F5F5F5F5F5F5
310
F5F5F5F5F5F5F5F5F5F5F5F5F5F5F5F5F5F5F5F5F5F5F5F5F5F5F5F5F5F5F5F5F5F5F5F5F5F5F5F5F5F5F5F5F5F5F5F5F5F5F5F5F5F5F5F5F5F5F5F5F5F5F5F5F5F5F5F5F5F5F5F5F5F5F5F5F5F5F5F5F5F5F5F5F5F5F5F5F5F5F5F5F5F5F5F5F5F5F5F5F5F5F5F5F5F5F5F5F5F5F5F5F5F5F5F5F5F5F5F5F5F5F5F5F5F5F5
310
F5F5E2E2E2EFE2E2F5F5F5F5F5F5F5F5F5F5F5F5F5F5F5F5F5F5F5F5F5F5F5F5F5F5F5F5F5F5F5F5F5F5F5F5F5F5F5F5F5F5F5F5F5F5F5F5F5F5F5F5F5F5F5F5F5F5F5F5F5F5F5F5F5F5F5F5F5F5F5F5F5F5F5F5F5F5F5F5F5F5F5F5F5F5F5F5F5F5F5F5F5F5F5F5F5F5F5F5F5F5F5F5F5F5F5F5F5F5F5F5F5F5F5F5F5F5F5
310
F5F5F5F5F5F5F5F5F5F5F5F5F5F5F5F5F5F5F5F5F5F5F5F5F5F5F5F5F5F5F5F5F5F5F5F5F5F5F5F5F5F5F5F5F5F5F5F5F5F5F5F5F5F5F5E2E2E2EFE2E2F5F5F5F5F5F5F5F5F5F5F5F5F5F5F5F5F5F5F5F5F5F5F5F5F5F5F5F5F5F5F5F5F5F5F5F5F5F5F5F5F5F5F5F5F5F5F5F5F5F5F5F5F5F5F5F5F5F5F5F5F5F5F5F5F5F5
310
F5F5F5F5F5F5F5F5F5F5F5F5F5F5F5F5F5F5F5F5F5F5F5F5F5F5F5F5F5F5F5F5F5F5F5F5F5F5F5F5F5F5F5F5F5F5F5F5F5F5F5F5F5F5F5F5F5F5F5F5F5F5F5F5F5F5F5F5F5F5F5F5F5F5F5F5F5F5F5F5F5F5F5F5F5F5F5F5F5F5F5F5F5F5F5F5F5F5F5F5F5F5F5F5F5F5F5F5E2E2E2EFE2E2F5F5F5F5F5F5F5F5F5F5F5F5F5
310
F5F5F5F5F5F5F5F5F5F5F5F5F5F5F5F5F5F5F5F5F5F5F5F5F5F5F5F5F5F5F5F5F5F5F5F5F5F5F5F5F5F5F5F5F5F5F5F5F5F5F5F5F5F5F5F5F5F5F5F5F5F5F5F5F5F5F5F5F5F5F5F5F5F5F5F5F5F5F5F5F5F5F5F5F5F5F5F5F5F5F5F5F5F5F5F5F5F5F5F5F5F5F5F5F5F5F5F5F5F5F5F5F5F5F5F5F5F5F5F5F5F5F5F5F5F5F5
310
F5F5F5F5F5F5F5F5F5F5F5F5F5F5F5F5F5F5F5F5F5F5F5F5F5F5F5F5F5F5F5F5F5F5E2E2E2EFE2E2F5F5F5F5F5F5F5F5F5F5F5F5F5F5F5F5F5F5F5F5F5F5F5F5F5F5F5F5F5F5F5F5F5F5F5F5F5F5F5F5F5F5F5F5F5F5F5F5F5F5F5F5F5F5F5F5F5F5F5F5F5F5F5F5F5F5F5F5F5F5F5F5F5F5F5F5F5F5F5F5F5F5F5F5F5F5F5
310
F5F5F5F5F5F5F5F5F5F5F5F5F5F5F5F5F5F5F5F5F5F5F5F5F5F5F5F5F5F5F5F5F5F5F5F5F5F5F5F5F5F5F5F5F5F5F5F5F5F5F5F5F5F5F5F5F5F5F5F5F5F5F5F5F5F5F5F5F5F5F5F5F5F5F5F5F5F5F5F5F5F5F5F5F5F5F5E2E2E2EFE2E2F5F5F5F5F5F5F5F5F5F5F5F5F5F5F5F5F5F5F5F5F5F5F5F5F5F5F5F5F5F5F5F5F5F5
310
F5F5F5F5F5F5F5F5F5F5F5F5F5F5F5F5F5F5F5F5F5F5F5F5F5F5F5F5F5F5F5F5F5F5F5F5F5F5F5F5F5F5F5F5F5F5F5F5F5F5F5F5F5F5F5F5F5F5F5F5F5F5F5F5F5F5F5F5F5F5F5F5F5F5F5F5F5F5F5F5F5F5F5F5F5F5F5F5F5F5F5F5F5F5F5F5F5F5F5F5F5F5F5F5F5F5F5F5F5F5F5F5F5F5F5F5F5F5F5F5F5F5F5F5F5F5F5
310
F5F5F5F5F5F5F5F5F5F5F5F5F5E2E2E2EFE2E2F5F5F5F5F5F5F5F5F5F5F5F5F5F5F5F5F5F5F5F5F5F5F5F5F5F5F5F5F5F5F5F5F5F5F5F5F5F5F5F5F5F5F5F5F5F5F5F5F5F5F5F5F5F5F5F5F5F5F5F5F5F5F5F5F5F5F5F5F5F5F5F5F5F5F5F5F5F5F5F5F5F5F5F5F5F5F5F5F5F5F5F5F5F5F5F5F5F5F5F5F5F5F5F5F5F5F5F5
310
F5F5F5F5F5F5F5F5F5F5F5F5F5F5F5F5F5F5F5F5F5F5F5F5F5F5F5F5F5F5F5F5F5F5F5F5F5F5F5F5F5F5F5F5F5F5F5F5F5F5F5F5F5F5F5F5F5F5F5F5F5F5F5F5F5F5E2E2E2EFE2F5F5F5F5F5F5F5F5F5F5F5F5F5F5F5F5F5F5F5F5F5F5F5F5F5F5F5F5F5F5F5F5F5F5F5F5F5F5F5F5F5F5F5F5F5F5F5F5F5F5F5F5F5F5F5F5
310
F5F5F5F5F5F5F5F5F5F5F5F5F5F5F5F5F5F5F5F5F5F5F5F5F5F5F5F5F5F5F5F5F5F5F5F5F5F5F5F5F5F5F5F5F5F5F5F5F5F5F5F5F5F5F5F5F5F5F5F5F5F5F5F5F5F5F5F5F5F5F5F5F5F5F5F5F5F5F5F5F5F5F5F5F5F5F5F5F5F5F5F5F5F5F5F5F5F5F5F5F5F5F5F5F5F5F5F5F5F5F5F5F5F5F5F5F5F5F5F5E2E2EFE2F5F5F5
310
F5F5F5F5F5F5F5F5F5F5F5F5F5F5F5F5F5F5F5F5F5F5F5F5F5F5F5F5F5F5F5F5F5F5F5F5F5F5F5F5F5F5F5F5F5F5F5F5F5F5F5F5F5F5F5F5F5F5F5F5F5F5F5F5F5F5F5F5F5F5F5F5F5F5F5F5F5F5F5F5F5F5F5F5F5F5F5F5F5F5F5F5F5F5F5F5F5F5F5F5F5F5F5F5F5F5F5F5F5F5F5F5F5F5F5F5F5F5F5F5F5F5F5F5F5F5F5
310
F5F5F5F5F5F5F5F5F5F5F5F5F5F5F5F5F5F5F5F5F5F5F5F5F5F5F5F5F5F5F5F5F5F5F5F5F5F5F5F5F5F5F5F5F5F5E2E2EFE2F5F5F5F5F5F5F5F5F5F5F5F5F5F5F5F5F5F5F5F5F5F5F5F5F5F5F5F5F5F5F5F5F5F5F5F5F5F5F5F5F5F5F5F5F5F5F5F5F5F5F5F5F5F5F5F5F5F5F5F5F5F5F5F5F5F5F5F5F5F5F5F5F5F5F5F5F5
310
F5F5F5F5F5F5F5F5F5F5F5F5F5F5F5F5F5F5F5F5F5F5F5F5F5F5F5F5F5F5F5F5F5F5F5F5F5F5F5F5F5F5F5F5F5F5F5F5F5F5F5F5F5F5F5F5F5F5F5F5F5F5F5F5F5F5F5F5F5F5F5F5F5F5F5F5F5F5F5F5F5F5F5F5F5F5F5F5F5F5F5F5F5F5F5F5F5F5F5E2E2EFE2F5F5F5F5F5F5F5F5F5F5F5F5F5F5F5F5F5F5F5F5F5F5F5F5
310
F5F5F5F5F5F5F5F5F5F5F5F5F5F5F5F5F5F5F5F5F5F5F5F5F5F5F5F5F5F5F5F5F5F5F5F5F5F5F5F5F5F5F5F5F5F5F5F5F5F5F5F5F5F5F5F5F5F5F5F5F5F5F5F5F5F5F5F5F5F5F5F5F5F5F5F5F5F5F5F5F5F5F5F5F5F5F5F5F5F5F5F5F5F5F5F5F5F5F5F5F5F5F5F5F5F5F5F5F5F5F5F5F5F5F5F5F5F5F5F5F5F5F5F5F5F5F5
310
F5F5F5F5F5F5F5F5F5F5F5F5F5F5F5F5F5F5F5F5F5F5F5F5F5E2E2EFE2F5F5F5F5F5F5F5F5F5F5F5F5F5F5F5F5F5F52020202020202020202020202020202020202020202020202020202020202020202020202020202020202020202020202020202020202020202020202020202020202020202020202020202020202020
310
202020202020202020202020202020202020202020202020202020202020202020202020202020202020202020202020202020202020202020202020F5F5F5F5F5F5F5F5F5F5F5F5F5F5F5F5F5F5E2E2EFE2F5F5F5F5F5F5F5F5F5F5F5F5F5F5F5F5F5F520F5F5F5F5F5F5F5F5F5F5F5F5F5F5F5F5F5F5F5F5F5F5F5F5F5F5
310
F5F5F5F5F5F5F5F5F5F5F5F5F5F5F5F5F5F5F5F5F5F5F5F5F5F5F5F5F5F5F5F5F5F5F5F5F5F5F5F5F5F5F5F5F5F5F5F5F5F5F5F5F5F5F5F5F5F5F5F5F5F5F5F5F5F5F5F5F5F5F5F5F5F5F5F5F5F5F5F5F5F5F5F5F5F5F5F5F5F5F5F5F5F5F5F5F5F5F5F5F5F5F5F5F5F5F5F5F5F5F5F520F5F5F5F5F5F5F5F5F5F5F5F5F5F5
310
F5F5F5F5E2E2EFE2F5F5F5F5F5F5F5F5F5F5F5F5F5F5F5F5F5F520F5F5F5F5F5F5F5F5F5F5F5F5F5F5F5F5F5F5F5F5F5F5F5F5F5F5F5F5F5F5F5F5F5F5F5F5F5F5F5F5F5F5F5F5F5F5F5F5F5F5F5F5F5F5F5F5F5F5F5F5F5F5F5F5F5F5F5F5F5F5F5F5F5F5F5F5F5F5F5F5F5F5F5F5F5F5F5F5F5F5F5F5F5F5F5F5F5F5F5F5
310
F5F5F5F5F5F5F5F5F5F5F5F5F5F5F5F5F5F5F5F5F5F5F5F5F5F5F5F5F5F5F5F5F5F5F5F5F5F520F5F5F5F5F5F5F5F5F5F5F5F5F5F5F5F5F5F5E2E2EFE2F5F5F5F5F5F5F5F5F5F5F5F5F5F5F5F5F5F520F5F5F5F5F5F5F5F5F5F5F5F5F5F5F5F5F5F5F5F5F5F5F5F5F5F5F5F5F5F5F5F5F5F5F5F5F5F5F5F5F5F5F5F5F5F5F5
310
F5F5F5F5F5F5F5F5F5F5F5F5F5F5F5F5F5F5F5F5F5F5F5F5F5F5F5F5F5F5F5F5F5F5F5F5F5F5F5F5F5F5F5F5F5F5F5F5F5F5F5F5F5F5F5F5F5F5F5F5F5F5F5F5F5F5F5F5F5F5F5F5F5F5F5F5F5F5F5F5F5F5F5F5F5F5F5F5F5F5F520F5F5F5F5F5F5F5F5F5F5F5F5F5F5F5F5F5F5E2E2EFE2F5F5F5F5F5F5F5F5F5F5F5F5F5
310
F5F5F5F5F520F5F5F5F5F5F5F5F5F5F5F5F5F5F5F5F5F5F5F5F5F5F5F5F5F5F5F5F5F5F5F5F5F5F5F5F5F5F5F5F5F5F5F5F5F5F5F5F5F5F5F5F5F5F5F5F5F5F5F5F5F5F5F5F5F5F5F5F5F5F5F5F5F5F5F5F5F5F5F5F5F5F5F5F5F5F5F5F5F5F5F5F5F5F5F5F5F5F5F5F5F5F5F5F5F5F5F5F5F5F5F5F5F5F5F5F5F5F5F5F5F5
310
F5F5F5F5F5F5F5F5F5F5F5F5F5F5F5F5F520F5F5F5F5F5F5F5F5F5F5F5F5F5F5F5F5F5F5E2E2EFE2E2F5F5F5F5F5F5F5F5F5F5F5F5F5F5F5F5F520F5F5F5F5F5F5F5F5F5F5F5F5F5F5F5F5F5F5F5F5F5F5F5F5F5F5F5F5F5F5F5F5F5F5F5F5F5F5F5F5F5F5F5F5F5F5F5F5F5F5F5F5F5F5F5F5F5F5F5F5F5F5F5F5F5F5F5F5
310
F5F5F5F5F5F5F5F5F5F5F5F5F5F5F5F5F5F5F5F5F5F5F5F5F5F5F5F5F5F5F5F5F5F5F5F5F5F5F5F5F5F5F5F5F5F5F5F5F5F5F5F5F5F5F5F5F5F5F5F5F5F5F5F5F5F5F5F5F5F520F5F5F5F5F5F5F5F5F5F5F5F5F5F5F5F5F5E2E2E2EFE2E2F5F5F5F5F5F5F5F5F5F5F5F5F5F5F5F5F520F5F5F5F5F5F5F5F5F5F5F5F5F5F5F5
310
F5F5F5F5F5F5F5F5F5F5F5F5F5F5F5F5F5F5F5F5F5F5F5F5F5F5F5F5F5F5F5F5F5F5F5F5F5F5F5F5F5F5F5F5F5F5F5F5F5F5F5F5F5F5F5F5F5F5F5F5F5F5F5F5F5F5F5F5F5F5F5F5F5F5F5F5F5F5F5F5F5F5F5F5F5F5F5F5F5F5F5F5F5F5F5F5F5F5F5F5F5F5F5F5F5F5F5F5F5F5F5F5F5F5F5F5F5F5F5F5F5F5F520F5F5F5
310
F5F5F5F5F5F5F5F5F5F5F5F5F5F5E2E2E2EFE2E2F5F5F5F5F5F5F5F5F5F5F5F5F5F5F5F5F520F5F5F5F5F5F5F5F5F5F5F5F5F5F5F5F5F5F5F5F5F5F5F5F5F5F5F5F5F5F5F5F5F5F5F5F5F5F5F5F5F5F5F5F5F5F5F5F5F5F5F5F5F5F5F5F5F5F5F5F5F5F5F5F5F5F5F5F5F5F5F5F5F5F5F5F5F5F5F5F5F5F5F5F5F5F5F5F5F5
310
F5F5F5F5F5F5F5F5F5F5F5F5F5F5F5F5F5F5F5F5F5F5F5F5F5F5F5F5F5F5F5F5F5F5F5F5F5F5F5F5F5F5F5F5F5F5F5F5F520F5F5F5F5F5F5F5F5F5F5F5F5F5F5F5F5F5E2E2E2EFE2E2F5F5F5F5F5F5F5F5F5F5F5F5F5F5F5F5F520F5F5F5F5F5F5F5F5F5F5F5F5F5F5F5F5F5F5F5F5F5F5F5F5F5F5F5F5F5F5F5F5F5F5F5F5
310
F5F5F5F5F5F5F5F5F5F5F5F5F5F5F5F5F5F5F5F5F5F5F5F5F5F5F5F5F5F5F5F5F5F5F5F5F5F5F5F5F5F5F5F5F5F5F5F5F5F5F5F5F5F5F5F5F5F5F5F5F5F5F5F5F5F5F5F5F5F5F5F5F5F5F5F5F5F5F5F5F5F5F5F5F5F5F5F5F5F5F5F5F5F5F5F5F5F5F5F5F5F520F5F5F5F5F5F5F5F5F5F5F5F5F5F5F5F5F5E2E2E2EFE2E2F5
310
F5F5F5F5F5F5F5F5F5F5F5F5F5F5F5F520F5F5F5F5F5F5F5F5F5F5F5F5F5F5F5F5F5F5F5F5F5F5F5F5F5F5F5F5F5F5F5F5F5F5F5F5F5F5F5F5F5F5F5F5F5F5F5F5F5F5F5F5F5F5F5F5F5F5F5F5F5F5F5F5F5F5F5F5F5F5F5F5F5F5F5F5F5F5F5F5F5F5F5F5F5F5F5F5F5F5F5F5F5F5F5F5F5F5F5F5F5F5F5F5F5F5F5F5F5F5
310
F5F5F5F5F5F5F5F5F5F5F5F5F5F5F5F5F5F5F5F5F5F5F5F5F5F5F5F520F5F5F5F5F5F5F5F5F5F5F5F5F5F5F5F5F5E2E2E2EFE2E2F5F5F5F5F5F5F5F5F5F5F5F5F5F5F5F5F520F5F5F5F5F5F5F5F5F5F5F5F5F5F5F5F5F5F5F5F5F5F5F5F5F5F5F5F5F5F5F5F5F5F5F5F5F5F5F5F5F5F5F5F5F5F5F5F5F5F5F5F5F5F5F5F5F5
310
F5F5F5F5F5F5F5F5F5F5F5F5F5F5F5F5F5F5F5F5F5F5F5F5F5F5F5F5F5F5F5F5F5F5F5F5F5F5F5F5F5F5F5F5F5F5F5F5F5F5F5F5F5F5F5F5F5F5F5F5F5F5F5F5F5F5F5F5F5F5F5F5F5F5F5F5F5F5F5F5F520F5F5F5F5F5F5F5F5F5F5F5F5F5F5F5F5F5E2E2E2EFE2E2F5F5F5F5F5F5F5F5F5F5F5F5F5F5F5F5F520F5F5F5F5
310
F5F5F5F5F5F5F5F5F5F5F5F5F5F5F5F5F5F5F5F5F5F5F5F5F5F5F5F5F5F5F5F5F5F5F5F5F5F5F5F5F5F5F5F5F5F5F5F5F5F5F5F5F5F5F5F5F5F5F5F5F5F5F5F5F5F5F5F5F5F5F5F5F5F5F5F5F5F5F5F5F5F5F5F5F5F5F5F5F5F5F5F5F5F5F5F5F5F5F5F5F5F5F5F5F5F5F5F5F5F5F5F5F5F5F5F5F5F5F5F5F5F5F5F5F5F5F5
310
F5F5F5F5F5F5F520F5F5F5F5F5F5F5F5F5F5F5F5F5F5F5F5F5E2E2E2EFE2E2F5F5F5F5F5F5F5F5F5F5F5F5F5F5F5F5F520F5F5F5F5F5F5F5F5F5F5F5F5F5F5F5F5F5F5F5F5F5F5F5F5F5F5F5F5F5F5F5F5F5F5F5F5F5F5F5F5F5F5F5F5F5F5F5F5F5F5F5F5F5F5F5F5F5F5F5F5F5F5F5F5F5F5F5F5F5F5F5F5F5F5F5F5F5F5
310
F5F5F5F5F5F5F5F5F5F5F5F5F5F5F5F5F5F5F5F5F5F5F5F5F5F5F5F5F5F5F5F5F5F5F5F5F5F5F5F5F5F5F5F5F5F5F5F5F5F5F5F5F5F5F5F5F5F5F5F520F5F5F5F5F5F5F5F5F5F5F5F5F5F5F5F5F5E2E2E2EFE2E2F5F5F5F5F5F5F5F5F5F5F5F5F5F5F5F5F520F5F5F5F5F5F5F5F5F5F5F5F5F5F5F5F5F5F5F5F5F5F5F5F5F5
310
F5F5F5F5F5F5F5F5F5F5F5F5F5F5F5F5F5F5F5F5F5F5F5F5F5F5F5F5F5F5F5F5F5F5F5F5F5F5F5F5F5F5F5F5F5F5F5F5F5F5F5F5F5F5F5F5F5F5F5F5F5F5F5F5F5F5F5F5F5F5F5F5F5F5F5F5F5F5F5F5F5F5F5F5F5F5F5F5F5F5F5F5F5F5F5F5F5F5F5F5F5F5F5F5F5F5F5F5F5F5F5F5F520F5F5F5F5F5F5F5F5F5F5F5F5F5
310
F5F5F5F5E2E2E2EFE2E2F5F5F5F5F5F5F5F5F5F5F5F5F5F5F5F5F520F5F5F5F5F5F5F5F5F5F5F5F5F5F5F5F5F5F5F5F5F5F5F5F5F5F5F5F5F5F5F5F5F5F5F5F5F5F5F5F5F5F5F5F5F5F5F5F5F5F5F5F5F5F5F5F5F5F5F5F5F5F5F5F5F5F5F5F5F5F5F5F5F5F5F5F5F5F5F5F5F5F5F5F5F5F5F5F5F5F5F5F5F5F5F5F5F5F5F5
310
F5F5F5F5F5F5F5F5F5F5F5F5F5F5F5F5F5F5F5F5F5F5F5F5F5F5F5F5F5F5F5F5F5F5F5F5F5F5F520F5F5F5F5F5F5F5F5F5F5F5F5F5F5F5F5F5E2E2E2EFE2E2F5F5F5F5F5F5F5F5F5F5F5F5F5F5F5F5F520F5F5F5F5F5F5F5F5F5F5F5F5F5F5F5F5F5F5F5F5F5F5F5F5F5F5F5F5F5F5F5F5F5F5F5F5F5F5F5F5F5F5F5F5F5F5
310
F5F5F5F5F5F5F5F5F5F5F5F5F5F5F5F5F5F5F5F5F5F5F5F5F5F5F5F5F5F5F5F5F5F5F5F5F5F5F5F5F5F5F5F5F5F5F5F5F5F5F5F5F5F5F5F5F5F5F5F5F5F5F5F5F5F5F5F5F5F5F5F5F5F5F5F5F5F5F5F5F5F5F5F5F5F5F5F5F5F5F5F520F5F5F5F5F5F5F5F5F5F5F5F5F5F5F5F5F5E2E2E2EFE2E2F5F5F5F5F5F5F5F5F5F5F5
310
F5F5F5F5F5F520F5F5F5F5F5F5F5F5F5F5F5F5F5F5F5F5F5F5F5F5F5F5F5F5F5F5F5F5F5F5F5F5F5F5F5F5F5F5F5F5F5F5F5F5F5F5F5F5F5F5F5F5F5F5F5F5F5F5F5F5F5F5F5F5F5F5F5F5F5F5F5F5F5F5F5F5F5F5F5F5F5F5F5F5F5F5F5F5F5F5F5F5F5F5F5F5F5F5F5F5F5F5F5F5F5F5F5F5F5F5F5F5F5F5F5F5F5F5F5F5
310
F5F5F5F5F5F5F5F5F5F5F5F5F5F5F5F5F5F520F5F5F5F5F5F5F5F5F5F5F5F5F5F5F5F5F5E2E2E2EFE2E2F5F5F5F5F5F5F5F5F5F5F5F5F5F5F5F5F520F5F5F5F5F5F5F5F5F5F5F5F5F5F5F5F5F5F5F5F5F5F5F5F5F5F5F5F5F5F5F5F5F5F5F5F5F5F5F5F5F5F5F5F5F5F5F5F5F5F5F5F5F5F5F5F5F5F5F5F5F5F5F5F5F5F5F5
310
F5F5F5F5F5F5F5F5F5F5F5F5F5F5F5F5F5F5F5F5F5F5F5F5F5F5F5F5F5F5F5F5F5F5F5F5F5F5F5F5F5F5F5F5F5F5F5F5F5F5F5F5F5F5F5F5F5F5F5F5F5F5F5F5F5F5F5F5F5F5F520F5F5F5F5F5F5F5F5F5F5F5F5F5F5F5F5F5E2E2E2EFE2E2F5F5F5F5F5F5F5F5F5F5F5F5F5F5F5F5F520F5F5F5F5F5F5F5F5F5F5F5F5F5F5
310
F5F5F5F5F5F5F5F5F5F5F5F5F5F5F5F5F5F5F5F5F5F5F5F5F5F5F5F5F5F5F5F5F5F5F5F5F5F5F5F5F5F5F5F5F5F5F5F5F5F5F5F5F5F5F5F5F5F5F5F5F5F5F5F5F5F5F5F5F5F5F5F5F5F5F5F5F5F5F5F5F5F5F5F5F5F5F5F5F5F5F5F5F5F5F5F5F5F5F5F5F5F5F5F5F5F5F5F5F5F5F5F5F5F5F5F5F5F5F5F5F5F5F5F520F5F5
310
F5F5F5F5F5F5F5F5F5F5F5F5F5F5F5E2E2E2EFE2E2F5F5F5F5F5F5F5F5F5F5F5F5F5F5F5F5F520F5F5F5F5F5F5F5F5F5F5F5F5F5F5F5F5F5F5F5F5F5F5F5F5F5F5F5F5F5F5F5F5F5F5F5F5F5F5F5F5F5F5F5F5F5F5F5F5F5F5F5F5F5F5F5F5F5F5F5F5F5F5F5F5F5F5F5F5F5F5F5F5F5F5F5F5F5F5F5F5F5F5F5F5F5F5F5F5
310
F5F5F5F5F5F5F5F5F5F5F5F5F5F5F5F5F5F5F5F5F5F5F5F5F5F5F5F5F5F5F5F5F5F5F5F5F5F5F5F5F5F5F5F5F5F5F5F5F5F520F5F5F5F5F5F5F5F5F5F5F5F5F5F5F5F5F5E2E2E2EFE2E2F5F5F5F5F5F5F5F5F5F5F5F5F5F5F5F5F520F5F5F5F5F5F5F5F5F5F5F5F5F5F5F5F5F5F5F5F5F5F5F5F5F5F5F5F5F5F5F5F5F5F5F5
310
F5F5F5F5F5F5F5F5F5F5F5F5F5F5F5F5F5F5F5F5F5F5F5F5F5F5F5F5F5F5F5F5F5F5F5F5F5F5F5F5F5F5F5F5F5F5F5F5F5F5F5F5F5F5F5F5F5F5F5F5F5F5F5F5F5F5F5F5F5F5F5F5F5F5F5F5F5F5F5F5F5F5F5F5F5F5F5F5F5F5F5F5F5F5F5F5F5F5F5F5F5F5F520F5F5F5F5F5F5F5F5F5F5F5F5F5F5F5F5F5E2E2E2EFE2F5
310
F5F5F5F5F5F5F5F5F5F5F5F5F5F5F5F5F520F5F5F5F5F5F5F5F5F5F5F5F5F5F5F5F5F5F5F5F5F5F5F5F5F5F5F5F5F5F5F5F5F5F5F5F5F5F5F5F5F5F5F5F5F5F5F5F5F5F5F5F5F5F5F5F5F5F5F5F5F5F5F5F5F5F5F5F5F5F5F5F5F5F5F5F5F5F5F5F5F5F5F5F5F5F5F5F5F5F5F5F5F5F5F5F5F5F5F5F5F5F5F5F5F5F5F5F5F5
310
F5F5F5F5F5F5F5F5F5F5F5F5F5F5F5F5F5F5F5F5F5F5F5F5F5F5F5F5F520F5F5F5F5F5F5F5F5F5F5F5F5F5F5F5F5F5F5E2E2EFE2F5F5F5F5F5F5F5F5F5F5F5F5F5F5F5F5F5F520F5F5F5F5F5F5F5F5F5F5F5F5F5F5F5F5F5F5F5F5F5F5F5F5F5F5F5F5F5F5F5F5F5F5F5F5F5F5F5F5F5F5F5F5F5F5F5F5F5F5F5F5F5F5F5F5
310
F5F5F5F5F5F5F5F5F5F5F5F5F5F5F5F5F5F5F5F5F5F5F5F5F5F5F5F5F5F5F5F5F5F5F5F5F5F5F5F5F5F5F5F5F5F5F5F5F5F5F5F5F5F5F5F5F5F5F5F5F5F5F5F5F5F5F5F5F5F5F5F5F5F5F5F5F5F5F5F5F5F520F5F5F5F5F5F5F5F5F5F5F5F5F5F5F5F5F5F5E2E2EFE2F5F5F5F5F5F5F5F5F5F5F5F5F5F5F5F5F5F520F5F5F5
310
F5F5F5F5F5F5F5F5F5F5F5F5F5F5F5F5F5F5F5F5F5F5F5F5F5F5F5F5F5F5F5F5F5F5F5F5F5F5F5F5F5F5F5F5F5F5F5F5F5F5F5F5F5F5F5F5F5F5F5F5F5F5F5F5F5F5F5F5F5F5F5F5F5F5F5F5F5F5F5F5F5F5F5F5F5F5F5F5F5F5F5F5F5F5F5F5F5F5F5F5F5F5F5F5F5F5F5F5F5F5F5F5F5F5F5F5F5F5F5F5F5F5F5F5F5F5F5
310
F5F5F5F5F5F5F5F520F5F5F5F5F5F5F5F5F5F5F5F5F5F5F5F5F5F5E2E2EFE2F5F5F5F5F5F5F5F5F5F5F5F5F5F5F5F5F5F520F5F5F5F5F5F5F5F5F5F5F5F5F5F5F5F5F5F5F5F5F5F5F5F5F5F5F5F5F5F5F5F5F5F5F5F5F5F5F5F5F5F5F5F5F5F5F5F5F5F5F5F5F5F5F5F5F5F5F5F5F5F5F5F5F5F5F5F5F5F5F5F5F5F5F5F5F5
310
F5F5F5F5F5F5F5F5F5F5F5F5F5F5F5F5F5F5F5F5F5F5F5F5F5F5F5F5F5F5F5F5F5F5F5F5F5F5F5F5F5F5F5F5F5F5F5F5F5F5F5F5F5F5F5F5F5F5F5F5F520F5F5F5F5F5F5F5F5F5F5F5F5F5F5F5F5F5F5E2E2EFE2F5F5F5F5F5F5F5F5F5F5F5F5F5F5F5F5F5F520202020202020202020202020202020202020202020202020
310
20202020202020202020202020202020202020202020202020202020202020202020202020202020202020202020202020202020202020202020202020202020202020202020202020202020202020202020202020202020202020202020202020202020202020202020202020202020202020F5F5F5F5F5F5F5F5F5F5F5F5
310
F5F5F5F5F5F5E2E2EFE2F5F5F5F5F5F5F5F5F5F5F5F5F5F5F5F5F5F52020F5F5F5F5F5F5F5F5F5F5F5F5F5F5F5F520F5F5F5F5F5F5F5F5F5F5F5F5F5F5F5F520F5F5F5F5F5F5F5F5F5F5F5F5F5F5F5F520F5F5F5F5F5F5F5F5F5F5F5F5F5F5F5F520F5F5F5F5F5F5F5F5F5F5F5F5F5F5F5F5F520F5F5F5F5F5F5F5F5F5F5F5
310
F5F5F5F5F520F5F5F5F5F5F5F5F5F5F5F5F5F5F5F5F520F5F5F5F5F5F5F5F5F5F5F5F5F5F5F5F52020F5F5F5F5F5F5F5F5F5F5F5F5F5F5F5F5F5F5E2E2EFE2F5F5F5F5F5F5F5F5F5F5F5F5F5F5F5F5F5F52020F5F5F5F5F5F5F5F5F5F5F5F5F5F5F5F5F5F5F5F5F5F5F5F5F5F5F5F5F5F5F5F5F5F5F5F5F5F5F5F5F5F5F5F5
310
F5F5F5F5F5F5F5F5F5F5F5F5F5F5F5F5F5F5F5F5F5F5F5F5F5F5F5F5F5F5F5F5F5F5F5F5F5F5F5F5F5F5F5F5F5F5F5F5F5F5F5F5F5F5F5F5F5F5F5F5F5F5F5F5F5F5F5F5F5F5F5F5F5F5F5F5F5F5F5F5F5F5F5F5F5F5F5F5F5F5F5F52020F5F5F5F5F5F5F5F5F5F5F5F5F5F5F5F5F5F5E2E2EFE2F5F5F5F5F5F5F5F5F5F5F5
310
F5F5F5F5F5F5F52020F5F5F5F5F5F5F5F5F5202020202020202020202020202020202020202020202020202020202020202020202020202020202020202020202020202020202020202020202020F5202020202020202020202020202020202020202020202020202020202020202020202020202020202020202020202020
310
2020202020202020202020202020F5F5F5F52020F5F5F5F5F5F5F5F5F5F5F5F5F5F5F5F5F5F5E2E2EFE2E2F5F5F5F5F5F5F5F5F5F5F5F5F5F5F5F5F52020F5F5F5F5F5F5F5F5F520F5F5F5F5F5F5F5F5F5F5F5F5F5F5F5F5F5F5F5F5F5F5F5F5F5F5F5F5F5F5F5F5F5F5F5F5F5F5F5F5F5F5F5F5F5F5F5F5F5F5F5F5F5F5F5
310
F5F5F5F5202020F5F5F5F5F5F5F5F5F5F5F5F5F5F5F5F5F5F5F5F5F5F5F5F5F5F5F5F5F5F5F5F5F5F5F5F5F5F5F5F5F5F5F5F5F5F5F5F5F5F5F5F5F5F5F5F5F5F5F520F5F5F5F52020F5F5F5F5F5F5F5F5F5F5F5F5F5F5F5F5F5E2E2E2EFE2E2F5F5F5F5F5F5F5F5F5F5F5F5F5F5F5F5F52020F5F5F5F5F5F5202020201919
310
191919191919191919191919191919191919191919191919191919191919191919191919191919191919191919191919191919191919191919191919191919201919191919191919191919191919191919191919191919191919191919191919191919191919191919191919191919191919191919191920F5F5F5F52020F5
310
F5F5F5F5F5F5F5F5F5F5F5F5F5F5F5F5E2E2E2EFE2E2F5F5F5F5F5F5F5F5F5F5F5F5F5F5F5F5F52020F5F5F5F5F5F52020F519F5F5F519F5F5F519F5F5F5F5F5F5F5F5F5F5F5F5F5F5F5F5F5F5F5F5F5F5F5F5F5F5F5F5F5F5F5F5F5F5F5F5F5F5F5F5F5F5F5F5F5F5F5F5F5F5F5F5F5F5F5F5F520F5F5F5F5F5F5F5F5F5F5
310
F5F5F5F5F5F5F5F5F5F5F5F5F5F5F5F5F5F5F5F5F5F5F5F5F5F5F5F5F5F5F5F5F5F5F5F5F5F5F5F519F519F5F519F5F5F5F52020F5F5F5F5F5F5F5F5F5F5F5F5F5F5F5F5F5E2E2E2EFE2E2F5F5F5F5F5F5F5F5F5F5F5F5F5F5F5F5F52020F5F5F5F5F5F5F520F519F5F5F519F5F5F519F5F5F5F5F5F5F5F5F5F5F5F5F5F5F5
310
F5F5F5F5F5F5F5F5F5F5F5F5F5F5F5F5F5F5F5F5F5F5F5F5F5F5F5F5F5F5F5F5F5F5F5F5F5F5F5F5F5F5F520F5F5F5F5F5F5F5F5F5F5F5F5F5F5F5F5F5F5F5F5F5F5F5F5F5F5F5F5F5F5F5F5F5F5F5F5F5F5F5F5F5F5F5F5F5F5F5F5F519F519F5F519F5F5F5F52020F5F5F5F5F5F5F5F5F5F5F5F5F5F5F5F5F5E2E2E2EFE2
310
E2F5F5F5F5F5F5F5F5F5F5F5F5F5F5F5F5F52020F5F5F5F5F5F5F520F519F5F5F519F5F5F519F5F5F5F5F5F5F5F5F5F5F5F5F5F5F5F5F5F5F5F5F5F5F5F5F5F5F5F5F5F5F5F5F5F5F5F5F5F5F5F5F5F5F5F5F5F5F5F5F5F5F5F5F5F5F5F5F5F5F520F5F5F5F5F5F5F5F5F5F5F5F5F5F5F5F5F5F5F5F5F5F5F5F5F5F5F5F5F5
310
F5F5F5F5F5F5F5F5F5F5F5F5F5F5F5F5F5F5F519F519F5F519F5F5F5F52020F5F5F5F5F5F5F5F5F5F5F5F5F5F5F5F5F5E2E2E2EFE2E2F5F5F5F5F5F5F5F5F5F5F5F5F5F5F5F5F52020F5F5F5F5F5F5F520F519F5F5F519F5F5F519F5F5F5F5F5F5F5F5F5F5F5F5F5F5F5F5F5F5F5F5F5F5F5F5F5F5F5F5F5F5F5F5F5F5F5F5
310
F5202020202020F5F5F5F5F5F5F5F5F5F5F5F5F5F5F5F5F52020F5F5F5F5F5F5F5F5F5F5F5F5F5F5F5F5F5F5F5F5F5F5F5F5F5F5F5F5F5F5F5F5F5F5F5F5F5F5F5F5F5F5F5F5F5F519F519F5F519F5F5F5F52020F5F5F5F5F5F5F5F5F5F5F5F5F5F5F5F5F5E2E2E2EFE2E2F5F5F5F5F5F5F5F5F5F5F5F5F5F5F5F5F52020F5
310
F5F5F5F5F5F520F519F5F5F519F5F5F519F5F5F5F5F5F5F5F5F5F5F5F5F5F5F5F5F5F5F5F5F5F5F5F5F5F5F5F5F5F5F5F5F5F5F5F5F5202020202020F5F5F5F5F5F5F5F5F5F5F5F5F5F5F5F5F5F5F52020202020202020202020202020F5F5F5F5F5F5F5F5F5F5F5F5F5F5F5F5F5F5F5F5F5F5F5F5F5F5F5F5F5F5F5F519F5
310
19F5F519F5F5F5F52020F5F5F5F5F5F5F5F5F5F5F5F5F5F5F5F5F5E2E2E2EFE2E2F5F5F5F5F5F5F5F5F5F5F5F5F5F5F5F5F52020F5F5F5F5F5F5F520F519F5F5F519F5F5F519F5F5F5F5F5F5F5F5F5F5F5F5F5F5F5F5F5F5F5F5F5F5F5F5F5F5F5F5F5F5F5F5F5F5F5F5F5F5F5F5F5F5F5F5F5F5F5F5F5F5F5F5F5F5F5F5F5
310
F5F5F5F5F5F52020202020202020202020202020F5F5F5F5F5F5F5F5F5F5F5F5F5F5F5F5F5F5F5F5F5F5F5F5F5F5F5F5F5F5F519F519F5F519F5F5F5F52020F5F5F5F5F5F5F5F5F5F5F5F5F5F5F5F5F5E2E2E2EFE2E2F5F5F5F5F5F5F5F5F5F5F5F5F5F5F5F5F52020F5F5F5F5F5F5F520F519F5F5F5F519F5F519F5F5F5F5
310
F5F5F5F5F5F5F5F5F5F5F5F5F5F5F5F5F5F5F5F5F5F5F5F5F5F5F5F5F5F5F5F5F5F5F5F5F5F5F5F5F5F5F5F5F5F5F5F5F5F5F5F5F5F5F5F5F5F5F520202020202020202020202020F5F5F5F5F5F5F5F5F5F5F5F5F5F5F5F5F5F5F5F5F5F5F5F5F5F5F5F5F5F5F5F519F519F5F519F5F5F5F52020F5F5F5F5F5F5F5F5F5F5F5
310
F5F5F5F5F5F5E2E2E2EFE2E2F5F5F5F5F5F5F5F5F5F5F5F5F5F5F5F5F52020F5F5F5F5F5F5F520F519F5F5F5F519F5F519F5F5F5F5F5F5F5F5F5F5F5F5F5F5F5F5F5F5F5F5F5F5F5F5F5F5F5F5F5F5F5F5F5F5F5F5202020F520202020202020202020202020F5F5F5F5F5F5F5F5F5F5F5F5F5F5F5F5F5F5F5F5F5F5F5F5F5
310
F5F5F5F5F5F5F5F5F5F5F5F5F5F5F5F5F5F5F5F5F5F5F5F5F5F5F5F5F5F519F519F5F519F5F5F5F52020F5F5F5F5F5F5F5F5F5F5F5F5F5F5F5F5F5E2E2E2EFE2E2F5F5F5F5F5F5F5F5F5F5F5F5F5F5F5F5F52020F5F5F5F5F5F5F520F519F5F5F5F519F5F519F5F5F5F5F5F5F5F5F5F5F5F5F5F5F5F5F5F5F5F5F5F5F5F5F5
310
F5F5F5F5F5F5F5F5F5F5F5F520F52020F52020F52020F52020F52020F5F5F5F5F5F5F5F5F5F5F5F5F5F5F5F5F5F5F5F5F5F5F5F5F5F5F5F5F5F5F5F5F5F5F5F5F5F5F5F5F5F5F5F5F5F5F5F5F5F5F5F5F5F519F5F519F5F519F5F5F5F52020F5F5F5F5F5F5F5F5F5F5F5F5F5F5F5F5F5E2E2E2EFE2E2F5F5F5F5F5F5F5F5F5
310
F5F5F5F5F5F5F5F52020F5F5F5F5F5F5F520F519F5F5F5F519F5F519F5F5F5F5F5F5F5F5F5F5F5F5F5F5F5F5F5F5F5F5F5F5F5F5F5F5F5F5F5F5F5F5F5F5F5202020202020202020202020202020F5202020F5F5F5F5F5F5F5F5F5F5F5F5F5F5F5F5F5F5F5F5F5F5F5F5F5F5F5F5F5F5F5F5F5F5F5F5F5F5E2E2F5F5F5F5F5
310
F5F5F5F5F5F5F5F519F5F519F5F519F5F5F5F52020F5F5F5F5F5F5F5F5F5F5F5F5F5F5F5F5F5E2E2E2EFE2E2F5F5F5F5F5F5F5F5F5F5F5F5F5F5F5F5F52020F5F5F5F5F5F5F520F519F5F5F5F519F5F519F5F5F5F5F5F5F5F5F5F5F5F5F5F5F5F5F5F5F5F5F5F5F5F5F5F5F5F5F5F5F5F5F5F5F52020202020202020F52020
310
2020F52020202020F5F5F5F5F5F5F5F5F5F5F5F5F5F5F5F5F5F5F5F5F5F5F5F5F5F5F5F5F5F5F5F5F5F5F5F5F5F5E2E2F5F5F5F5F5F5F5F5F5F5F5F5F519F5F519F5F519F5F5F5F52020F5F5F5F5F5F5F5F5F5F5F5F5F5F5F5F5F5E2E2E2EFE2E2F5F5F5F5F5F5F5F5F5F5F5F5F5F5F5F5F52020F5F5F5F5F5F5F520F519F5
310
F5F5F519F5F519F5F5F5F5F5F5F5F5F5F5F5F5F5F5F5F5F5F5F5F5F5F5F5E2E2F5F5F5F5F5F5F5F5F5F5F5F5F5F5F5F5F5F5F5F5F5F5F5F5F5F5F5F5F5F5F5F5F5F5F5F5F5F5F5F5F5F5F5F5F5F5F5F5F5F5F5F5F5F5F5F5F5F5F5F5F5F5F5F5F5F5F5F5E2E2F5F5F5F5F5F5F5F5F5F5F5F519F5F519F5F519F5F5F5F52020
310
F5F5F5F5F5F5F5F5F5F5F5F5F5F5F5F5F5E2E2E2EFE2E2F5F5F5F5F5F5F5F5F5F5F5F5F5F5F5F5F52020F5F5F5F5F5F5F520F519F5F5F5F519F5F519F5F5F5F5F5F5F5F5F5F5F5F5F5F5F5F5F5F5F5F5F5F5F5E2E2F5F5F5F5F5F5F5F5F5F5F5F5F5F5F5F5F5F5F5F5F5F5F5F5F5F5F5F5F5F5F5F5F5F5F5F5F5F5F5F5F5F5
310
F5F5F5F5F5F5F5F5F5F5F5F5F5F5F5F5F5F5F5F5F5F5F5F5F5F5E2E2F5F5F5F5F5F5F5F5F5F5F5F519F5F519F5F519F5F5F5F52020F5F5F5F5F5F5F5F5F5F5F5F5F5F5F5F5F5E2E2E2EFE2E2F5F5F5F5F5F5F5F5F5F5F5F5F5F5F5F5F52020F5F5F5F5F5F5F520F519F5F5F5F519F5F519F5F5F5F5F5F5F5F5F5F5F5F5F5F5
310
F5F5F5F5F5F5F5F5F5F5E2E2F5F5F5F5F5F5F5F5F5F5F5F5F5F5F5F5F5F5F5F5F5F5F5F5F5F5F5F5F5F5F5F5F5F5F5F5F5F5F5F5F5F5F5F5F5F5F5F5F5F5F5F5F5F5F5F5F5F5F5F5F5F5F5F5F5F5F5E2E2E2E2E2E2E2F5F5F5F5F5F5F519F5F519F5F519F5F5F5F52020F5F5F5F5F5F5F5F5F5F5F5F5F5F5F5F5F5E2E2E2EF
310
E2F5F5F5F5F5F5F5F5F5F5F5F5F5F5F5F5F5F52020F5F5F5F5F5F5F520F519F5F5F5F519F5F519F5F5F5F5F5F5F5F5F5F5F5F5F5F5F5F5F5F5F5F5F5F5F5F5E2E2F5F5F5F5F5F5F5F5F5F5F5F5F5F5F5F5F5F5F5F5F5F5F5F5F5F5F5F5F5F5F5F5F5F5F5F5F5F5F5F5F5F5F5F5F5F5F5F5F5F5F5F5F5F5F5F5F5F5F5F5F5F5
310
F5F5F5F5F5E2E2E2E2E2E2E2F5F5F5F5F5F5F519F5F519F5F519F5F5F5F52020F5F5F5F5F5F5F5F5F5F5F5F5F5F5F5F5F5F5E2E2EFE2F5F5F5F5F5F5F5F5F5F5F5F5F5F5F5F5F5F52020F5F5F5F5F5F5F520F519F5F5F5F519F5F5F519F5F5F5F5F5F5F5F5F5F5F5F5F5F5F5F5F5F5F5F5F5F5F5E2E2E2E2E2E2E2F5F5F5F5
310
F5F5F5F5F5F5F5F5F5F5F5F5F5F5F5F5F5F5F5F5F5F5F5F5F5F5F5F5F5F5F5F5F5F5F5F5F5F5F5F5F5F5F5F5F5F5F5F5F5F5F5F5F5F5F5F5F5F5202020202020202020F5F5F5F5F519F5F519F5F519F5F5F5F52020F5F5F5F5F5F5F5F5F5F5F5F5F5F5F5F5F5F5E2E2EFE2F5F5F5F5F5F5F5F5F5F5F5F5F5F5F5F5F5F52020
310
F5F5F5F5F5F5F520F519F5F5F5F5F519F5F519F5F5F5F5F5F5F5F5F5F5F5F5F5F5F5F5F5F5F5F5F5F5F5F5E2E2E2E2E2E2F5F5F5F5F5F5F5F5F5F5F5F5F5F5F5F5F5F5F5F5F5F5F5F5F5F5F5F5F5F5F5F5F5F5F5F5F5F5F5F5F5F5F5F5202020202020202020202020F5F5F5F5F5F5202020202020F5F5F5F5F5F5F5F519F5
310
F519F5F519F5F5F5F52020F5F5F5F5F5F5F5F5F5F5F5F5F5F5F5F5F5F5E2E2EFE2F5F5F5F5F5F5F5F5F5F5F5F5F5F5F5F5F5F5202020F5F5F5F5F52020F519F5F5F5F5F519F5F519F5F5F5F5F5F5F5F5F5F5F5F5F5F5F5F5F5F5F5F5F5F5F5F5E2E2E2E2E2E2F5F5F5F5F5F5F5F5F5F5F5F5F5F5F5F5F5F5F5F5F5F5F5F5F5
310
F5F5F5F5F5F5F5F5F5F5F5F5F5F5F5F5F5F5F5202020202020202020202020F5F5F5F5F5F52020202020F5F5F5F5F5F5F5F5F519F5F519F5F519F5F5F5202020F5F5F5F5F5F5F5F5F5F5F5F5F5F5F5F5F5F5E2E2EFE2F5F5F5F5F5F5F5F5F5F5F5F5F5F5F5F5F5F52020F5F5F5F5F5F52020F519F5F5F5F5F519F5F519F5F5
310
F520202020202020202020202020F5F5F5F5F5F5F52020202020202020F5F5F5F5F5F5F5F5F5F5F5F5F5F5F5F5F5F5F5F5F5F5F5F5F5F5F5F5F5F5F5F5F5F5F5F5F5F5F5F5F5F5F5F5F5F5F5F5F5F5F5F5F5F5F5F5F5F5F5F5F5F5F5F5F5F5F5F5F5F5F5F5F5F5F519F5F519F5F519F5F5F5F52020F5F5F5F5F5F5F5F5F5F5
310
F5F5F5F5F5F5F5F5E2E2EFE2F5F5F5F5F5F5F5F5F5F5F5F5F5F5F5F5F5F52020F5F5F5F5F5F5F520F519F5F5F5F5F519F5F519F5F5F5F5202020202020202020202020F5F5F5F5F5F5F5202020202020202020F5F5F5F5F5F5F5F5F5F5F5F5F5F5F5F5F5F5F5F5F5F5F5F5F5F5F5F5F5F5F5F5F5F5F5F5F5F5F5F5F5F5F5F5
310
F5202020202020202020F5F5F5F5F5F5F5F5F5F5F5F5F5F5F5F5F5F5F5F519F5F519F5F519F5F5F5F52020F5F5F5F5F5F5F5F5F5F5F5F5F5F5F5F5F5F5E2E2EFE2F5F5F5F5F5F5F5F5F5F5F5F5F5F5F5F5F5F52020F5F5F5F5F5F5F520F519F5F5F5F5F519F5F519F5F5F5F5F5F5F5F5F5F5F5F5F5F5F5F5F5F5F5F5F5F5F5
310
202020202020F5F5F5F5F5F5F5F5F5F5F5F5F5F5F5F5F5F5F5F5F5F5F5F5F5F5F5F5F5F5F5F5F5F5F5F5F5F5F5F5F5F5F5F5202020202020202020202020202020F5F5F5F5F5F5F5F5F5F5F5F5F5F5F5F5F5F519F519F5F5F519F5F5F5F52020F5F5F5F5F5F5F5F5F5F5F5F5F5F5F5F5F5F5E2E2EFE2F5F5F5F5F5F5F5F5F5
310
F5F5F5F5F5F5F5F5F52020F5F5F5F5F5F5F520F519F5F5F5F5F519F5F5F519F5F5F5F52020202020202020202020F5F5F5F5F5F5F5F5F5F5F5F5F5F5F5F5F5F5F5F5F5F5F5F5F5F5F5F5F5F5F5F5F5F5F5F5F5F5F5F5F5F5F5F5F5F5F5F5F5F5F5F5F5F5F5F5F5F5F5F5F5F5F5F5F5F5F5F5F5F5F5F520F5F5F5F5F5F5F5F5
310
F5F5F5F5F5F5F5F519F5F519F5F5F519F5F5F5F52020F5F5F5F5F5F5F5F5F5F5F5F5F5F5F5F5F5F5E2E2EFE2F5F5F5F5F5F5F5F5F5F5F5F5F5F5F5F5F5F52020F5F5F5F5F5F5F520F519F5F5F5F5F5F519F5F519F5F52020202020202020202020F5F52020F5F5F5F5F5F5F5F5F5F5F5F5F5F5F5F5F5F5F5F5F5F5F5F5F5F5
310
F5F5F5F5F5F5F5F5F5F5F5F5F5F5F5F5F5F5F5F5F5F5F5F5F5F5F5F5F5F5F5F5F5F5F5F5F5F5F5F5F5F5F5F5F52020F5F5F5F5F5F5F5F5F5F5F5F51919F5F519F5F5F5F519F5F5F5F52020F5F5F5F5F5F5F5F5F5F5F5F5F5F5F5F5F5F5E2E2EFE2E2F5F5F5F5F5F5F5F5F5F5F5F5F5F5F5F5F52020F5F5F5F5F5F5F520F519
310
F5F5F5F5F5F519F5F519F5F5F5F5F5F5F5F5F5F5F5F5F5F5F5F5F520F5F5F5F5F5F5F5F5F5F5F5F5F5F5F5F5F5F5F5F5F5F5F5F5F5F5F5F5F5F5F5F5F5F5F5F5F5F5F5F5F5F5F5F5F5F5F5F5F5F5F5F5F5F5F5F5F5F5F5F5F5F5F5F5F5F5F5F5F5F5F5F520F5F5F5F5F5F5F5F5F51919F5F5F519F5F5F5F5F519F5F5F5F520
310
20F5F5F5F5F5F5F5F5F5F5F5F5F5F5F5F5F5E2E2E2EFE2E2F5F5F5F5F5F5F5F5F5F5F5F5F5F5F5F5F52020F5F5F5F5F5F5F520F519F5F5F5F5F5F519F5F5F519F5F5F5F520202020202020202020F5F5F520F5F5F5F5F5F5F5F5F5F5F5F5F5F5F5F5F5F5F5F5F5F5F5F5F5F5F5F5F5F5F5F5F5F5F5F5F5F5F5F5F5F5F5F5F5
310
F5F5F5F5F5F5F5F5F5F5F5F5F5F5F5F5F5F5F5F5F5F5F5F5F5F5F5201919191919191919F5F5F51919F5F5F5F5F5F519F5F5F5F52020F5F5F5F5F5F5F5F5F5F5F5F5F5F5F5F5F5E2E2E2EFE2E2F5F5F5F5F5F5F5F5F5F5F5F5F5F5F5F5F52020F5F5F5F5F5F5F520F519F5F5F5F5F5F519F5F5F519F5F5F5F5F5F5F5F5F5F5
310
F5F5F5F5F5F5F520F5F5F5F5F5F5F5F5F5F5F5F5F5F5F5F5F5F5F5F5F5F5F5F5F5F5F5F5F5F5F5F5F5F5F5F5F5F5F5F5F5F5F5F5F5F5F5F5F5F5F5F5F5F5F5F5F5F5F5F5191919191919191919191919191919191919191919191919F5F5F5F5F5F5F5F519F5F5F5F52020F5F5F5F5F5F5F5F5F5F5F5F5F5F5F5F5F5E2E2E2
310
EFE2E2F5F5F5F5F5F5F5F5F5F5F5F5F5F5F5F5F52020F5F5F5F5F5F5F520F519F5F5F5F5F5F5F519F5F5F519F5F5F5F5F5F5F5F5F5F5F5F5F5F5F5F5F520F5F5F5F5F5F5F5F5F5F5F5F5F5F5F5F5F5F5F5F5F5F5F5F5F5F5F5F5F5F5F5F5F5F5F5F5F5F5F5F5F519F5F5F5F5F5191919191919191919191919191919191919
310
191919191919F5F5F5F5F5F5F5F5F5F5F5F5F5F5F5F5F5F5F5F519F5F5F5F52020F5F5F5F5F5F5F5F5F5F5F5F5F5F5F5F5F5E2E2E2EFE2E2F5F5F5F5F5F5F5F5F5F5F5F5F5F5F5F5F52020F5F5F5F5F5F5F520F519F5F5F5F5F5F5F519F5F5F519F5F5F5F5F5F5F5F5F5F5F5F5F5F5F5F5F5F520F5F5F5F5F5F5F5F5F5F5F5
310
F5F5F5F5F5F5F5F5F5F5F5F5F5F5F5F5F5F5F5F5F5F5F5F5F5F5F5F519191919191919191919191919191919191919F5F5F5F5F5F5F5F5F5F5F5F5F5F5F5F5F5F5F5F5F5F5F5F5F5F5F5F5F5F5F5F519F5F5F5F52020F5F5F5F5F5F5F5F5F5F5F5F5F5F5F5F5F5E2E2E2EFE2E2F5F5F5F5F5F5F5F5F5F5F5F5F5F5F5F5F520
310
20F5F5F5F5F5F5F520F519F5F5F5F5F5F5F5F51919F5F5191919F5F5F5F5F5F5F5F5F5F5F5F5F5F5F5F520F51919191919191919191919191919F5F5F5F5F5F5F5F5F5F5F5F5F5F5F5F5F5F5F5F5F5191919191919191919F5F5F5F5F5F5F5F5F5F5F5F5F5F5F5F5F5F5F5F5F5F5F5F5F5F5F5F5F5F5F5F5F5F5F5F5F5F5F5
310
F5F5F5F5F519F5F5F5F52020F5F5F5F5F5F5F5F5F5F5F5F5F5F5F5F5F5E2E2E2EFE2E2F5F5F5F5F5F5F5F5F5F5F5F5F5F5F5F5F52020F5F5F5F5F5F5F520F519F5F5F5F5F5F5F5F5F5F51919F5F5F5191919191919191919191919191919192019F5F5F5F5F5F5F5F5F5F5F5F5F5F51919F5F5F5F5F5F5F5F5F5F5F5F5F5F5
310
F5F5F5F519F5F519F5F5F5F5F5F5F5F5F5F5F5F5F5F5F5F5F5F5F5F5F5F5F5F5F5F5F5F5F5F5F5F5F5F5F5F5F5F5F5F5F5F5F5F5F5F5F5F5F5F519F5F5F5F52020F5F5F5F5F5F5F5F5F5F5F5F5F5F5F5F5F5E2E2E2EFE2E2F5F5F5F5F5F5F5F5F5F5F5F5F5F5F5F5F52020F5F5F5F5F5F5F520F519F5F5F5F5F5F5F5F5F5F5
310
F5F51919191919F5F5F5F5F5F5F5F5F5F5F5F5F5F5F5201919191919191919191919191919F5F5191919191919191919191919191919191919F5F519F5F5F5F5F5F5F5F5F5F5F5F5F5F5F5F5F5F5F5F5F5F5F5F5F5F5F5F5F5F5F5F5F5F5F5F5F5F5F5F5F5F5F5F5F5F5F5F5F5F5F519F5F5F5F52020F5F5F5F5F5F5F5F5F5
310
F5F5F5F5F5F5F5F5E2E2E2EFE2E2F5F5F5F5F5F5F5F5F5F5F5F5F5F5F5F5F52020F5F5F5F5F5F5F520F519F5F5F5F5F5F5F5F5F5F5F5F5F5F5F5F5F519191919191919191919191919191919F5F5F5F5F5F5F5F5F5F5F5F5F519F5F5F5F5F5F5F5F5F5F5F5F519191919191919191919F5F5F5F5F5F5F5F5F5F5F5F5F5F5F5
310
F5F5F5F5F5F5F5F5F5F5F5F5F5F5F5F5F5F5F5F5F5F5F5F5F5F5F5F52020202020F5F5F5F519F5F5F5F52020F5F5F5F5F5F5F5F5F5F5F5F5F5F5F5F5F5E2E2E2EFE2E2F5F5F5F5F5F5F5F5F5F5F5F5F5F5F5F5F52020F5F5F5F5F5F5F520F519F5F5F5F5F5F5F5F5F5F5F5F5F5F5F5F5F5F5F5F5F5F5F5F5F5F5F5F5F5F5F5
310
F5F5F5F5F5F5F5F5F5F5F5F5F5F5F5F5191919191919191919191919F5F5F5F5F5F5F5F5F5F5F5F5F5F5F5F5F5F5F5F5F5F5F5F5F5F5F5F5F5F5F5F5F5F5F5F5F5F5F5F5F5F5F5F5F5F5F5F5F5F5F5F5F5F5F5F5F5F5F5F5F5F519F5F5F5F52020F5F5F5F5F5F5F5F5F5F5F5F5F5F5F5F5F5E2E2E2EFE2E2F5F5F5F5F5F5F5
310
F5F5F5F5F5F5F5F5F5F52020F5F5F5F5F5F5F520F519F5F5F5F5F5F5F5F5F5F5F5F5F5F5F5F5F5F5F5F5F5F5F5F5F5F5F5F5F5F5F5F5F5F5F5F5F5F5F5F5F5F5F5F5F5F5F5F5F5F5F5F5F5F5F5F5F5F5F5F5F5F5F5F5F5F5F5F5F5F5F5F5F5F5F5F5F5F5F5F5F5F5F5F5F5F5F5F5F5F5F5F5F5F5F5F5F5F5F5F5F5F5F5F5F5
310
F5F5F5F5F5F5F5202020202020F5F5F519F5F5F5F52020F5F5F5F5F5F5F5F5F5F5F5F5F5F5F5F5F5E2E2E2EFE2E2F5F5F5F5F5F5F5F5F5F5F5F5F5F5F5F5F52020F5F5F5F5F5F5F520F519F5F5F5F5F5F5F5F5F5F5F5F5F5F5F5F5F5F5F5F5F5F5F5F5F5F5F5F5F5F5F5F5F5F5F5F5F5F5F5F5F5F5F5F5F5F5F5F5F5F5F5F5
310
F5F5F5F5F5F5F5F5F5F5F5F5F5F5F5F5F5F5F5F5F5F5F5F5F5F5F5F5F5F5F5F5F5F5F5F5F5F5F5F5F5F5F5F5F5F5F5F5F5F5F5F5F5F5F5F5F5F5F5F5F5F5F5F5F5F5F5F5F519F5F5F5F52020F5F5F5F5F5F5F5F5F5F5F5F5F5F5F5F5F5E2E2E2EFE2E2F5F5F5F5F5F5F5F5F5F5F5F5F5F5F5F5F52020F5F5F5F5F5F52020F5
310
19F5F5F5F5F5F5F5F5F5F5F5F5F5F5F5F5F5F5F5F5F5F5F5F5F5F5F5F5F5F5F5F5F5F5F5F5F5F5F5F5F5F5F5F5F5F5F5F5F5F5F5F5F5F5F5F5F5F5F5F5F5F5F5F5F5F5F5F5F5F5F5F5F5F5F5F5F5F5F5F5F5F5F5F5F5F5F5F5F5F5F5F5F5F5F5F5F5F5F5F5F5F5F5F5F5F5F5F5F5F5F5F5F5F5F5F5F5F5F5F5F519F5F5F5F5
310
2020F5F5F5F5F5F5F5F5F5F5F5F5F5F5F5F5F5E2E2E2EFE2E2F5F5F5F5F5F5F5F5F5F5F5F5F5F5F5F5F52020F5F5F5F5F5F52020202020191919191919191919191919191919191919191919191919191919191919191919191919191919191919191919191919191919191919191919191919191919191919191919191919
310
191919191919191919191919191919191919191919191919191919191919191919191919191919191919191919191919F5F5F5F5F52020F5F5F5F5F5F5F5F5F5F5F5F5F5F5F5F5F5E2E2E2EFE2E2F5F5F5F5F5F5F5F5F5F5F5F5F5F5F5F5F52020F5F5F5F5F5F5F5F5F5F5F5F5F5F5F5F5F5F5F5F5F5F5F5F5F5F5F5F5F5F5
310
F5F5F5F5F5F5F5F5F5F5F5F5F5F5F5F5F5F5F5F5F5F5F5F5F5F5F5F5F5F5F5F5F5F5F5F5F5F5F5F5F5F5F5F5F5F5F5F5F5F5F5F5F5F5F5F5F5F5F5F5F5F5F5F5F5F5F5F5F5F5F5F5F5F5F5F5F5F5F5F5F5F5F5F5F5F5F5F5F5F5F5F5F5F5F5F5F5F5F5F5F5F5F5F5F5F52020F5F5F5F5F5F5F5F5F5F5F5F5F5F5F5F5F5E2E2
310
E2EFE2E2F5F5F5F5F5F5F5F5F5F5F5F5F5F5F5F5F52020F5F5F5F5F5F5F5F5F5F5F5F5F5F5F5F520F5F5F5F5F5F5F5F5F5F5F5F5F5F5F5F520F5F5F5F5F5F5F5F5F5F5F5F5F5F5F5F520F5F5F5F5F5F5F5F5F5F5F5F5F5F5F5F520F5F5F5F5F5F5F5F5F5F5F5F5F5F5F5F5F520F5F5F5F5F5F5F5F5F5F5F5F5F5F5F5F520F5
310
F5F5F5F5F5F5F5F5F5F5F5F5F5F5F520F5F5F5F5F5F5F5F5F5F5F5F5F5F5F5F52020F5F5F5F5F5F5F5F5F5F5F5F5F5F5F5F5F5E2E2E2EFE2F5F5F5F5F5F5F5F5F5F5F5F5F5F5F5F5F5F52020202020202020202020202020202020202020202020202020202020202020202020202020202020202020202020202020202020
310
202020202020202020202020202020202020202020202020202020202020202020202020202020202020202020202020202020202020202020202020202020202020202020202020202020202020202020202020202020F5F5F5F5F5F5F5F5F5F5F5F5F5F5F5F5F5F5E2E2EFE2F5F5F5F5F5F5F5F5F5F5F5F5F5F5F5F5F5F5
310
20F5F5F5F5F5F5F5F5F5F5F5F5F5F5F5F5F5F5F5F5F5F5F5F5F5F5F5F5F5F5F5F5F5F5F5F5F5F5F5F5F5F5F5F5F5F5F5F5F5F5F5F5F5F5F5F5F5F5F5F5F5F5F5F5F5F5F5F5F5F5F5F5F5F5F5F5F5F5F5F5F5F5F5F5F5F5F5F5F5F5F5F5F5F5F5F5F5F5F5F5F5F5F5F5F5F5F5F5F5F5F5F5F5F5F5F5F5F5F5F5F5F5F5F5F5F5
310
F5F5F5F5F5F5F5F5F5F5F5F520F5F5F5F5F5F5F5F5F5F5F5F5F5F5F5F5F5F5E2E2EFE2F5F5F5F5F5F5F5F5F5F5F5F5F5F5F5F5F5F520F5F5F5F5F5F5F5F5F5F5F5F5F5F5F5F5F5F5F5F5F5F5F5F5F5F5F5F5F5F5F5F5F5F5F5F5F5F5F5F5F5F5F5F5F5F5F5F5F5F5F5F5F5F5F5F5F5F5F5F5F5F5F5F5F5F5F5F5F5F5F5F5F5
310
F5F5F5F5F5F5F5F5F5F5F5F5F5F5F5F5F5F5F5F5F5F5F5F5F5F5F5F5F5F5F5F5F5F5F5F5F5F5F5F5F5F5F5F5F5F5F5F5F5F5F5F5F5F5F5F5F5F5F5F5F5F5F5F5F520F5F5F5F5F5F5F5F5F5F5F5F5F5F5F5F5F5F5E2E2EFE2F5F5F5F5F5F5F5F5F5F5F5F5F5F5F5F5F5F520F5F5F5F5F5F5F5F5F5F5F5F5F5F5F5F5F5F5F5F5
310
F5F5F5F5F5F5F5F5F5F5F5F5F5F5F5F5F5F5F5F5F5F5F5F5F5F5F5F5F5F5F5F5F5F5F5F5F5F519F5F5F5F5F5F5F5F5F5F5F5F5F5F5F5F5F5F5F5F5F5F5F5F5F5F5F5F5F5F5F5F5F5F5F5F5F5F5F5F5F5F5F5F5F5F5F5F5F5F5F5F5F5F5F5F5F5F5F5F5F5F5F5F5F5F5F5F5F5F5F5F5F5F5F5F5F5F5F520F5F5F5F5F5F5F5F5
310
F5F5F5F5F5F5F5F5F5F5E2E2EFE2F5F5F5F5F5F5F5F5F5F5F5F5F5F5F5F5F5F520F5F5F5F5F5F5F5F5F5F5F5F5F5F5F5F5F5F5F5F5F5F5F5F5F5F5F5F5F5F5F5F5F5F5F5F5F5F5F5F5F5F5F5F5F5F5F5F5F5F5F5F5F5F5F5F5F5F5F5F5F5F5F5F5F5F5F5F5F5F5F5F5F5F5F5F5F5F5F5F5F5F5F5F5F5F5F5F5F5F5F5F5F5F5
310
F5F5F5F5F5F5F5F5F5F5F5F5F5F5F5F5F5F5F5F5F5F5F5F5F5F5F5F5F5F5F5F5F5F5F5F5F5F5F5F5F5F5F5F520F5F5F5F5F5F5F5F5F5F5F5F5F5F5F5F5F5F5E2E2EFE2F5F5F5F5F5F5F5F5F5F5F5F5F5F5F5F5F5F520F5F5F5F5F5F5F5F5F5F5F5F5F5F5F5F5F5F5F5F5F5F5F5F5F5F5F5F5F5F5F5F5F5F5F5F5F5F5F5F5F5
310
F5F5F5F5F5F5F5F5F5F5F5F5F5F5F5F5F5F5F5F5F5F5F5F5F5F5F5F5F5F5F5F5F5F5F5F5F5F5F5F5F5F5F5F5F5F5F5F5F5F5F5F5F5F5F5F5F5F5F5F5F5F5F5F5F5F5F5F5F5F5F5F5F5F5F5F5F5F5F5F5F5F5F5F5F5F5F5F5F5F5F5F5F5F5F5F5F520F5F5F5F5F5F5F5F5F5F5F5F5F5F5F5F5F5F5E2E2EFE2F5F5F5F5F5F5F5
310
F5F5F5F5F5F5F5F5F5F5F520F5F5F5F5F5F5F5F5F5F5F5F5F5F5F5F5F5F5F5F5F5F5F5F5F5F5F5F5F5F5F5F5F5F5F5F5F5F5F5F5F5F5F5F5F5F5F5F5F5F5F5F5F5F5F5F5F5F5F5F5F5F5F5F5F5F5F5F5F5F5F5F5F5F5F5F5F5F5F5F5F5F5F5F5F5F5F5F5F5F5F5F5F5F5F5F5F5F5F5F5F5F5F5F5F5F5F5F5F5F5F5F5F5F5F5
310
F5F5F5F5F5F5F5F5F5F5F5F5F5F5F5F5F5F5F5F5F5F5F520F5F5F5F5F5F5F5F5F5F5F5F5F5F5F5F5F5F5E2E2EFE2F5F5F5F5F5F5F5F5F5F5F5F5F5F5F5F5F5F520F5F5F5F5F5F5F5F5F5F5F5F5F5F5F5F5F5F5F5F5F5F5F5F5F5F5F5F5F5F5F5F5F5F5F5F5F5F5F5F5F5F5F5F5F5F5F5F5F5F5F5F5F5F5F5F5F5F5F5F5F5F5
310
F5F5F5F5F5F5F5F5F5F5F5F5F5F5F5F5F5F5F5F5F5F5F5F5F5F5F5F5F5F5F5F5F5F5F5F5F5F5F5F5F5F5F5F5F5F5F5F5F5F5F5F5F5F5F5F5F5F5F5F5F5F5F5F5F5F5F5F5F5F5F5F5F5F5F5F520F5F5F5F5F5F5F5F5F5F5F5F5F5F5F5F5F5F5E2E2EFE2E2F5F5F5F5F5F5F5F5F5F5F5F5F5F5F5F5F520F5F5F5F5F5F5F5F5F5
310
F5F5F5F5F5F5F5F5F5F5F5F5F5F5F5F5F5F5F5F5F5F5F5F5F5F5F5F5F5F5F5F5F5F5F5F5F5F5F5F5F5F5F5F5F5F5F5F5F5F5F5F5F5F5F5F5F5F5F5F5F5F5F5F5F5F5F5F5F5F5F5F5F5F5F5F5F5F5F5F5F5F5F5F5F5F5F5F5F5F5F5F5F5F5F5F5F5F5F5F5F5F5F5F5F5F5F5F5F5F5F5F5F5F5F5F5F5F5F5F5F5F5F5F5F5F5F5
310
F5F520F5F5F5F5F5F5F5F5F5F5F5F5F5F5F5F5F5E2E2E2EFE2E2F5F5F5F5F5F5F5F5F5F5F5F5F5F5F5F5F520F5F5F5F5F5F5F5F5F5F5F5F5F5F5F5F5F5F5F5F5F5F5F5F5F5F5F5F5F5F5F5F5F5F5F5F5F5F5F5F5F5F5F5F5F5F5F5F5F5F5F5F5F5F5F5F5F5F5F5F5F5F5F5F5F5F5F5F5F5F5F5F5F5F5F5F5F5F5F5F5F5F5F5
310
F5F5F5F5F5F5F5F5F5F5F5F5F5F5F5F5F5F5F5F5F5F5F5F5F5F5F5F5F5F5F5F5F5F5F5F5F5F5F5F5F5F5F5F5F5F5F5F5F5F5F5F5F5F5F520F5F5F5F5F5F5F5F5F5F5F5F5F5F5F5F5F5E2E2E2EFE2E2F5F5F5F5F5F5F5F5F5F5F5F5F5F5F5F5F520F5F5F5F5F5F5F5F5F5F5F5F5F5F5F5F5F5F5F5F5F5F5F5F5F5F5F5F5F5F5
310
F5F5F5F5F5F5F5F5F5F5F5F5F5F5F5F5F5F5F5F5F5F5F5F5F5F5F5F5F5F5F5F5F5F5F5F5F5F5F5F5F5F5F5F5F5F5F5F5F5F5F5F5F5F5F5F5F5F5F5F5F5F5F5F5F5F5F5F5F5F5F5F5F5F5F5F5F5F5F5F5F5F5F5F5F5F5F5F5F5F5F5F5F5F5F5F5F5F5F5F5F5F5F5F5F5F5F5F520F5F5F5F5F5F5F5F5F5F5F5F5F5F5F5F5F5E2
310
E2E2EFE2E2F5F5F5F5F5F5F5F5F5F5F5F5F5F5F5F5F520F5F5F5F5F5F5F5F5F5F5F5F5F5F5F5F5F5F5F5F5F5F5F5F5F5F5F5F5F5F5F5F5F5F5F5F5F5F5F5F5F5F5F5F5F5F5F5F5F5F5F5F5F5F5F5F5F5F5F5F5F5F5F5F5F5F5F5F5F5F5F5F5F5F5F5F5F5F5F5F5F5F5F5F5F5F5F5F5F5F5F5F5F5F5F5F5F5F5F5F5F5F5F5F5
310
F5F5F5F5F5F5F5F5F5F5F5F5F5F5F5F5F5F5F5F5F5F5F5F5F5F5F5F5F5F5F5F5F5F520F5F5F5F5F5F5F5F5F5F5F5F5F5F5F5F5F5E2E2E2EFE2E2F5F5F5F5F5F5F5F5F5F5F5F5F5F5F5F5F520F5F5F5F5F5F5F5F5F5F5F5F5F5F5F5F5F5F5F5F5F5F5F5F5F5F5F5F5F5F5F5F5F5F5F5F5F5F5F5F5F5F5F5F5F5F5F5F5F5F5F5
310
F5F5F5F5F5F5F5F5F5F5F5F5F5F5F5F5F5F5F5F5F5F5F5F5F5F5F5F5F5F5F5F5F5F5F5F5F5F5F5F5F5F5F5F5F5F5F5F5F5F5F5F5F5F5F5F5F5F5F5F5F5F5F5F5F5F5F5F5F5F5F5F5F5F5F5F5F5F5F5F5F5F5F5F5F5F5F520F5F5F5F5F5F5F5F5F5F5F5F5F5F5F5F5F5E2E2E2EFE2E2F5F5F5F5F5F5F5F5F5F5F5F5F5F5F5F5
310
F520F5F5F5F5F5F5F5F5F5F5F5F5F5F5F5F5F5F5F5F5F5F5F5F5F5F5F5F5F5F5F5F5F5F5F5F5F5F5F5F5F5F5F5F5F5F5F5F5F5F5F5F5F5F5F5F5F5F5F5F5F5F5F5F5F5F5F5F5F5F5F5F5F5F5F5F5F5F5F5F5F5F5F5F5F5F5F5F5F5F5F5F5F5F5F5F5F5F5F5F5F5F5F5F5F5F5F5F5F5F5F5F5F5F5F5F5F5F5F5F5F5F5F5F5F5
310
F5F5F5F5F5F5F5F5F5F5F5F5F520F5F5F5F5F5F5F5F5F5F5F5F5F5F5F5F5F5E2E2E2EFE2E2F5F5F5F5F5F5F5F5F5F5F5F5F5F5F5F5F520F5F5F5F5F5F5F5F5F5F5F5F5F5F5F5F5F5F5F5F5F5F5F5F5F5F5F5F5F5F5F5F5F5F5F5F5F5F5F5F5F5F5F5F5F5F5F5F5F5F5F5F5F5F5F5F5F5F5F5F5F5F5F5F5F5F5F5F5F5F5F5F5
310
F5F5F5F5F5F5F5F5F5F5F5F5F5F5F5F5F5F5F5F5F5F5F5F5F5F5F5F5F5F5F5F5F5F5F5F5F5F5F5F5F5F5F5F5F5F5F5F5F5F5F5F5F5F5F5F5F5F5F5F5F5F5F5F5F5F520F5F5F5F5F5F5F5F5F5F5F5F5F5F5F5F5F5E2E2E2EFE2E2F5F5F5F5F5F5F5F5F5F5F5F5F5F5F5F5F520F5F5F5F5F5F5F5F5F5F5F5F5F5F5F5F5F5F5F5
310
F5F5F5F5F5F5F5F5F5F5F5F5F5F5F5F5F5F5F5F5F5F5F5F5F5F5F5F5F5F5F5F5F5F5F5F5F5F5F5F5F5F5F5F5F5F5F5F5F5F5F5F5F5F5F5F5F5F5F5F5F5F5F5F5F5F5F5F5F5F5F5F5F5F5F5F5F5F5F5F5F5F5F5F5F5F5F5F5F5F5F5F5F5F5F5F5F5F5F5F5F5F5F5F5F5F5F5F5F5F5F5F5F5F5F5F5F5F5F520F5F5F5F5F5F5F5
310
F5F5F5F5F5F5F5F5F5F5E2E2E2EFE2E2F5F5F5F5F5F5F5F5F5F5F5F5F5F5F5F5F520F5F5F5F5F5F5F5F5F5F5F5F5F5F5F5F5F5F5F5F5F5F5F5F5F5F5F5F5F5F5F5F5F5F5F5F5F5F5F5F5F5F5F5F5F5F5F5F5F5F5F5F5F5F5F5F5F5F5F5F5F5F5F5F5F5F5F5F5F5F5F5F5F5F5F5F5F5F5F5F5F5F5F5F5F5F5F5F5F5F5F5F5F5
310
F5F5F5F5F5F5F5F5F5F5F5F5F5F5F5F5F5F5F5F5F5F5F5F5F5F5F5F5F5F5F5F5F5F5F5F5F5F5F5F5F5F5F5F5F520F5F5F5F5F5F5F5F5F5F5F5F5F5F5F5F5F5E2E2E2EFE2E2F5F5F5F5F5F5F5F5F5F5F5F5F5F5F5F5F520F5F5F5F5F5F5F5F5F5F5F5F5F5F5F5F5F5F5F5F5F5F5F5F5F5F5F5F5F5F5F5F5F5F5F5F5F5F5F5F5
310
F5F5F5F5F5F5F5F5F5F5F5F5F5F5F5F5F5F5F5F5F5F5F5F5F5F5F5F5F5F5F5F5F5F5F5F5F5F5F5F5F5F5F5F5F5F5F5F5F5F5F5F5F5F5F5F5F5F5F5F5F5F5F5F5F5F5F5F5F5F5F5F5F5F5F5F5F5F5F5F5F5F5F5F5F5F5F5F5F5F5F5F5F5F5F5F5F5F520F5F5F5F5F5F5F5F5F5F5F5F5F5F5F5F5F5E2E2E2EFE2E2F5F5F5F5F5
310
F5F5F5F5F5F5F5F5F5F5F5F520F5F5F5F5F5F5F5F5F5F5F5F5F5F5F5F5F5F5F5F5F5F5F5F5F5F5F5F5F5F5F5F5F5F5F5F5F5F5F5F5F5F5F5F5F5F5F5F5F5F5F5F5F5F5F5F5F5F5F5F5F5F5F5F5F5F5F5F5F5F5F5F5F5F5F5F5F5F5F5F5F5F5F5F5F5F5F5F5F5F5F5F5F5F5F5F5F5F5F5F5F5F5F5F5F5F5F5F5F5F5F5F5F5F5
310
F5F5F5F5F5F5F5F5F5F5F5F5F5F5F5F5F5F5F5F5F5F5F5F520F5F5F5F5F5F5F5F5F5F5F5F5F5F5F5F5F5E2E2E2EFE2E2F5F5F5F5F5F5F5F5F5F5F5F5F5F5F5F5F520F5F5F5F5F5F5F5F5F5F5F5F5F5F5F5F5F5F5F5F5F5F5F5F5F5F5F5F5F5F5F5F5F5F5F5F5F5F5F5F5F5F5F5F5F5F5F5F5F5F5F5F5F5F5F5F5F5F5F5F5F5
310
F5F5F5F5F5F5F5F5F5F5F5F5F5F5F5F5F5F5F5F5F5F5F5F5F5F5F5F5F5F5F5F5F5F5F5F5F5F5F5F5F5F5F5F5F5F5F5F5F5F5F5F5F5F5F5F5F5F5F5F5F5F5F5F5F5F5F5F5F5F5F5F5F5F5F5F5F520F5F5F5F5F5F5F5F5F5F5F5F5F5F5F5F5F5E2E2E2EFE2E2F5F5F5F5F5F5F5F5F5F5F5F5F5F5F5F5F520F5F5F5F5F5F5F5F5
310
F5F5F5F5F5F5F5F5F5F5F5F5F5F5F5F5F5F5F5F5F5F5F5F5F5F5F5F5F5F5F5F5F5F5F5F5F5F5F5F5F5F5F5F5F5F5F5F5F5F5F5F5F5F5F5F5F5F5F5F5F5F5F5F5F5F5F5F5F5F5F5F5F5F5F5F5F5F5F5F5F5F5F5F5F5F5F5F5F5F5F5F5F5F5F5F5F5F5F5F5F5F5F5F5F5F5F5F5F5F5F5F5F5F5F5F5F5F5F5F5F5F5F5F5F5F5F5
310
F5F5F520F5F5F5F5F5F5F5F5F5F5F5F5F5F5F5F5F5E2E2E2EFE2E2F5F5F5F5F5F5F5F5F5F5F5F5F5F5F5F5F520F5F5F5F5F5F5F5F5F5F5F5F5F5F5F5F5F5F5F5F5F5F5F5F5F5F5F5F5F5F5F5F5F5F5F5F5F5F5F5F5F5F5F5F5F5F5F5F5F5F5F5F5F5F5F5F5F5F5F5F5F5F5F5F5F5F5F5F5F5F5F5F5F5F5F5F5F5F5F5F5F5F5
310
F5F5F5F5F5F5F5F5F5F5F5F5F5F5F5F5F5F5F5F5F5F5F5F5F5F5F5F5F5F5F5F5F5F5F5F5F5F5F5F5F5F5F5F5F5F5F5F5F5F5F5F5F5F5F5F520F5F5F5F5F5F5F5F5F5F5F5F5F5F5F5F5F5E2E2E2EFE2E2F5F5F5F5F5F5F5F5F5F5F5F5F5F5F5F5F520F5F5F5F5F5F5F5F5F5F5F5F5F5F5F5F5F5F5F5F5F5F5F5F5F5F5F5F5F5
310
F5F5F5F5F5F5F5F5F5F5F5F5F5F5F5F5F5F5F5F5F5F5F5F5F5F5F5F5F5F5F5F5F5F5F5F5F5F5F5F5F5F5F5F5F5F5F5F5F5F5F5F5F5F5F5F5F5F5F5F5F5F5F5F5F5F5F5F5F5F5F5F5F5F5F5F5F5F5F5F5F5F5F5F5F5F5F5F5F5F5F5F5F5F5F5F5F5F5F5F5F5F5F5F5F5F5F5F5F520F5F5F5F5F5F5F5F5F5F5F5F5F5F5F5F5F5
310
E2E2E2EFE2E2F5F5F5F5F5F5F5F5F5F5F5F5F5F5F5F5F520F5F5F5F5F5F5F5F5F5F5F5F5F5F5F5F5F5F5F5F5F5F5F5F5F5F5F5F5F5F5F5F5F5F5F5F5F5F5F5F5F5F5F5F5F5F5F5F5F5F5F5F5F5F5F5F5F5F5F5F5F5F5F5F5F5F5F5F5F5F5F5F5F5F5F5F5F5F5F5F5F5F5F5F5F5F5F5F5F5F5F5F5F5F5F5F5F5F5F5F5F5F5F5
310
F5F5F5F5F5F5F5F5F5F5F5F5F5F5F5F5F5F5F5F5F5F5F5F5F5F5F5F5F5F5F5F5F5F5F520F5F5F5F5F5F5F5F5F5F5F5F5F5F5F5F5F5E2E2E2EFE2F5F5F5F5F5F5F5F5F5F5F5F5F5F5F5F5F5F520F5F5F5F5F5F5F5F5F5F5F5F5F5F5F5F5F5F5F5F5F5F5F5F5F5F5F5F5F5F5F5F5F5F5F5F5F5F5F5F5F5F5F5F5F5F5F5F5F5F5
310
F5F5F5F5F5F5F5F5F5F5F5F5F5F5F5F5F5F5F5F5F5F5F5F5F5F5F5F5F5F5F5F5F5F5F5F5F5F5F5F5F5F5F5F5F5F5F5F5F5F5F5F5F5F5F5F5F5F5F5F5F5F5F5F5F5F5F5F5F5F5F5F5F5F5F5F5F5F5F5F5F5F5F5F5F5F5F5F520F5F5F5F5F5F5F5F5F5F5F5F5F5F5F5F5F5F5E2E2EFE2F5F5F5F5F5F5F5F5F5F5F5F5F5F5F5F5
310
F5F520F5F5F5F5F5F5F5F5F5F5F5F5F5F5F5F5F5F5F5F5F5F5F5F5F5F5F5F5F5F5F5F5F5F5F5F5F5F5F5F5F5F5F5F5F5F5F5F5F5F5F5F5F5F5F5F5F5F5F5F5F5F5F5F5F5F5F5F5F5F5F5F5F5F5F5F5F5F5F5F5F5F5F5F5F5F5F5F5F5F5F5F5F5F5F5F5F5F5F5F5F5F5F5F5F5F5F5F5F5F5F5F5F5F5F5F5F5F5F5F5F5F5F5F5
310
F5F5F5F5F5F5F5F5F5F5F5F5F5F520F5F5F5F5F5F5F5F5F5F5F5F5F5F5F5F5F5F5E2E2EFE2F5F5F5F5F5F5F5F5F5F5F5F5F5F5F5F5F5F520F5F5F5F5F5F5F5F5F5F5F5F5F5F5F5F5F5F5F5F5F5F5F5F5F5F5F5F5F5F5F5F5F5F5F5F5F5F5F5F5F5F5F5F5F5F5F5F5F5F5F5F5F5F5F5F5F5F5F5F5F5F5F5F5F5F5F5F5F5F5F5
310
F5F5F5F5F5F5F5F5F5F5F5F5F5F5F5F5F5F5F5F5F5F5F5F5F5F5F5F5F5F5F5F5F5F5F5F5F5F5F5F5F5F5F5F5F5F5F5F5F5F5F5F5F5F5F5F5F5F5F5F5F5F5F5F5F5F5F520F5F5F5F5F5F5F5F5F5F5F5F5F5F5F5F5F5F5E2E2EFE2F5F5F5F5F5F5F5F5F5F5F5F5F5F5F5F5F5F520F5F5F5F5F5F5F5F5F5F5F5F5F5F5F5F5F5F5
310
F5F5F5F5F5F5F5F5F5F5F5F5F5F5F5F5F5F5F5F5F5F5F5F5F5F5F5F5F5F5F5F5F5F5F5F5F5F5F5F5F5F5F5F5F5F5F5F5F5F5F5F5F5F5F5F5F5F5F5F5F5F5F5F5F5F5F5F5F5F5F5F5F5F5F5F5F5F5F5F5F5F5F5F5F5F5F5F5F5F5F5F5F5F5F5F5F5F5F5F5F5F5F5F5F5F5F5F5F5F5F5F5F5F5F5F5F5F5F5F520F5F5F5F5F5F5
310
F5F5F5F5F5F5F5F5F5F5F5F5E2E2EFE2F5F5F5F5F5F5F5F5F5F5F5F5F5F5F5F5F5F5202020202020202020202020202020202020202020202020202020202020202020202020202020202020202020202020202020202020202020202020202020202020202020202020202020202020202020202020202020202020202020
310
2020202020202020202020202020202020202020202020202020202020202020202020202020202020202020202020F5F5F5F5F5F5F5F5F5F5F5F5F5F5F5F5F5F5E2E2EFE2F5F5F5F5F5F5F5F5F5F5F5F5F5F5F5F5F5F5F5F5F5F5F5F5F5F5F5F5F5F5F5F5F5F5F5F5F5F5F5F5F5F5F5F5F5F5F5F5F5F5F5F5F5F5F5F5F5F5
310
F5F5F5F5F5F5F5F5F5F5F5F5F5F5F5F5F5F5F5F5F5F5F5F5F5F5F5F5F5F5F5F5F5F5F5F5F5F5F5F5F5F5F5F5F5F5F5F5F5F5F5F5F5F5F5F5F5F5F5F5F5F5F5F5F5F5F5F5F5F5F5F5F5F5F5F5F5F5F5F5F5F5F5F5F5F5F5F5F5F5F5F5F5F5F5F5F5F5F5F5F5F5F5F5F5F5F5F5F5F5F5F5F5F5F5F5F5F5E2E2EFE2F5F5F5F5F5
310
F5F5F5F5F5F5F5F5F5F5F5F5F5F5F5F5F5F5F5F5F5F5F5F5F5F5F5F5F5F5F5F5F5F5F5F5F5F5F5F5F5F5F5F5F5F5F5F5F5F5F5F5F5F5F5F5F5F5F5F5F5F5F5F5F5F5F5F5F5F5F5F5F5F5F5F5F5F5F5F5F5F5F5F5F5F5F5F5F5F5F5F5F5F5F5F5F5F5F5F5F5F5F5F5F5F5F5F5F5F5F5F5F5F5F5F5F5F5F5F5F5F5F5F5F5F5F5
310
F5F5F5F5F5F5F5F5F5F5F5F5F5F5F5F5F5F5F5F5F5F5F5F5F5F5F5F5F5F5F5F5F5F5F5F5F5F5F5F5F5F5F5F5E2E2EFE2F5F5F5F5F5F5F5F5F5F5F5F5F5F5F5F5F5F5F5F5F5F5F5F5F5F5F5F5F5F5F5F5F5F5F5F5F5F5F5F5F5F5F5F5F5F5F5F5F5F5F5F5F5F5F5F5F5F5F5F5F5F5F5F5F5F5F5F5F5F5F5F5F5F5F5F5F5F5F5
310
F5F5F5F5F5F5F5F5F5F5F5F5F5F5F5F5F5F5F5F5F5F5F5F5F5F5F5F5F5F5F5F5F5F5F5F5F5F5F5F5F5F5F5F5F5F5F5F5F5F5F5F5F5F5F5F5F5F5F5F5F5F5F5F5F5F5F5F5F5F5F5F5F5F5F5F5F5F5F5F5F5F5F5F5F5F5F5F5F5F5F5F5F5F5F5F5F5E2E2EFE2F5F5F5F5F5F5F5F5F5F5F5F5F5F5F5F5F5F5F5F5F5F5F5F5F5F5
310
F5F5F5F5F5F5F5F5F5F5F5F5F5F5F5F5F5F5F5F5F5F5F5F5F5F5F5F5F5F5F5F5F5F5F5F5F5F5F5F5F5F5F5F5F5F5F5F5F5F5F5F5F5F5F5F5F5F5F5F5F5F5F5F5F5F5F5F5F5F5F5F5F5F5F5F5F5F5F5F5F5F5F5F5F5F5F5F5F5F5F5F5F5F5F5F5F5F5F5F5F5F5F5F5F5F5F5F5F5F5F5F5F5F5F5F5F5F5F5F5F5F5F5F5F5F5F5
310
F5F5F5F5F5F5F5F5F5F5F5F5F5F5F5F5F5F5F5F5F5F5F5E2E2EFE2E2F5F5F5F5F5F5F5F5F5F5F5F5F5F5F5F5F5F5F5F5F5F5F5F5F5F5F5F5F5F5F5F5F5F5F5F5F5F5F5F5F5F5F5F5F5F5F5F5F5F5F5F5F5F5F5F5F5F5F5F5F5F5F5F5F5F5F5F5F5F5F5F5F5F5F5F5F5F5F5F5F5F5F5F5F5F5F5F5F5F5F5F5F5F5F5F5F5F5F5
310
F5F5F5F5F5F5F5F5F5F5F5F5F5F5F5F5F5F5F5F5F5F5F5F5F5F5F5F5F5F5F5F5F5F5F5F5F5F5F5F5F5F5F5F5F5F5F5F5F5F5F5F5F5F5F5F5F5F5F5F5F5F5F5F5F5F5F5F5F5F5F5F5F5F5F5E2E2E2EFE2E2F5F5F5F5F5F5F5F5F5F5F5F5F5F5F5F5F5F5F5F5F5F5F5F5F5F5F5F5F5F5F5F5F5F5F5F5F5F5F5F5F5F5F5F5F5F5
310
F5F5F5F5F5F5F5F5F5F5F5F5F5F5F5F5F5F5F5F5F5F5F5F5F5F5F5F5F5F5F5F5F5F5F5F5F5F5F5F5F5F5F5F5F5F5F5F5F5F5F5F5F5F5F5F5F5F5F5F5F5F5F5F5F5F5F5F5F5F5F5F5F5F5F5F5F5F5F5F5F5F5F5F5F5F5F5F5F5F5F5F5F5F5F5F5F5F5F5F5F5F5F5F5F5F5F5F5F5F5F5F5F5F5F5F5F5F5F5F5F5F5F5F5F5F5F5
310
F5E2E2E2EFE2E2F5F5F5F5F5F5F5F5F5F5F5F5F5F5F5F5F5F5F5F5F5F5F5F5F5F5F5F5F5F5F5F5F5F5F5F5F5F5F5F5F5F5F5F5F5F5F5F5F5F5F5F5F5F5F5F5F5F5F5F5F5F5F5F5F5F5F5F5F5F5F5F5F5F5F5F5F5F5F5F5F5F5F5F5F5F5F5F5F5F5F5F5F5F5F5F5F5F5F5F5F5F5F5F5F5F5F5F5F5F5F5F5F5F5F5F5F5F5F5F5
310
F5F5F5F5F5F5F5F5F5F5F5F5F5F5F5F5F5F5F5F5F5F5F5F5F5F5F5F5F5F5F5F5F5F5F5F5F5F5F5F5F5F5F5F5F5F5F5F5F5F5F5F5F5F5E2E2E2EFE2E2F5F5F5F5F5F5F5F5F5F5F5F5F5F5F5F5F5F5F5F5F5F5F5F5F5F5F5F5F5F5F5F5F5F5F5F5F5F5F5F5F5F5F5F5F5F5F5F5F5F5F5F5F5F5F5F5F5F5F5F5F5F5F5F5F5F5F5
310
F5F5F5F5F5F5F5F5F5F5F5F5F5F5F5F5F5F5F5F5F5F5F5F5F5F5F5F5F5F5F5F5F5F5F5F5F5F5F5F5F5F5F5F5F5F5F5F5F5F5F5F5F5F5F5F5F5F5F5F5F5F5F5F5F5F5F5F5F5F5F5F5F5F5F5F5F5F5F5F5F5F5F5F5F5F5F5F5F5F5F5F5F5F5F5F5F5F5F5F5F5F5F5F5F5F5F5E2E2E2EFE2E2F5F5F5F5F5F5F5F5F5F5F5F5F5F5
310
F5F5F5F5F5F5F5F5F5F5F5F5F5F5F5F5F5F5F5F5F5F5F5F5F5F5F5F5F5F5F5F5F5F5F5F5F5F5F5F5F5F5F5F5F5F5F5F5F5F5F5F5F5F5F5F5F5F5F5F5F5F5F5F5F5F5F5F5F5F5F5F5F5F5F5F5F5F5F5F5F5F5F5F5F5F5F5F5F5F5F5F5F5F5F5F5F5F5F5F5F5F5F5F5F5F5F5F5F5F5F5F5F5F5F5F5F5F5F5F5F5F5F5F5F5F5F5
310
F5F5F5F5F5F5F5F5F5F5F5F5F5F5F5F5F5F5F5F5F5F5F5F5F5F5F5F5F5F5F5F5F5E2E2E2EFE2E2F5F5F5F5F5F5F5F5F5F5F5F5F5F5F5F5F5F5F5F5F5F5F5F5F5F5F5F5F5F5F5F5F5F5F5F5F5F5F5F5F5F5F5F5F5F5F5F5F5F5F5F5F5F5F5F5F5F5F5F5F5F5F5F5F5F5F5F5F5F5F5F5F5F5F5F5F5F5F5F5F5F5F5F5F5F5F5F5
310
F5F5F5F5F5F5F5F5F5F5F5F5F5F5F5F5F5F5F5F5F5F5F5F5F5F5F5F5F5F5F5F5F5F5F5F5F5F5F5F5F5F5F5F5F5F5F5F5F5F5F5F5F5F5F5F5F5F5F5F5F5F5F5F5F5F5F5F5F5F5F5F5F5F5F5F5F5F5F5F5F5F5F5F5F5F5E2E2E2EFE2E2F5F5F5F5F5F5F5F5F5F5F5F5F5F5F5F5F5F5F5F5F5F5F5F5F5F5F5F5F5F5F5F5F5F5F5
310
F5F5F5F5F5F5F5F5F5F5F5F5F5F5F5F5F5F5F5F5F5F5F5F5F5F5F5F5F5F5F5F5F5F5F5F5F5F5F5F5F5F5F5F5F5F5F5F5F5F5F5F5F5F5F5F5F5F5F5F5F5F5F5F5F5F5F5F5F5F5F5F5F5F5F5F5F5F5F5F5F5F5F5F5F5F5F5F5F5F5F5F5F5F5F5F5F5F5F5F5F5F5F5F5F5F5F5F5F5F5F5F5F5F5F5F5F5F5F5F5F5F5F5F5F5F5F5
310
F5F5F5F5F5F5F5F5F5F5F5F5E2E2E2EFE2E2E2E2E2E2E2E2E2E2F5F5F5F5F5F5F5F5F5E2E2E2E2E2E2E2E2E2E2E2E2E2E2E2E2F5F5F5F5F5F5F5F5F5E2E2E2E2E2E2E2E2E2E2E2E2E2E2E2E2F5F5F5F5F5F5F5F5F5E2E2E2E2E2E2E2E2E2E2E2E2E2E2E2E2F5F5F5F5F5F5F5F5F5E2E2E2E2E2E2E2E2E2E2E2E2E2E2E2E2F5
310
F5F5F5F5F5F5F5F5E2E2E2E2E2E2E2E2E2E2E2E2E2E2E2E2F5F5F5F5F5F5F5F5F5E2E2E2E2E2E2E2E2E2E2E2E2E2E2E2E2F5F5F5F5F5F5F5F5F5E2E2E2E2E2E2E2E2E2E2EFE2F5F5F5F5F5F5F5F5F5F5F5F5F5F5F5F5F5F5F5F5F5F5F5F5F5F5F5F5F5F5F5F5F5F5F5F5F5F5F5F5F5F5F5F5F5F5F5F5F5F5F5F5F5F5F5F5F5
310
F5F5F5F5F5F5F5F5F5F5F5F5F5F5F5F5F5F5F5F5F5F5F5F5F5F5F5F5F5F5F5F5F5F5F5F5F5F5F5F5F5F5F5F5F5F5F5F5F5F5F5F5F5F5F5F5F5F5F5F5F5F5F5F5F5F5F5F5F5F5F5F5F5F5F5F5F5F5F5F5F5F5F5F5F5F5F5F5F5F5F5F5F5F5F5F5F5F5F5F5F5F5F5F5F5F5F5F5F5F5F5F5F5F5F5F5F5F5F5E2EFEFE2E2E2E2E2
310
E2E2E2E2E2E2E2E2E2E2E2E2E2E2E2E2E2E2E2E2E2E2E2E2E2E2E2E2E2E2E2E2E2E2E2E2E2E2E2E2E2E2E2E2E2E2E2E2E2E2E2E2E2E2E2E2E2E2E2E2E2E2E2E2E2E2E2E2E2E2E2E2E2E2E2E2E2E2E2E2E2E2E2E2E2E2E2E2E2E2E2E2E2E2E2E2E2E2E2E2E2E2E2E2E2E2E2E2E2E2E2E2E2E2E2E2E2E2E2E2E2E2E2E2E2E2E2
310
E2E2E2E2E2E2E2E2E2E2E2E2E2E2E2E2E2E2E2E2E2E2E2E2E2E2E2E2E2E2E2E2E2E2E2E2E2E2E2E2E2E2E2E2E2E2EFEF
  0
XRECORD
  5
792F
102
{ACAD_REACTORS
330
792E
102
}
330
792E
100
AcDbXrecord
280
     1
102
SHADEPLOT
 70
     0
102
SHADEPLOTRESLEVEL
 70
     2
102
SHADEPLOTCUSTOMDPI
 70
   300
  0
XRECORD
  5
7929
102
{ACAD_REACTORS
330
7928
102
}
330
7928
100
AcDbXrecord
280
     1
102
MATERIAL
148
0.0
149
0.0
149
0.0
 93
        0
 94
       63
282
     0
 72
     1
 77
     1
171
     1
175
     1
179
     1
273
     0
  0
XRECORD
  5
7927
102
{ACAD_REACTORS
330
7926
102
}
330
7926
100
AcDbXrecord
280
     1
102
MATERIAL
148
0.0
149
0.0
149
0.0
 93
        0
 94
       63
282
     0
 72
     1
 77
     1
171
     1
175
     1
179
     1
273
     0
  0
XRECORD
  5
792B
102
{ACAD_REACTORS
330
792A
102
}
330
792A
100
AcDbXrecord
280
     1
102
MATERIAL
148
0.0
149
0.0
149
0.0
 93
        0
 94
       63
282
     0
 72
     1
 77
     1
171
     1
175
     1
179
     1
273
     0
  0
XRECORD
  5
793C
102
{ACAD_REACTORS
330
793B
102
}
330
793B
100
AcDbXrecord
280
     1
102
SHADEPLOT
 70
     0
102
SHADEPLOTRESLEVEL
 70
     2
102
SHADEPLOTCUSTOMDPI
 70
   300
  0
XRECORD
  5
793E
102
{ACAD_REACTORS
330
793D
102
}
330
793D
100
AcDbXrecord
280
     1
102
SHADEPLOT
 70
     0
102
SHADEPLOTRESLEVEL
 70
     2
102
SHADEPLOTCUSTOMDPI
 70
   300
  0
XRECORD
  5
7941
102
{ACAD_REACTORS
330
7940
102
}
330
7940
100
AcDbXrecord
280
     1
102
SHADEPLOT
 70
     0
102
SHADEPLOTRESLEVEL
 70
     2
102
SHADEPLOTCUSTOMDPI
 70
   300
  0
XRECORD
  5
7931
102
{ACAD_REACTORS
330
7930
102
}
330
7930
100
AcDbXrecord
280
     1
102
SHADEPLOT
 70
     0
102
SHADEPLOTRESLEVEL
 70
     2
102
SHADEPLOTCUSTOMDPI
 70
   300
  0
XRECORD
  5
7933
102
{ACAD_REACTORS
330
7932
102
}
330
7932
100
AcDbXrecord
280
     1
102
SHADEPLOT
 70
     0
102
SHADEPLOTRESLEVEL
 70
     2
102
SHADEPLOTCUSTOMDPI
 70
   300
  0
XRECORD
  5
7935
102
{ACAD_REACTORS
330
7934
102
}
330
7934
100
AcDbXrecord
280
     1
102
SHADEPLOT
 70
     0
102
SHADEPLOTRESLEVEL
 70
     2
102
SHADEPLOTCUSTOMDPI
 70
   300
  0
XRECORD
  5
792D
102
{ACAD_REACTORS
330
792C
102
}
330
792C
100
AcDbXrecord
280
     1
102
ACAD_ROUNDTRIP_PRE2007_TABLESTYLE
 90
      512
 91
        0
  1

 92
      512
 93
        0
  2

 94
      512
 95
        0
  3

  0
ENDSEC
  0
EOF
